  0
SECTION
  2
HEADER
  9
$ACADVER
  1
AC1015
  9
$ACADMAINTVER
 70
     6
  9
$DWGCODEPAGE
  3
ANSI_1250
  9
$INSBASE
 10
0.0
 20
0.0
 30
0.0
  9
$EXTMIN
 10
0.0
 20
0.0
 30
0.0
  9
$EXTMAX
 10
29700.0
 20
21000.0
 30
0.0
  9
$LIMMIN
 10
0.0
 20
0.0
  9
$LIMMAX
 10
29700.0
 20
21000.0
  9
$ORTHOMODE
 70
     0
  9
$REGENMODE
 70
     1
  9
$FILLMODE
 70
     1
  9
$QTEXTMODE
 70
     0
  9
$MIRRTEXT
 70
     1
  9
$LTSCALE
 40
1.0
  9
$ATTMODE
 70
     1
  9
$TEXTSIZE
 40
175.0
  9
$TRACEWID
 40
1.0
  9
$TEXTSTYLE
  7
Standard
  9
$CLAYER
  8
0
  9
$CELTYPE
  6
ByLayer
  9
$CECOLOR
 62
   256
  9
$CELTSCALE
 40
1.0
  9
$DISPSILH
 70
     0
  9
$DIMSCALE
 40
1.0
  9
$DIMASZ
 40
165.1
  9
$DIMEXO
 40
50.0
  9
$DIMDLI
 40
3.75
  9
$DIMRND
 40
0.0
  9
$DIMDLE
 40
0.0
  9
$DIMEXE
 40
50.0
  9
$DIMTP
 40
0.0
  9
$DIMTM
 40
0.0
  9
$DIMTXT
 40
175.0
  9
$DIMCEN
 40
2.5
  9
$DIMTSZ
 40
0.0
  9
$DIMTOL
 70
     0
  9
$DIMLIM
 70
     0
  9
$DIMTIH
 70
     1
  9
$DIMTOH
 70
     1
  9
$DIMSE1
 70
     0
  9
$DIMSE2
 70
     0
  9
$DIMTAD
 70
     1
  9
$DIMZIN
 70
     1
  9
$DIMBLK
  1

  9
$DIMASO
 70
     1
  9
$DIMSHO
 70
     1
  9
$DIMPOST
  1

  9
$DIMAPOST
  1

  9
$DIMALT
 70
     0
  9
$DIMALTD
 70
     3
  9
$DIMALTF
 40
0.0393700787
  9
$DIMLFAC
 40
1.0
  9
$DIMTOFL
 70
     1
  9
$DIMTVP
 40
0.0
  9
$DIMTIX
 70
     0
  9
$DIMSOXD
 70
     0
  9
$DIMSAH
 70
     0
  9
$DIMBLK1
  1

  9
$DIMBLK2
  1

  9
$DIMSTYLE
  2
ISO-25
  9
$DIMCLRD
 70
     0
  9
$DIMCLRE
 70
     0
  9
$DIMCLRT
 70
     0
  9
$DIMTFAC
 40
1.0
  9
$DIMGAP
 40
76.2
  9
$DIMJUST
 70
     0
  9
$DIMSD1
 70
     0
  9
$DIMSD2
 70
     0
  9
$DIMTOLJ
 70
     0
  9
$DIMTZIN
 70
     1
  9
$DIMALTZ
 70
     0
  9
$DIMALTTZ
 70
     0
  9
$DIMUPT
 70
     0
  9
$DIMDEC
 70
     2
  9
$DIMTDEC
 70
     2
  9
$DIMALTU
 70
     2
  9
$DIMALTTD
 70
     3
  9
$DIMTXSTY
  7
Standard
  9
$DIMAUNIT
 70
     0
  9
$DIMADEC
 70
     2
  9
$DIMALTRND
 40
0.0
  9
$DIMAZIN
 70
     0
  9
$DIMDSEP
 70
    44
  9
$DIMATFIT
 70
     3
  9
$DIMFRAC
 70
     0
  9
$DIMLDRBLK
  1

  9
$DIMLUNIT
 70
     2
  9
$DIMLWD
 70
    -2
  9
$DIMLWE
 70
    -2
  9
$DIMTMOVE
 70
     0
  9
$LUNITS
 70
     2
  9
$LUPREC
 70
     2
  9
$SKETCHINC
 40
1.0
  9
$FILLETRAD
 40
10.0
  9
$AUNITS
 70
     0
  9
$AUPREC
 70
     2
  9
$MENU
  1
.
  9
$ELEVATION
 40
0.0
  9
$PELEVATION
 40
0.0
  9
$THICKNESS
 40
0.0
  9
$LIMCHECK
 70
     0
  9
$CHAMFERA
 40
0.0
  9
$CHAMFERB
 40
0.0
  9
$CHAMFERC
 40
0.0
  9
$CHAMFERD
 40
0.0
  9
$SKPOLY
 70
     0
  9
$TDCREATE
 40
2460695.813577882
  9
$TDUCREATE
 40
2460695.771911216
  9
$TDUPDATE
 40
2460695.813581806
  9
$TDUUPDATE
 40
2460695.771915139
  9
$TDINDWG
 40
0.0000000116
  9
$TDUSRTIMER
 40
0.0000000116
  9
$USRTIMER
 70
     1
  9
$ANGBASE
 50
0.0
  9
$ANGDIR
 70
     0
  9
$PDMODE
 70
     0
  9
$PDSIZE
 40
-1.0
  9
$PLINEWID
 40
0.0
  9
$SPLFRAME
 70
     0
  9
$SPLINETYPE
 70
     6
  9
$SPLINESEGS
 70
     8
  9
$HANDSEED
  5
539
  9
$SURFTAB1
 70
     6
  9
$SURFTAB2
 70
     6
  9
$SURFTYPE
 70
     6
  9
$SURFU
 70
     6
  9
$SURFV
 70
     6
  9
$UCSBASE
  2

  9
$UCSNAME
  2

  9
$UCSORG
 10
0.0
 20
0.0
 30
0.0
  9
$UCSXDIR
 10
1.0
 20
0.0
 30
0.0
  9
$UCSYDIR
 10
0.0
 20
1.0
 30
0.0
  9
$UCSORTHOREF
  2

  9
$UCSORTHOVIEW
 70
     0
  9
$UCSORGTOP
 10
0.0
 20
0.0
 30
0.0
  9
$UCSORGBOTTOM
 10
0.0
 20
0.0
 30
0.0
  9
$UCSORGLEFT
 10
0.0
 20
0.0
 30
0.0
  9
$UCSORGRIGHT
 10
0.0
 20
0.0
 30
0.0
  9
$UCSORGFRONT
 10
0.0
 20
0.0
 30
0.0
  9
$UCSORGBACK
 10
0.0
 20
0.0
 30
0.0
  9
$PUCSBASE
  2

  9
$PUCSNAME
  2

  9
$PUCSORG
 10
0.0
 20
0.0
 30
0.0
  9
$PUCSXDIR
 10
1.0
 20
0.0
 30
0.0
  9
$PUCSYDIR
 10
0.0
 20
1.0
 30
0.0
  9
$PUCSORTHOREF
  2

  9
$PUCSORTHOVIEW
 70
     0
  9
$PUCSORGTOP
 10
0.0
 20
0.0
 30
0.0
  9
$PUCSORGBOTTOM
 10
0.0
 20
0.0
 30
0.0
  9
$PUCSORGLEFT
 10
0.0
 20
0.0
 30
0.0
  9
$PUCSORGRIGHT
 10
0.0
 20
0.0
 30
0.0
  9
$PUCSORGFRONT
 10
0.0
 20
0.0
 30
0.0
  9
$PUCSORGBACK
 10
0.0
 20
0.0
 30
0.0
  9
$USERI1
 70
     0
  9
$USERI2
 70
     0
  9
$USERI3
 70
     0
  9
$USERI4
 70
     0
  9
$USERI5
 70
     0
  9
$USERR1
 40
0.0
  9
$USERR2
 40
0.0
  9
$USERR3
 40
0.0
  9
$USERR4
 40
0.0
  9
$USERR5
 40
0.0
  9
$WORLDVIEW
 70
     1
  9
$SHADEDGE
 70
     3
  9
$SHADEDIF
 70
    70
  9
$TILEMODE
 70
     1
  9
$MAXACTVP
 70
    64
  9
$PINSBASE
 10
0.0
 20
0.0
 30
0.0
  9
$PLIMCHECK
 70
     0
  9
$PEXTMIN
 10
0.0
 20
0.0
 30
0.0
  9
$PEXTMAX
 10
29700.0
 20
21000.0
 30
0.0
  9
$PLIMMIN
 10
0.0
 20
0.0
  9
$PLIMMAX
 10
29700.0
 20
21000.0
  9
$UNITMODE
 70
     0
  9
$VISRETAIN
 70
     1
  9
$PLINEGEN
 70
     0
  9
$PSLTSCALE
 70
     1
  9
$TREEDEPTH
 70
  3020
  9
$CMLSTYLE
  2
Standard
  9
$CMLJUST
 70
     0
  9
$CMLSCALE
 40
20.0
  9
$PROXYGRAPHICS
 70
     1
  9
$MEASUREMENT
 70
     1
  9
$CELWEIGHT
370
    -1
  9
$ENDCAPS
280
     0
  9
$JOINSTYLE
280
     0
  9
$LWDISPLAY
290
     1
  9
$INSUNITS
 70
     4
  9
$HYPERLINKBASE
  1

  9
$STYLESHEET
  1

  9
$XEDIT
290
     1
  9
$CEPSNTYPE
380
     0
  9
$PSTYLEMODE
290
     1
  9
$FINGERPRINTGUID
  2
{a6125cc8-221d-4dc2-adde-8a541bcf6188}
  9
$VERSIONGUID
  2
{FAEB1C32-E019-11D5-929B-00C0DF256EC4}
  9
$EXTNAMES
290
     1
  9
$PSVPSCALE
 40
0.0
  9
$OLESTARTUP
290
     0
  0
ENDSEC
  0
SECTION
  2
CLASSES
  0
CLASS
  1
ACDBDICTIONARYWDFLT
  2
AcDbDictionaryWithDefault
  3
ObjectDBX Classes
 90
        0
280
     0
281
     0
  0
CLASS
  1
VISUALSTYLE
  2
AcDbVisualStyle
  3
ObjectDBX Classes
 90
     4095
280
     0
281
     0
  0
CLASS
  1
MATERIAL
  2
AcDbMaterial
  3
ObjectDBX Classes
 90
     1153
280
     0
281
     0
  0
CLASS
  1
SCALE
  2
AcDbScale
  3
ObjectDBX Classes
 90
     1153
280
     0
281
     0
  0
CLASS
  1
TABLESTYLE
  2
AcDbTableStyle
  3
ObjectDBX Classes
 90
     4095
280
     0
281
     0
  0
CLASS
  1
MLEADERSTYLE
  2
AcDbMLeaderStyle
  3
ACDB_MLEADERSTYLE_CLASS
 90
     4095
280
     0
281
     0
  0
CLASS
  1
SUN
  2
AcDbSun
  3
SCENEOE
 90
     1153
280
     0
281
     0
  0
CLASS
  1
ACDBPLACEHOLDER
  2
AcDbPlaceHolder
  3
ObjectDBX Classes
 90
        0
280
     0
281
     0
  0
CLASS
  1
LAYOUT
  2
AcDbLayout
  3
ObjectDBX Classes
 90
        0
280
     0
281
     0
  0
ENDSEC
  0
SECTION
  2
TABLES
  0
TABLE
  2
VPORT
  5
8
330
0
100
AcDbSymbolTable
 70
     1
  0
VPORT
  5
29
330
8
100
AcDbSymbolTableRecord
100
AcDbViewportTableRecord
  2
*Active
 70
     0
 10
0.0
 20
0.0
 11
1.0
 21
1.0
 12
14850.0
 22
10500.0
 13
0.0
 23
0.0
 14
10.0
 24
10.0
 15
10.0
 25
10.0
 16
0.0
 26
0.0
 36
1.0
 17
0.0
 27
0.0
 37
0.0
 40
21000.0
 41
1.4142857143
 42
50.0
 43
0.0
 44
0.0
 50
0.0
 51
0.0
 71
     0
 72
  2000
 73
     1
 74
     3
 75
     0
 76
     0
 77
     0
 78
     0
281
     0
 65
     1
110
0.0
120
0.0
130
0.0
111
1.0
121
0.0
131
0.0
112
0.0
122
1.0
132
0.0
 79
     0
146
0.0
  0
ENDTAB
  0
TABLE
  2
LTYPE
  5
5
330
0
100
AcDbSymbolTable
 70
     6
  0
LTYPE
  5
14
330
5
100
AcDbSymbolTableRecord
100
AcDbLinetypeTableRecord
  2
ByBlock
 70
     0
  3

 72
    65
 73
     0
 40
0.0
  0
LTYPE
  5
15
330
5
100
AcDbSymbolTableRecord
100
AcDbLinetypeTableRecord
  2
ByLayer
 70
     0
  3

 72
    65
 73
     0
 40
0.0
  0
LTYPE
  5
16
330
5
100
AcDbSymbolTableRecord
100
AcDbLinetypeTableRecord
  2
Continuous
 70
     0
  3
Solid line
 72
    65
 73
     0
 40
0.0
  0
LTYPE
  5
6E
330
5
100
AcDbSymbolTableRecord
100
AcDbLinetypeTableRecord
  2
HIDDEN
 70
     0
  3
Hidden __ __ __ __ __ __ __ __ __ __ __ __ __ __
 72
    65
 73
     2
 40
1.905
 49
1.27
 74
     0
 49
-0.635
 74
     0
  0
LTYPE
  5
6F
330
5
100
AcDbSymbolTableRecord
100
AcDbLinetypeTableRecord
  2
PHANTOM
 70
     0
  3
Phantom ______  __  __  ______  __  __  ______
 72
    65
 73
     6
 40
12.7
 49
6.35
 74
     0
 49
-1.27
 74
     0
 49
1.27
 74
     0
 49
-1.27
 74
     0
 49
1.27
 74
     0
 49
-1.27
 74
     0
  0
LTYPE
  5
70
330
5
100
AcDbSymbolTableRecord
100
AcDbLinetypeTableRecord
  2
CENTER
 70
     0
  3
Center ____ _ ____ _ ____ _ ____ _ ____ _ ____
 72
    65
 73
     4
 40
10.16
 49
6.35
 74
     0
 49
-1.27
 74
     0
 49
1.27
 74
     0
 49
-1.27
 74
     0
  0
LTYPE
  5
71
330
5
100
AcDbSymbolTableRecord
100
AcDbLinetypeTableRecord
  2
CENTERX2
 70
     0
  3
Center (2x) ________  __  ________  __  _____
 72
    65
 73
     4
 40
20.32
 49
12.7
 74
     0
 49
-2.54
 74
     0
 49
2.54
 74
     0
 49
-2.54
 74
     0
  0
LTYPE
  5
72
330
5
100
AcDbSymbolTableRecord
100
AcDbLinetypeTableRecord
  2
DOT2
 70
     0
  3
Dot (.5x) ........................................
 72
    65
 73
     2
 40
0.635
 49
0.0
 74
     0
 49
-0.635
 74
     0
  0
ENDTAB
  0
TABLE
  2
LAYER
  5
2
330
0
100
AcDbSymbolTable
 70
     2
  0
LAYER
  5
10
330
2
100
AcDbSymbolTableRecord
100
AcDbLayerTableRecord
  2
0
 70
     0
 62
     7
  6
Continuous
370
    -3
390
F
  0
LAYER
  5
73
330
2
100
AcDbSymbolTableRecord
100
AcDbLayerTableRecord
  2
FORMAT
 70
     0
 62
     7
  6
Continuous
370
    -3
390
F
  0
ENDTAB
  0
TABLE
  2
STYLE
  5
3
330
0
100
AcDbSymbolTable
 70
     2
  0
STYLE
  5
11
330
3
100
AcDbSymbolTableRecord
100
AcDbTextStyleTableRecord
  2
Standard
 70
     0
 40
0.0
 41
1.0
 50
0.0
 71
     0
 42
175.0
  3
txt
  4

  0
STYLE
  5
1C9
330
3
100
AcDbSymbolTableRecord
100
AcDbTextStyleTableRecord
  2
SLDTEXTSTYLE0
 70
     0
 40
0.0
 41
0.75
 50
0.0
 71
     0
 42
175.0
  3
TXT
  4

  0
ENDTAB
  0
TABLE
  2
VIEW
  5
6
330
0
100
AcDbSymbolTable
 70
     0
  0
ENDTAB
  0
TABLE
  2
UCS
  5
7
330
0
100
AcDbSymbolTable
 70
     0
  0
ENDTAB
  0
TABLE
  2
APPID
  5
9
330
0
100
AcDbSymbolTable
 70
     1
  0
APPID
  5
12
330
9
100
AcDbSymbolTableRecord
100
AcDbRegAppTableRecord
  2
ACAD
 70
     0
  0
ENDTAB
  0
TABLE
  2
DIMSTYLE
  5
A
330
0
100
AcDbSymbolTable
 70
     5
100
AcDbDimStyleTable
  0
DIMSTYLE
105
27
330
A
100
AcDbSymbolTableRecord
100
AcDbDimStyleTableRecord
  2
ISO-25
 70
     0
 41
2.5
 42
0.625
 43
3.75
 44
1.25
 73
     0
 74
     0
 77
     1
 78
     8
140
2.5
141
2.5
143
0.0393700787
147
0.625
171
     3
172
     1
178
     0
271
     2
272
     2
274
     3
278
    44
283
     0
284
     8
340
11
  0
DIMSTYLE
105
1CA
102
{ACAD_REACTORS
330
1C8
330
1D4
330
52F
102
}
330
A
100
AcDbSymbolTableRecord
100
AcDbDimStyleTableRecord
  2
SLDDIMSTYLE0
 70
     0
 41
165.1
 44
0.0
 45
0.000000001
 73
     0
 74
     0
 77
     1
 78
    12
 79
     3
140
175.0
147
43.75
173
     1
178
     0
271
     0
272
     2
276
     2
284
    12
340
1C9
  0
DIMSTYLE
105
36A
102
{ACAD_REACTORS
330
369
330
376
102
}
330
A
100
AcDbSymbolTableRecord
100
AcDbDimStyleTableRecord
  2
SLDDIMSTYLE1
 70
     0
 41
165.1
 44
0.0
 45
0.000000001
 73
     0
 74
     0
 77
     1
 78
    12
 79
     3
140
175.0
147
43.75
172
     1
173
     1
178
     0
271
     0
272
     0
276
     2
284
    12
289
     0
340
1C9
  0
DIMSTYLE
105
383
102
{ACAD_REACTORS
330
382
330
395
330
39F
330
3A9
330
3B3
102
}
330
A
100
AcDbSymbolTableRecord
100
AcDbDimStyleTableRecord
  2
SLDDIMSTYLE2
 70
     0
 41
165.1
 44
0.0
 45
0.000000001
 73
     0
 74
     0
 77
     1
 78
    12
 79
     3
140
175.0
147
43.75
173
     1
178
     0
271
     0
272
     0
276
     2
284
    12
340
1C9
  0
DIMSTYLE
105
38D
102
{ACAD_REACTORS
330
38C
102
}
330
A
100
AcDbSymbolTableRecord
100
AcDbDimStyleTableRecord
  2
SLDDIMSTYLE3
 70
     0
 41
165.1
 44
0.0
 73
     0
 74
     0
 77
     1
 78
    12
 79
     3
140
175.0
144
50.0
147
43.75
173
     1
178
     0
179
     2
272
     2
276
     2
284
    12
340
1C9
  0
ENDTAB
  0
TABLE
  2
BLOCK_RECORD
  5
1
330
0
100
AcDbSymbolTable
 70
    11
  0
BLOCK_RECORD
  5
1F
330
1
100
AcDbSymbolTableRecord
100
AcDbBlockTableRecord
  2
*Model_Space
340
22
  0
BLOCK_RECORD
  5
1B
330
1
100
AcDbSymbolTableRecord
100
AcDbBlockTableRecord
  2
*Paper_Space
340
1E
  0
BLOCK_RECORD
  5
1CB
330
1
100
AcDbSymbolTableRecord
100
AcDbBlockTableRecord
  2
_D
340
0
  0
BLOCK_RECORD
  5
1D5
330
1
100
AcDbSymbolTableRecord
100
AcDbBlockTableRecord
  2
_D_1
340
0
  0
BLOCK_RECORD
  5
36B
330
1
100
AcDbSymbolTableRecord
100
AcDbBlockTableRecord
  2
_D_2
340
0
  0
BLOCK_RECORD
  5
377
330
1
100
AcDbSymbolTableRecord
100
AcDbBlockTableRecord
  2
_D_3
340
0
  0
BLOCK_RECORD
  5
384
330
1
100
AcDbSymbolTableRecord
100
AcDbBlockTableRecord
  2
_D_4
340
0
  0
BLOCK_RECORD
  5
38E
330
1
100
AcDbSymbolTableRecord
100
AcDbBlockTableRecord
  2
_D_5
340
0
  0
BLOCK_RECORD
  5
396
330
1
100
AcDbSymbolTableRecord
100
AcDbBlockTableRecord
  2
_D_6
340
0
  0
BLOCK_RECORD
  5
3A0
330
1
100
AcDbSymbolTableRecord
100
AcDbBlockTableRecord
  2
_D_7
340
0
  0
BLOCK_RECORD
  5
3AA
330
1
100
AcDbSymbolTableRecord
100
AcDbBlockTableRecord
  2
_D_8
340
0
  0
BLOCK_RECORD
  5
3B4
330
1
100
AcDbSymbolTableRecord
100
AcDbBlockTableRecord
  2
_D_9
340
0
  0
BLOCK_RECORD
  5
530
330
1
100
AcDbSymbolTableRecord
100
AcDbBlockTableRecord
  2
_D_10
340
0
  0
ENDTAB
  0
ENDSEC
  0
SECTION
  2
BLOCKS
  0
BLOCK
  5
20
330
1F
100
AcDbEntity
  8
0
100
AcDbBlockBegin
  2
*Model_Space
 70
     0
 10
0.0
 20
0.0
 30
0.0
  3
*Model_Space
  1

  0
ENDBLK
  5
21
330
1F
100
AcDbEntity
  8
0
100
AcDbBlockEnd
  0
BLOCK
  5
1C
330
1B
100
AcDbEntity
 67
     1
  8
0
100
AcDbBlockBegin
  2
*Paper_Space
 70
     0
 10
0.0
 20
0.0
 30
0.0
  3
*Paper_Space
  1

  0
ENDBLK
  5
1D
330
1B
100
AcDbEntity
 67
     1
  8
0
100
AcDbBlockEnd
  0
BLOCK
  5
1CC
330
1CB
100
AcDbEntity
  8
0
100
AcDbBlockBegin
  2
_D
 70
     0
 10
0.0
 20
0.0
 30
0.0
  3
_D
  1

  0
SOLID
  5
1CE
330
1CB
100
AcDbEntity
  8
0
  6
Continuous
 62
     7
 48
50.0
370
    18
100
AcDbTrace
 10
8367.5172794007
 20
14950.9352936527
 30
0.0
 11
8532.6172794007
 21
14925.5352936526
 31
0.0
 12
8532.6172794007
 22
14976.3352936526
 32
0.0
 13
8532.6172794007
 23
14976.3352936526
 33
0.0
  0
SOLID
  5
1CF
330
1CB
100
AcDbEntity
  8
0
  6
Continuous
 62
     7
 48
50.0
370
    18
100
AcDbTrace
 10
9507.5172794007
 20
14950.9352936525
 30
0.0
 11
9342.4172794007
 21
14976.3352936525
 31
0.0
 12
9342.4172794006
 22
14925.5352936525
 32
0.0
 13
9342.4172794006
 23
14925.5352936525
 33
0.0
  0
LINE
  5
1D0
330
1CB
100
AcDbEntity
  8
0
  6
Continuous
 62
     7
 48
50.0
370
     0
100
AcDbLine
 10
8367.5172794006
 20
14343.1615581398
 30
0.0
 11
8367.5172794007
 21
15000.9352936527
 31
0.0
  0
LINE
  5
1D1
330
1CB
100
AcDbEntity
  8
0
  6
Continuous
 62
     7
 48
50.0
370
     0
100
AcDbLine
 10
9507.5172794006
 20
14343.1615581398
 30
0.0
 11
9507.5172794007
 21
15000.9352936525
 31
0.0
  0
LINE
  5
1D2
330
1CB
100
AcDbEntity
  8
0
  6
Continuous
 62
     7
 48
50.0
370
     0
100
AcDbLine
 10
8367.5172794007
 20
14950.9352936527
 30
0.0
 11
9507.5172794007
 21
14950.9352936525
 31
0.0
  0
MTEXT
  5
1D3
330
1CB
100
AcDbEntity
  8
0
  6
Continuous
 62
     7
 48
50.0
370
    18
100
AcDbMText
 10
8651.5561189644
 20
15176.5221393815
 30
0.0
 40
175.0
 41
0.0
 71
     1
 72
     1
  1
1140
  7
SLDTEXTSTYLE0
 73
     1
 44
1.0
  0
ENDBLK
  5
1CD
330
1CB
100
AcDbEntity
  8
0
100
AcDbBlockEnd
  0
BLOCK
  5
1D6
330
1D5
100
AcDbEntity
  8
0
100
AcDbBlockBegin
  2
_D_1
 70
     0
 10
0.0
 20
0.0
 30
0.0
  3
_D_1
  1

  0
SOLID
  5
1D8
330
1D5
100
AcDbEntity
  8
0
  6
Continuous
 62
     7
 48
50.0
370
    18
100
AcDbTrace
 10
8642.0172794098
 20
9756.436996476
 30
0.0
 11
8807.1172794098
 21
9731.0369964761
 31
0.0
 12
8807.1172794098
 22
9781.836996476
 32
0.0
 13
8807.1172794098
 23
9781.836996476
 33
0.0
  0
SOLID
  5
1D9
330
1D5
100
AcDbEntity
  8
0
  6
Continuous
 62
     7
 48
50.0
370
    18
100
AcDbTrace
 10
10512.0172794098
 20
9756.436996476
 30
0.0
 11
10346.9172794098
 21
9781.836996476
 31
0.0
 12
10346.9172794098
 22
9731.0369964761
 32
0.0
 13
10346.9172794098
 23
9731.0369964761
 33
0.0
  0
LINE
  5
1DA
330
1D5
100
AcDbEntity
  8
0
  6
Continuous
 62
     7
 48
50.0
370
     0
100
AcDbLine
 10
8642.0172794098
 20
12220.2698409152
 30
0.0
 11
8642.0172794098
 21
9706.436996476
 31
0.0
  0
LINE
  5
1DB
330
1D5
100
AcDbEntity
  8
0
  6
Continuous
 62
     7
 48
50.0
370
     0
100
AcDbLine
 10
10512.0172794098
 20
12220.2698409152
 30
0.0
 11
10512.0172794098
 21
9706.436996476
 31
0.0
  0
LINE
  5
1DC
330
1D5
100
AcDbEntity
  8
0
  6
Continuous
 62
     7
 48
50.0
370
     0
100
AcDbLine
 10
8642.0172794098
 20
9756.436996476
 30
0.0
 11
10512.0172794098
 21
9756.436996476
 31
0.0
  0
MTEXT
  5
1DD
330
1D5
100
AcDbEntity
  8
0
  6
Continuous
 62
     7
 48
50.0
370
    18
100
AcDbMText
 10
9253.944078083
 20
9982.023842205
 30
0.0
 40
175.0
 41
0.0
 71
     1
 72
     1
  1
1870
  7
SLDTEXTSTYLE0
 73
     1
 44
1.0
  0
ENDBLK
  5
1D7
330
1D5
100
AcDbEntity
  8
0
100
AcDbBlockEnd
  0
BLOCK
  5
36C
330
36B
100
AcDbEntity
  8
0
100
AcDbBlockBegin
  2
_D_2
 70
     0
 10
0.0
 20
0.0
 30
0.0
  3
_D_2
  1

  0
SOLID
  5
36E
330
36B
100
AcDbEntity
  8
0
  6
Continuous
 62
     7
 48
50.0
370
    18
100
AcDbTrace
 10
18593.8258482754
 20
12244.6688420197
 30
0.0
 11
18619.2258482754
 21
12409.7688420197
 31
0.0
 12
18568.4258482754
 22
12409.7688420197
 32
0.0
 13
18568.4258482754
 23
12409.7688420197
 33
0.0
  0
SOLID
  5
36F
330
36B
100
AcDbEntity
  8
0
  6
Continuous
 62
     7
 48
50.0
370
    18
100
AcDbTrace
 10
18593.8258482754
 20
11640.269840915
 30
0.0
 11
18568.4258482754
 21
11475.169840915
 31
0.0
 12
18619.2258482754
 22
11475.169840915
 32
0.0
 13
18619.2258482754
 23
11475.169840915
 33
0.0
  0
LINE
  5
370
330
36B
100
AcDbEntity
  8
0
  6
Continuous
 62
     7
 48
50.0
370
     0
100
AcDbLine
 10
17782.6500699452
 20
12244.6688420197
 30
0.0
 11
18643.8258482754
 21
12244.6688420197
 31
0.0
  0
LINE
  5
371
330
36B
100
AcDbEntity
  8
0
  6
Continuous
 62
     7
 48
50.0
370
     0
100
AcDbLine
 10
18210.5151312426
 20
11640.269840915
 30
0.0
 11
18643.8258482754
 21
11640.269840915
 31
0.0
  0
LINE
  5
372
330
36B
100
AcDbEntity
  8
0
  6
Continuous
 62
     7
 48
50.0
370
     0
100
AcDbLine
 10
18593.8258482754
 20
12244.6688420197
 30
0.0
 11
18593.8258482754
 21
12562.1688420197
 31
0.0
  0
LINE
  5
373
330
36B
100
AcDbEntity
  8
0
  6
Continuous
 62
     7
 48
50.0
370
     0
100
AcDbLine
 10
18593.8258482754
 20
12244.6688420197
 30
0.0
 11
18593.8258482754
 21
11640.269840915
 31
0.0
  0
LINE
  5
374
330
36B
100
AcDbEntity
  8
0
  6
Continuous
 62
     7
 48
50.0
370
     0
100
AcDbLine
 10
18593.8258482754
 20
11640.269840915
 30
0.0
 11
18593.8258482754
 21
11322.769840915
 31
0.0
  0
MTEXT
  5
375
330
36B
100
AcDbEntity
  8
0
  6
Continuous
 62
     7
 48
50.0
370
    18
100
AcDbMText
 10
18368.2390025464
 20
11732.4648516497
 30
0.0
 40
175.0
 41
0.0
 71
     1
 72
     1
  1
604
  7
SLDTEXTSTYLE0
 11
-7.044195017643634E-15
 21
1.0
 31
0.0
 73
     1
 44
1.0
  0
ENDBLK
  5
36D
330
36B
100
AcDbEntity
  8
0
100
AcDbBlockEnd
  0
BLOCK
  5
378
330
377
100
AcDbEntity
  8
0
100
AcDbBlockBegin
  2
_D_3
 70
     0
 10
0.0
 20
0.0
 30
0.0
  3
_D_3
  1

  0
SOLID
  5
37A
330
377
100
AcDbEntity
  8
0
  6
Continuous
 62
     7
 48
50.0
370
    18
100
AcDbTrace
 10
18987.4451483591
 20
12485.9188420195
 30
0.0
 11
19012.8451483591
 21
12651.0188420195
 31
0.0
 12
18962.0451483591
 22
12651.0188420195
 32
0.0
 13
18962.0451483591
 23
12651.0188420195
 33
0.0
  0
SOLID
  5
37B
330
377
100
AcDbEntity
  8
0
  6
Continuous
 62
     7
 48
50.0
370
    18
100
AcDbTrace
 10
18987.4451483591
 20
11640.269840915
 30
0.0
 11
18962.0451483591
 21
11475.169840915
 31
0.0
 12
19012.8451483591
 22
11475.169840915
 32
0.0
 13
19012.8451483591
 23
11475.169840915
 33
0.0
  0
LINE
  5
37C
330
377
100
AcDbEntity
  8
0
  6
Continuous
 62
     7
 48
50.0
370
     0
100
AcDbLine
 10
17364.7928126194
 20
12485.9188420195
 30
0.0
 11
19037.4451483591
 21
12485.9188420195
 31
0.0
  0
LINE
  5
37D
330
377
100
AcDbEntity
  8
0
  6
Continuous
 62
     7
 48
50.0
370
     0
100
AcDbLine
 10
18210.5151312426
 20
11640.269840915
 30
0.0
 11
19037.4451483591
 21
11640.269840915
 31
0.0
  0
LINE
  5
37E
330
377
100
AcDbEntity
  8
0
  6
Continuous
 62
     7
 48
50.0
370
     0
100
AcDbLine
 10
18987.4451483591
 20
12485.9188420195
 30
0.0
 11
18987.4451483591
 21
12803.4188420195
 31
0.0
  0
LINE
  5
37F
330
377
100
AcDbEntity
  8
0
  6
Continuous
 62
     7
 48
50.0
370
     0
100
AcDbLine
 10
18987.4451483591
 20
12485.9188420195
 30
0.0
 11
18987.4451483591
 21
11640.269840915
 31
0.0
  0
LINE
  5
380
330
377
100
AcDbEntity
  8
0
  6
Continuous
 62
     7
 48
50.0
370
     0
100
AcDbLine
 10
18987.4451483591
 20
11640.269840915
 30
0.0
 11
18987.4451483591
 21
11322.769840915
 31
0.0
  0
MTEXT
  5
381
330
377
100
AcDbEntity
  8
0
  6
Continuous
 62
     7
 48
50.0
370
    18
100
AcDbMText
 10
18761.8583026302
 20
11795.2436989175
 30
0.0
 40
175.0
 41
0.0
 71
     1
 72
     1
  1
846
  7
SLDTEXTSTYLE0
 11
-7.044195017643634E-15
 21
1.0
 31
0.0
 73
     1
 44
1.0
  0
ENDBLK
  5
379
330
377
100
AcDbEntity
  8
0
100
AcDbBlockEnd
  0
BLOCK
  5
385
330
384
100
AcDbEntity
  8
0
100
AcDbBlockBegin
  2
_D_4
 70
     0
 10
0.0
 20
0.0
 30
0.0
  3
_D_4
  1

  0
SOLID
  5
387
330
384
100
AcDbEntity
  8
0
  6
Continuous
 62
     7
 48
50.0
370
    18
100
AcDbTrace
 10
13177.665132074
 20
14534.1688420197
 30
0.0
 11
13152.265132074
 21
14369.0688420197
 31
0.0
 12
13203.065132074
 22
14369.0688420197
 32
0.0
 13
13203.065132074
 23
14369.0688420197
 33
0.0
  0
SOLID
  5
388
330
384
100
AcDbEntity
  8
0
  6
Continuous
 62
     7
 48
50.0
370
    18
100
AcDbTrace
 10
13177.665132074
 20
11640.269840915
 30
0.0
 11
13203.065132074
 21
11805.369840915
 31
0.0
 12
13152.265132074
 22
11805.369840915
 32
0.0
 13
13152.265132074
 23
11805.369840915
 33
0.0
  0
LINE
  5
389
330
384
100
AcDbEntity
  8
0
  6
Continuous
 62
     7
 48
50.0
370
     0
100
AcDbLine
 10
13717.1197460163
 20
14534.1688420197
 30
0.0
 11
13127.665132074
 21
14534.1688420197
 31
0.0
  0
LINE
  5
38A
330
384
100
AcDbEntity
  8
0
  6
Continuous
 62
     7
 48
50.0
370
     0
100
AcDbLine
 10
13177.665132074
 20
14534.1688420197
 30
0.0
 11
13177.665132074
 21
11640.269840915
 31
0.0
  0
MTEXT
  5
38B
330
384
100
AcDbEntity
  8
0
  6
Continuous
 62
     7
 48
50.0
370
    18
100
AcDbMText
 10
12952.0782863451
 20
12858.4482492967
 30
0.0
 40
175.0
 41
0.0
 71
     1
 72
     1
  1
2894
  7
SLDTEXTSTYLE0
 11
-7.044195017643634E-15
 21
1.0
 31
0.0
 73
     1
 44
1.0
  0
ENDBLK
  5
386
330
384
100
AcDbEntity
  8
0
100
AcDbBlockEnd
  0
BLOCK
  5
38F
330
38E
100
AcDbEntity
  8
0
100
AcDbBlockBegin
  2
_D_5
 70
     0
 10
0.0
 20
0.0
 30
0.0
  3
_D_5
  1

  0
ARC
  5
391
330
38E
100
AcDbEntity
  8
0
  6
Continuous
 62
     7
 48
50.0
370
    18
100
AcDbCircle
 10
18354.4998479013
 20
11640.269840915
 30
0.0
 40
2667.455488387535
100
AcDbArc
 50
150.0
 51
180.0
  0
SOLID
  5
392
330
38E
100
AcDbEntity
  8
0
  6
Continuous
 62
     7
 48
50.0
370
    18
100
AcDbTrace
 10
16044.4156314935
 20
12973.9975851088
 30
0.0
 11
15943.9445527617
 21
12840.5482226583
 31
0.0
 12
15988.7025613009
 22
12816.5198920545
 32
0.0
 13
15988.7025613009
 23
12816.5198920545
 33
0.0
  0
SOLID
  5
393
330
38E
100
AcDbEntity
  8
0
  6
Continuous
 62
     7
 48
50.0
370
    18
100
AcDbTrace
 10
15687.0443595138
 20
11640.269840915
 30
0.0
 11
15717.5342719314
 21
11804.5060587258
 31
0.0
 12
15666.7585342117
 22
11806.075918282
 32
0.0
 13
15666.7585342117
 23
11806.075918282
 33
0.0
  0
MTEXT
  5
394
330
38E
100
AcDbEntity
  8
0
  6
Continuous
 62
     7
 48
50.0
370
    18
100
AcDbMText
 10
15497.48132182
 20
12128.2302004488
 30
0.0
 40
175.0
 41
0.0
 71
     1
 72
     1
  1
30°
  7
SLDTEXTSTYLE0
 11
0.2278923137646224
 21
0.9736863423746925
 31
0.0
 73
     1
 44
1.0
  0
ENDBLK
  5
390
330
38E
100
AcDbEntity
  8
0
100
AcDbBlockEnd
  0
BLOCK
  5
397
330
396
100
AcDbEntity
  8
0
100
AcDbBlockBegin
  2
_D_6
 70
     0
 10
0.0
 20
0.0
 30
0.0
  3
_D_6
  1

  0
SOLID
  5
399
330
396
100
AcDbEntity
  8
0
  6
Continuous
 62
     7
 48
50.0
370
    18
100
AcDbTrace
 10
13787.1197460162
 20
15370.2832025111
 30
0.0
 11
13952.2197460162
 21
15344.8832025111
 31
0.0
 12
13952.2197460162
 22
15395.6832025111
 32
0.0
 13
13952.2197460162
 23
15395.6832025111
 33
0.0
  0
SOLID
  5
39A
330
396
100
AcDbEntity
  8
0
  6
Continuous
 62
     7
 48
50.0
370
    18
100
AcDbTrace
 10
17752.6500699452
 20
15370.2832025111
 30
0.0
 11
17587.5500699452
 21
15395.6832025111
 31
0.0
 12
17587.5500699452
 22
15344.8832025111
 32
0.0
 13
17587.5500699452
 23
15344.8832025111
 33
0.0
  0
LINE
  5
39B
330
396
100
AcDbEntity
  8
0
  6
Continuous
 62
     7
 48
50.0
370
     0
100
AcDbLine
 10
13787.1197460162
 20
14618.8098581711
 30
0.0
 11
13787.1197460162
 21
15420.2832025111
 31
0.0
  0
LINE
  5
39C
330
396
100
AcDbEntity
  8
0
  6
Continuous
 62
     7
 48
50.0
370
     0
100
AcDbLine
 10
17752.6500699452
 20
12329.3098581711
 30
0.0
 11
17752.6500699452
 21
15420.2832025111
 31
0.0
  0
LINE
  5
39D
330
396
100
AcDbEntity
  8
0
  6
Continuous
 62
     7
 48
50.0
370
     0
100
AcDbLine
 10
13787.1197460162
 20
15370.2832025111
 30
0.0
 11
17752.6500699452
 21
15370.2832025111
 31
0.0
  0
MTEXT
  5
39E
330
396
100
AcDbEntity
  8
0
  6
Continuous
 62
     7
 48
50.0
370
    18
100
AcDbMText
 10
15490.028877352
 20
15595.8700482401
 30
0.0
 40
175.0
 41
0.0
 71
     1
 72
     1
  1
3966
  7
SLDTEXTSTYLE0
 73
     1
 44
1.0
  0
ENDBLK
  5
398
330
396
100
AcDbEntity
  8
0
100
AcDbBlockEnd
  0
BLOCK
  5
3A1
330
3A0
100
AcDbEntity
  8
0
100
AcDbBlockBegin
  2
_D_7
 70
     0
 10
0.0
 20
0.0
 30
0.0
  3
_D_7
  1

  0
SOLID
  5
3A3
330
3A0
100
AcDbEntity
  8
0
  6
Continuous
 62
     7
 48
50.0
370
    18
100
AcDbTrace
 10
13902.3068414166
 20
14768.3197597808
 30
0.0
 11
14032.5876355814
 21
14663.7727145246
 31
0.0
 12
14057.9876355814
 22
14707.7668050369
 32
0.0
 13
14057.9876355814
 23
14707.7668050369
 33
0.0
  0
SOLID
  5
3A4
330
3A0
100
AcDbEntity
  8
0
  6
Continuous
 62
     7
 48
50.0
370
    18
100
AcDbTrace
 10
15876.8447620449
 20
13628.3197597804
 30
0.0
 11
15746.5639678801
 21
13732.8668050366
 31
0.0
 12
15721.1639678801
 22
13688.8727145243
 32
0.0
 13
15721.1639678801
 23
13688.8727145243
 33
0.0
  0
LINE
  5
3A5
330
3A0
100
AcDbEntity
  8
0
  6
Continuous
 62
     7
 48
50.0
370
     0
100
AcDbLine
 10
13812.1197460162
 20
14612.1111283603
 30
0.0
 11
13927.3068414166
 21
14811.62102997
 31
0.0
  0
LINE
  5
3A6
330
3A0
100
AcDbEntity
  8
0
  6
Continuous
 62
     7
 48
50.0
370
     0
100
AcDbLine
 10
15786.6576666447
 20
13472.1111283603
 30
0.0
 11
15901.8447620449
 21
13671.6210299696
 31
0.0
  0
LINE
  5
3A7
330
3A0
100
AcDbEntity
  8
0
  6
Continuous
 62
     7
 48
50.0
370
     0
100
AcDbLine
 10
13902.3068414166
 20
14768.3197597808
 30
0.0
 11
15876.8447620449
 21
13628.3197597804
 31
0.0
  0
MTEXT
  5
3A8
330
3A0
100
AcDbEntity
  8
0
  6
Continuous
 62
     7
 48
50.0
370
    18
100
AcDbMText
 10
14986.7289266179
 20
14402.7136291889
 30
0.0
 40
175.0
 41
0.0
 71
     1
 72
     1
  1
2280
  7
SLDTEXTSTYLE0
 11
0.8660254037843558
 21
-0.5000000000001436
 31
0.0
 73
     1
 44
1.0
  0
ENDBLK
  5
3A2
330
3A0
100
AcDbEntity
  8
0
100
AcDbBlockEnd
  0
BLOCK
  5
3AB
330
3AA
100
AcDbEntity
  8
0
100
AcDbBlockBegin
  2
_D_8
 70
     0
 10
0.0
 20
0.0
 30
0.0
  3
_D_8
  1

  0
SOLID
  5
3AD
330
3AA
100
AcDbEntity
  8
0
  6
Continuous
 62
     7
 48
50.0
370
    18
100
AcDbTrace
 10
14564.8528508862
 20
9663.7513416623
 30
0.0
 11
14729.9528508862
 21
9638.3513416623
 31
0.0
 12
14729.9528508862
 22
9689.1513416623
 32
0.0
 13
14729.9528508862
 23
9689.1513416623
 33
0.0
  0
SOLID
  5
3AE
330
3AA
100
AcDbEntity
  8
0
  6
Continuous
 62
     7
 48
50.0
370
    18
100
AcDbTrace
 10
16864.8528508862
 20
9663.7513416623
 30
0.0
 11
16699.7528508862
 21
9689.1513416623
 31
0.0
 12
16699.7528508862
 22
9638.3513416623
 32
0.0
 13
16699.7528508862
 23
9638.3513416623
 33
0.0
  0
LINE
  5
3AF
330
3AA
100
AcDbEntity
  8
0
  6
Continuous
 62
     7
 48
50.0
370
     0
100
AcDbLine
 10
14564.8528508862
 20
11690.2698409153
 30
0.0
 11
14564.8528508862
 21
9613.7513416623
 31
0.0
  0
LINE
  5
3B0
330
3AA
100
AcDbEntity
  8
0
  6
Continuous
 62
     7
 48
50.0
370
     0
100
AcDbLine
 10
16864.8528508862
 20
11690.2698409153
 30
0.0
 11
16864.8528508862
 21
9613.7513416623
 31
0.0
  0
LINE
  5
3B1
330
3AA
100
AcDbEntity
  8
0
  6
Continuous
 62
     7
 48
50.0
370
     0
100
AcDbLine
 10
14564.8528508862
 20
9663.7513416623
 30
0.0
 11
16864.8528508862
 21
9663.7513416623
 31
0.0
  0
MTEXT
  5
3B2
330
3AA
100
AcDbEntity
  8
0
  6
Continuous
 62
     7
 48
50.0
370
    18
100
AcDbMText
 10
15498.2530318332
 20
9889.3381873912
 30
0.0
 40
175.0
 41
0.0
 71
     1
 72
     1
  1
2300
  7
SLDTEXTSTYLE0
 73
     1
 44
1.0
  0
ENDBLK
  5
3AC
330
3AA
100
AcDbEntity
  8
0
100
AcDbBlockEnd
  0
BLOCK
  5
3B5
330
3B4
100
AcDbEntity
  8
0
100
AcDbBlockBegin
  2
_D_9
 70
     0
 10
0.0
 20
0.0
 30
0.0
  3
_D_9
  1

  0
SOLID
  5
3B7
330
3B4
100
AcDbEntity
  8
0
  6
Continuous
 62
     7
 48
50.0
370
    18
100
AcDbTrace
 10
14197.7638451166
 20
14920.2686108347
 30
0.0
 11
14362.8638451166
 21
14894.8686108347
 31
0.0
 12
14362.8638451166
 22
14945.6686108347
 32
0.0
 13
14362.8638451166
 23
14945.6686108347
 33
0.0
  0
SOLID
  5
3B8
330
3B4
100
AcDbEntity
  8
0
  6
Continuous
 62
     7
 48
50.0
370
    18
100
AcDbTrace
 10
17280.8142825892
 20
14920.2686108347
 30
0.0
 11
17115.7142825892
 21
14945.6686108347
 31
0.0
 12
17115.7142825892
 22
14894.8686108347
 32
0.0
 13
17115.7142825892
 23
14894.8686108347
 33
0.0
  0
LINE
  5
3B9
330
3B4
100
AcDbEntity
  8
0
  6
Continuous
 62
     7
 48
50.0
370
     0
100
AcDbLine
 10
14197.7638451166
 20
14220.0663016412
 30
0.0
 11
14197.7638451166
 21
14970.2686108347
 31
0.0
  0
LINE
  5
3BA
330
3B4
100
AcDbEntity
  8
0
  6
Continuous
 62
     7
 48
50.0
370
     0
100
AcDbLine
 10
17280.8142825892
 20
12440.0663016407
 30
0.0
 11
17280.8142825892
 21
14970.2686108347
 31
0.0
  0
LINE
  5
3BB
330
3B4
100
AcDbEntity
  8
0
  6
Continuous
 62
     7
 48
50.0
370
     0
100
AcDbLine
 10
14197.7638451166
 20
14920.2686108347
 30
0.0
 11
17280.8142825892
 21
14920.2686108347
 31
0.0
  0
MTEXT
  5
3BC
330
3B4
100
AcDbEntity
  8
0
  6
Continuous
 62
     7
 48
50.0
370
    18
100
AcDbMText
 10
15167.6925914257
 20
15145.8554565636
 30
0.0
 40
175.0
 41
0.0
 71
     1
 72
     1
  1
3083
  7
SLDTEXTSTYLE0
 73
     1
 44
1.0
  0
ENDBLK
  5
3B6
330
3B4
100
AcDbEntity
  8
0
100
AcDbBlockEnd
  0
BLOCK
  5
531
330
530
100
AcDbEntity
  8
0
100
AcDbBlockBegin
  2
_D_10
 70
     0
 10
0.0
 20
0.0
 30
0.0
  3
_D_10
  1

  0
SOLID
  5
533
330
530
100
AcDbEntity
  8
0
  6
Continuous
 62
     7
 48
50.0
370
    18
100
AcDbTrace
 10
8332.0172794127
 20
9047.8753837321
 30
0.0
 11
8497.1172794127
 21
9022.4753837321
 31
0.0
 12
8497.1172794127
 22
9073.2753837321
 32
0.0
 13
8497.1172794127
 23
9073.2753837321
 33
0.0
  0
SOLID
  5
534
330
530
100
AcDbEntity
  8
0
  6
Continuous
 62
     7
 48
50.0
370
    18
100
AcDbTrace
 10
10702.0172794127
 20
9047.8753837314
 30
0.0
 11
10536.9172794127
 21
9073.2753837315
 31
0.0
 12
10536.9172794126
 22
9022.4753837315
 32
0.0
 13
10536.9172794126
 23
9022.4753837315
 33
0.0
  0
LINE
  5
535
330
530
100
AcDbEntity
  8
0
  6
Continuous
 62
     7
 48
50.0
370
     0
100
AcDbLine
 10
8332.0172794124
 20
8273.9980015375
 30
0.0
 11
8332.0172794127
 21
9097.8753837321
 31
0.0
  0
LINE
  5
536
330
530
100
AcDbEntity
  8
0
  6
Continuous
 62
     7
 48
50.0
370
     0
100
AcDbLine
 10
10702.0172794124
 20
8273.9980015375
 30
0.0
 11
10702.0172794127
 21
9097.8753837314
 31
0.0
  0
LINE
  5
537
330
530
100
AcDbEntity
  8
0
  6
Continuous
 62
     7
 48
50.0
370
     0
100
AcDbLine
 10
8332.0172794127
 20
9047.8753837321
 30
0.0
 11
10702.0172794127
 21
9047.8753837314
 31
0.0
  0
MTEXT
  5
538
330
530
100
AcDbEntity
  8
0
  6
Continuous
 62
     7
 48
50.0
370
    18
100
AcDbMText
 10
9308.9915045814
 20
9273.4622294607
 30
0.0
 40
175.0
 41
0.0
 71
     1
 72
     1
  1
2370
  7
SLDTEXTSTYLE0
 73
     1
 44
1.0
  0
ENDBLK
  5
532
330
530
100
AcDbEntity
  8
0
100
AcDbBlockEnd
  0
ENDSEC
  0
SECTION
  2
ENTITIES
  0
LINE
  5
74
330
1F
100
AcDbEntity
  8
0
  6
Continuous
 62
     7
 48
50.0
370
    25
100
AcDbLine
 10
10702.0172794098
 20
14247.8876959871
 30
0.0
 11
10666.5172894234
 21
14247.8876959871
 31
0.0
  0
LINE
  5
75
330
1F
100
AcDbEntity
  8
0
  6
Continuous
 62
     7
 48
50.0
370
    25
100
AcDbLine
 10
9526.5172739262
 20
14247.8876959871
 30
0.0
 11
9507.5172801251
 21
14247.8876959871
 31
0.0
  0
LINE
  5
76
330
1F
100
AcDbEntity
  8
0
  6
Continuous
 62
     7
 48
50.0
370
    25
100
AcDbLine
 10
8367.5173242325
 20
14247.8876959871
 30
0.0
 11
8332.0172746415
 21
14247.8876959871
 31
0.0
  0
LINE
  5
77
330
1F
100
AcDbEntity
  8
0
  6
Continuous
 62
     7
 48
50.0
370
    25
100
AcDbLine
 10
10666.5172894234
 20
14138.8474356721
 30
0.0
 11
10702.0172794098
 21
14138.8474356721
 31
0.0
  0
LINE
  5
78
330
1F
100
AcDbEntity
  8
0
  6
Continuous
 62
     7
 48
50.0
370
    25
100
AcDbLine
 10
9507.5172801251
 20
14138.8474356721
 30
0.0
 11
9526.5172739262
 21
14138.8474356721
 31
0.0
  0
LINE
  5
79
330
1F
100
AcDbEntity
  8
0
  6
Continuous
 62
     7
 48
50.0
370
    25
100
AcDbLine
 10
8332.0172746415
 20
14138.8474356721
 30
0.0
 11
8367.5173242325
 21
14138.8474356721
 31
0.0
  0
LINE
  5
7A
330
1F
100
AcDbEntity
  8
0
  6
Continuous
 62
     7
 48
50.0
370
    25
100
AcDbLine
 10
10702.0172794098
 20
13567.3877846788
 30
0.0
 11
10666.5172894234
 21
13567.3877846788
 31
0.0
  0
LINE
  5
7B
330
1F
100
AcDbEntity
  8
0
  6
Continuous
 62
     7
 48
50.0
370
    25
100
AcDbLine
 10
9526.5172739262
 20
13567.3877846788
 30
0.0
 11
9507.5172801251
 21
13567.3877846788
 31
0.0
  0
LINE
  5
7C
330
1F
100
AcDbEntity
  8
0
  6
Continuous
 62
     7
 48
50.0
370
    25
100
AcDbLine
 10
8367.5173242325
 20
13567.3877846788
 30
0.0
 11
8332.0172746415
 21
13567.3877846788
 31
0.0
  0
LINE
  5
7D
330
1F
100
AcDbEntity
  8
0
  6
Continuous
 62
     7
 48
50.0
370
    25
100
AcDbLine
 10
10666.5172894234
 20
13458.3474051545
 30
0.0
 11
10702.0172794098
 21
13458.3474051545
 31
0.0
  0
LINE
  5
7E
330
1F
100
AcDbEntity
  8
0
  6
Continuous
 62
     7
 48
50.0
370
    25
100
AcDbLine
 10
9507.5172801251
 20
13458.3474051545
 30
0.0
 11
9526.5172739262
 21
13458.3474051545
 31
0.0
  0
LINE
  5
7F
330
1F
100
AcDbEntity
  8
0
  6
Continuous
 62
     7
 48
50.0
370
    25
100
AcDbLine
 10
8332.0172746415
 20
13458.3474051545
 30
0.0
 11
8367.5173242325
 21
13458.3474051545
 31
0.0
  0
LINE
  5
80
330
1F
100
AcDbEntity
  8
0
  6
Continuous
 62
     7
 48
50.0
370
    25
100
AcDbLine
 10
10702.0172794098
 20
12507.887746055
 30
0.0
 11
10666.4172728295
 21
12507.887746055
 31
0.0
  0
LINE
  5
81
330
1F
100
AcDbEntity
  8
0
  6
Continuous
 62
     7
 48
50.0
370
    25
100
AcDbLine
 10
9526.6172905201
 20
12507.887746055
 30
0.0
 11
9507.4172933335
 21
12507.887746055
 31
0.0
  0
LINE
  5
82
330
1F
100
AcDbEntity
  8
0
  6
Continuous
 62
     7
 48
50.0
370
    25
100
AcDbLine
 10
8367.6172216172
 20
12507.887746055
 30
0.0
 11
8332.0172746415
 21
12507.887746055
 31
0.0
  0
LINE
  5
83
330
1F
100
AcDbEntity
  8
0
  6
Continuous
 62
     7
 48
50.0
370
    25
100
AcDbLine
 10
10666.5172894234
 20
12398.8473665307
 30
0.0
 11
10702.0172794098
 21
12398.8473665307
 31
0.0
  0
LINE
  5
84
330
1F
100
AcDbEntity
  8
0
  6
Continuous
 62
     7
 48
50.0
370
    25
100
AcDbLine
 10
9507.5172801251
 20
12398.8473665307
 30
0.0
 11
9526.5172739262
 21
12398.8473665307
 31
0.0
  0
LINE
  5
85
330
1F
100
AcDbEntity
  8
0
  6
Continuous
 62
     7
 48
50.0
370
    25
100
AcDbLine
 10
8332.0172746415
 20
12398.8473665307
 30
0.0
 11
8367.5173242325
 21
12398.8473665307
 31
0.0
  0
LINE
  5
86
330
1F
100
AcDbEntity
  8
0
  6
Continuous
 62
     7
 48
50.0
370
    25
100
AcDbLine
 10
10702.0172794098
 20
13188.3877169679
 30
0.0
 11
10666.4172728295
 21
13188.3877169679
 31
0.0
  0
LINE
  5
87
330
1F
100
AcDbEntity
  8
0
  6
Continuous
 62
     7
 48
50.0
370
    25
100
AcDbLine
 10
9526.6172905201
 20
13188.3877169679
 30
0.0
 11
9507.4172933335
 21
13188.3877169679
 31
0.0
  0
LINE
  5
88
330
1F
100
AcDbEntity
  8
0
  6
Continuous
 62
     7
 48
50.0
370
    25
100
AcDbLine
 10
8367.6172216172
 20
13188.3877169679
 30
0.0
 11
8332.0172746415
 21
13188.3877169679
 31
0.0
  0
LINE
  5
89
330
1F
100
AcDbEntity
  8
0
  6
Continuous
 62
     7
 48
50.0
370
    25
100
AcDbLine
 10
10666.5172894234
 20
13079.3473374437
 30
0.0
 11
10702.0172794098
 21
13079.3473374437
 31
0.0
  0
LINE
  5
8A
330
1F
100
AcDbEntity
  8
0
  6
Continuous
 62
     7
 48
50.0
370
    25
100
AcDbLine
 10
9507.5172801251
 20
13079.3473374437
 30
0.0
 11
9526.5172739262
 21
13079.3473374437
 31
0.0
  0
LINE
  5
8B
330
1F
100
AcDbEntity
  8
0
  6
Continuous
 62
     7
 48
50.0
370
    25
100
AcDbLine
 10
8332.0172746415
 20
13079.3473374437
 30
0.0
 11
8367.5173242325
 21
13079.3473374437
 31
0.0
  0
LINE
  5
8C
330
1F
100
AcDbEntity
  8
0
  6
Continuous
 62
     7
 48
50.0
370
    25
100
AcDbLine
 10
9526.5172739262
 20
12279.3098342012
 30
0.0
 11
10666.5172894234
 21
12279.3098342012
 31
0.0
  0
LINE
  5
8D
330
1F
100
AcDbEntity
  8
0
  6
Continuous
 62
     7
 48
50.0
370
    25
100
AcDbLine
 10
9526.5172739262
 20
12421.8098771165
 30
0.0
 11
9526.5172739262
 21
12279.3098342012
 31
0.0
  0
LINE
  5
8E
330
1F
100
AcDbEntity
  8
0
  6
Continuous
 62
     7
 48
50.0
370
    25
100
AcDbLine
 10
9526.6172905201
 20
12421.8098771165
 30
0.0
 11
9526.5172739262
 21
12421.8098771165
 31
0.0
  0
LINE
  5
8F
330
1F
100
AcDbEntity
  8
0
  6
Continuous
 62
     7
 48
50.0
370
    25
100
AcDbLine
 10
9526.6172905201
 20
12421.8098771165
 30
0.0
 11
9526.6172905201
 21
12564.3098604272
 31
0.0
  0
LINE
  5
90
330
1F
100
AcDbEntity
  8
0
  6
Continuous
 62
     7
 48
50.0
370
    25
100
AcDbLine
 10
9526.6172905201
 20
12564.3098604272
 30
0.0
 11
9526.5172739262
 21
12564.3098604272
 31
0.0
  0
LINE
  5
91
330
1F
100
AcDbEntity
  8
0
  6
Continuous
 62
     7
 48
50.0
370
    25
100
AcDbLine
 10
9526.5172739262
 20
13134.3098532747
 30
0.0
 11
9526.5172739262
 21
12564.3098604272
 31
0.0
  0
LINE
  5
92
330
1F
100
AcDbEntity
  8
0
  6
Continuous
 62
     7
 48
50.0
370
    25
100
AcDbLine
 10
9526.6172905201
 20
13134.3098532747
 30
0.0
 11
9526.5172739262
 21
13134.3098532747
 31
0.0
  0
LINE
  5
93
330
1F
100
AcDbEntity
  8
0
  6
Continuous
 62
     7
 48
50.0
370
    25
100
AcDbLine
 10
9526.6172905201
 20
13134.3098532747
 30
0.0
 11
9526.6172905201
 21
13276.80989619
 31
0.0
  0
LINE
  5
94
330
1F
100
AcDbEntity
  8
0
  6
Continuous
 62
     7
 48
50.0
370
    25
100
AcDbLine
 10
9526.6172905201
 20
13276.80989619
 30
0.0
 11
9526.5172739262
 21
13276.80989619
 31
0.0
  0
LINE
  5
95
330
1F
100
AcDbEntity
  8
0
  6
Continuous
 62
     7
 48
50.0
370
    25
100
AcDbLine
 10
9526.5172739262
 20
13419.3098198961
 30
0.0
 11
9526.5172739262
 21
13276.80989619
 31
0.0
  0
LINE
  5
96
330
1F
100
AcDbEntity
  8
0
  6
Continuous
 62
     7
 48
50.0
370
    25
100
AcDbLine
 10
10666.5172894234
 20
13419.3098198961
 30
0.0
 11
9526.5172739262
 21
13419.3098198961
 31
0.0
  0
LINE
  5
97
330
1F
100
AcDbEntity
  8
0
  6
Continuous
 62
     7
 48
50.0
370
    25
100
AcDbLine
 10
10666.5172894234
 20
13276.80989619
 30
0.0
 11
10666.5172894234
 21
13419.3098198961
 31
0.0
  0
LINE
  5
98
330
1F
100
AcDbEntity
  8
0
  6
Continuous
 62
     7
 48
50.0
370
    25
100
AcDbLine
 10
10666.4172728295
 20
13276.80989619
 30
0.0
 11
10666.5172894234
 21
13276.80989619
 31
0.0
  0
LINE
  5
99
330
1F
100
AcDbEntity
  8
0
  6
Continuous
 62
     7
 48
50.0
370
    25
100
AcDbLine
 10
10666.4172728295
 20
13134.3098532747
 30
0.0
 11
10666.4172728295
 21
13276.80989619
 31
0.0
  0
LINE
  5
9A
330
1F
100
AcDbEntity
  8
0
  6
Continuous
 62
     7
 48
50.0
370
    25
100
AcDbLine
 10
10666.4172728295
 20
13134.3098532747
 30
0.0
 11
10666.5172894234
 21
13134.3098532747
 31
0.0
  0
LINE
  5
9B
330
1F
100
AcDbEntity
  8
0
  6
Continuous
 62
     7
 48
50.0
370
    25
100
AcDbLine
 10
10666.5172894234
 20
12564.3098604272
 30
0.0
 11
10666.5172894234
 21
13134.3098532747
 31
0.0
  0
LINE
  5
9C
330
1F
100
AcDbEntity
  8
0
  6
Continuous
 62
     7
 48
50.0
370
    25
100
AcDbLine
 10
10666.4172728295
 20
12564.3098604272
 30
0.0
 11
10666.5172894234
 21
12564.3098604272
 31
0.0
  0
LINE
  5
9D
330
1F
100
AcDbEntity
  8
0
  6
Continuous
 62
     7
 48
50.0
370
    25
100
AcDbLine
 10
10666.4172728295
 20
12421.8098771165
 30
0.0
 11
10666.4172728295
 21
12564.3098604272
 31
0.0
  0
LINE
  5
9E
330
1F
100
AcDbEntity
  8
0
  6
Continuous
 62
     7
 48
50.0
370
    25
100
AcDbLine
 10
10666.4172728295
 20
12421.8098771165
 30
0.0
 11
10666.5172894234
 21
12421.8098771165
 31
0.0
  0
LINE
  5
9F
330
1F
100
AcDbEntity
  8
0
  6
Continuous
 62
     7
 48
50.0
370
    25
100
AcDbLine
 10
10666.5172894234
 20
12279.3098342012
 30
0.0
 11
10666.5172894234
 21
12421.8098771165
 31
0.0
  0
LINE
  5
A0
330
1F
100
AcDbEntity
  8
0
  6
Continuous
 62
     7
 48
50.0
370
    25
100
AcDbLine
 10
9535.5172772641
 20
13414.8099076341
 30
0.0
 11
10657.5172860855
 21
13414.8099076341
 31
0.0
  0
LINE
  5
A1
330
1F
100
AcDbEntity
  8
0
  6
Continuous
 62
     7
 48
50.0
370
    25
100
AcDbLine
 10
9535.5172772641
 20
12283.8098656724
 30
0.0
 11
9535.5172772641
 21
13414.8099076341
 31
0.0
  0
LINE
  5
A2
330
1F
100
AcDbEntity
  8
0
  6
Continuous
 62
     7
 48
50.0
370
    25
100
AcDbLine
 10
10657.5172860855
 20
12283.8098656724
 30
0.0
 11
9535.5172772641
 21
12283.8098656724
 31
0.0
  0
LINE
  5
A3
330
1F
100
AcDbEntity
  8
0
  6
Continuous
 62
     7
 48
50.0
370
    25
100
AcDbLine
 10
10657.5172860855
 20
13414.8099076341
 30
0.0
 11
10657.5172860855
 21
12283.8098656724
 31
0.0
  0
LINE
  5
A4
330
1F
100
AcDbEntity
  8
0
  6
Continuous
 62
     7
 48
50.0
370
    25
100
AcDbLine
 10
10666.5172894234
 20
12244.6688663553
 30
0.0
 11
10666.5172894234
 21
12279.3098342012
 31
0.0
  0
LINE
  5
A5
330
1F
100
AcDbEntity
  8
0
  6
Continuous
 62
     7
 48
50.0
370
    25
100
AcDbLine
 10
9526.5172739262
 20
12244.6688663553
 30
0.0
 11
10666.5172894234
 21
12244.6688663553
 31
0.0
  0
LINE
  5
A6
330
1F
100
AcDbEntity
  8
0
  6
Continuous
 62
     7
 48
50.0
370
    25
100
AcDbLine
 10
9526.5172739262
 20
12244.6688663553
 30
0.0
 11
9526.5172739262
 21
12279.3098342012
 31
0.0
  0
LINE
  5
A7
330
1F
100
AcDbEntity
  8
0
  6
Continuous
 62
     7
 48
50.0
370
    25
100
AcDbLine
 10
10656.5172989601
 20
12283.8098656724
 30
0.0
 11
10656.5172989601
 21
13413.8098609041
 31
0.0
  0
LINE
  5
A8
330
1F
100
AcDbEntity
  8
0
  6
Continuous
 62
     7
 48
50.0
370
    25
100
AcDbLine
 10
10657.5172860855
 20
13414.8099076341
 30
0.0
 11
10656.5172989601
 21
13413.8098609041
 31
0.0
  0
LINE
  5
A9
330
1F
100
AcDbEntity
  8
0
  6
Continuous
 62
     7
 48
50.0
370
    25
100
AcDbLine
 10
9536.5172941918
 20
13413.8098609041
 30
0.0
 11
9536.5172941918
 21
12283.8098656724
 31
0.0
  0
LINE
  5
AA
330
1F
100
AcDbEntity
  8
0
  6
Continuous
 62
     7
 48
50.0
370
    25
100
AcDbLine
 10
9536.5172941918
 20
13413.8098609041
 30
0.0
 11
9535.5172772641
 21
13414.8099076341
 31
0.0
  0
LINE
  5
AB
330
1F
100
AcDbEntity
  8
0
  6
Continuous
 62
     7
 48
50.0
370
    25
100
AcDbLine
 10
10656.5172989601
 20
13413.0108010362
 30
0.0
 11
9536.5172941918
 21
13413.0108010362
 31
0.0
  0
LINE
  5
AC
330
1F
100
AcDbEntity
  8
0
  6
Continuous
 62
     7
 48
50.0
370
    25
100
AcDbLine
 10
10666.5172894234
 20
12564.3098604272
 30
0.0
 11
10666.5172894234
 21
12529.6688329767
 31
0.0
  0
LINE
  5
AD
330
1F
100
AcDbEntity
  8
0
  6
Continuous
 62
     7
 48
50.0
370
    25
100
AcDbLine
 10
10666.4172728295
 20
12529.6688329767
 30
0.0
 11
10666.5172894234
 21
12529.6688329767
 31
0.0
  0
LINE
  5
AE
330
1F
100
AcDbEntity
  8
0
  6
Continuous
 62
     7
 48
50.0
370
    25
100
AcDbLine
 10
9526.5172739262
 20
12564.3098604272
 30
0.0
 11
9526.5172739262
 21
12529.6688329767
 31
0.0
  0
LINE
  5
AF
330
1F
100
AcDbEntity
  8
0
  6
Continuous
 62
     7
 48
50.0
370
    25
100
AcDbLine
 10
9526.6172905201
 20
12529.6688329767
 30
0.0
 11
9526.5172739262
 21
12529.6688329767
 31
0.0
  0
LINE
  5
B0
330
1F
100
AcDbEntity
  8
0
  6
Continuous
 62
     7
 48
50.0
370
    25
100
AcDbLine
 10
10666.5172894234
 20
13276.80989619
 30
0.0
 11
10666.5172894234
 21
13242.1688687395
 31
0.0
  0
LINE
  5
B1
330
1F
100
AcDbEntity
  8
0
  6
Continuous
 62
     7
 48
50.0
370
    25
100
AcDbLine
 10
10666.4172728295
 20
13242.1688687395
 30
0.0
 11
10666.5172894234
 21
13242.1688687395
 31
0.0
  0
LINE
  5
B2
330
1F
100
AcDbEntity
  8
0
  6
Continuous
 62
     7
 48
50.0
370
    25
100
AcDbLine
 10
9526.5172739262
 20
13276.80989619
 30
0.0
 11
9526.5172739262
 21
13242.1688687395
 31
0.0
  0
LINE
  5
B3
330
1F
100
AcDbEntity
  8
0
  6
Continuous
 62
     7
 48
50.0
370
    25
100
AcDbLine
 10
9526.6172905201
 20
13242.1688687395
 30
0.0
 11
9526.5172739262
 21
13242.1688687395
 31
0.0
  0
LINE
  5
B4
330
1F
100
AcDbEntity
  8
0
  6
Continuous
 62
     7
 48
50.0
370
    25
100
AcDbLine
 10
10656.5172989601
 20
13413.8098609041
 30
0.0
 11
9536.5172941918
 21
13413.8098609041
 31
0.0
  0
LINE
  5
B5
330
1F
100
AcDbEntity
  8
0
  6
Continuous
 62
     7
 48
50.0
370
    25
100
AcDbLine
 10
9526.5172739262
 20
13428.8098465989
 30
0.0
 11
10666.5172894234
 21
13428.8098465989
 31
0.0
  0
LINE
  5
B6
330
1F
100
AcDbEntity
  8
0
  6
Continuous
 62
     7
 48
50.0
370
    25
100
AcDbLine
 10
9526.5172739262
 20
13571.3098895143
 30
0.0
 11
9526.5172739262
 21
13428.8098465989
 31
0.0
  0
LINE
  5
B7
330
1F
100
AcDbEntity
  8
0
  6
Continuous
 62
     7
 48
50.0
370
    25
100
AcDbLine
 10
9526.6172905201
 20
13571.3098895143
 30
0.0
 11
9526.5172739262
 21
13571.3098895143
 31
0.0
  0
LINE
  5
B8
330
1F
100
AcDbEntity
  8
0
  6
Continuous
 62
     7
 48
50.0
370
    25
100
AcDbLine
 10
9526.6172905201
 20
13571.3098895143
 30
0.0
 11
9526.6172905201
 21
13713.8098132203
 31
0.0
  0
LINE
  5
B9
330
1F
100
AcDbEntity
  8
0
  6
Continuous
 62
     7
 48
50.0
370
    25
100
AcDbLine
 10
9526.6172905201
 20
13713.8098132203
 30
0.0
 11
9526.5172739262
 21
13713.8098132203
 31
0.0
  0
LINE
  5
BA
330
1F
100
AcDbEntity
  8
0
  6
Continuous
 62
     7
 48
50.0
370
    25
100
AcDbLine
 10
9526.5172739262
 20
14283.8097464631
 30
0.0
 11
9526.5172739262
 21
13713.8098132203
 31
0.0
  0
LINE
  5
BB
330
1F
100
AcDbEntity
  8
0
  6
Continuous
 62
     7
 48
50.0
370
    25
100
AcDbLine
 10
9526.6172905201
 20
14283.8097464631
 30
0.0
 11
9526.5172739262
 21
14283.8097464631
 31
0.0
  0
LINE
  5
BC
330
1F
100
AcDbEntity
  8
0
  6
Continuous
 62
     7
 48
50.0
370
    25
100
AcDbLine
 10
9526.6172905201
 20
14283.8097464631
 30
0.0
 11
9526.6172905201
 21
14426.3099085878
 31
0.0
  0
LINE
  5
BD
330
1F
100
AcDbEntity
  8
0
  6
Continuous
 62
     7
 48
50.0
370
    25
100
AcDbLine
 10
9526.6172905201
 20
14426.3099085878
 30
0.0
 11
9526.5172739262
 21
14426.3099085878
 31
0.0
  0
LINE
  5
BE
330
1F
100
AcDbEntity
  8
0
  6
Continuous
 62
     7
 48
50.0
370
    25
100
AcDbLine
 10
9526.5172739262
 20
14568.8098322938
 30
0.0
 11
9526.5172739262
 21
14426.3099085878
 31
0.0
  0
LINE
  5
BF
330
1F
100
AcDbEntity
  8
0
  6
Continuous
 62
     7
 48
50.0
370
    25
100
AcDbLine
 10
10666.5172894234
 20
14568.8098322938
 30
0.0
 11
9526.5172739262
 21
14568.8098322938
 31
0.0
  0
LINE
  5
C0
330
1F
100
AcDbEntity
  8
0
  6
Continuous
 62
     7
 48
50.0
370
    25
100
AcDbLine
 10
10666.5172894234
 20
14426.3099085878
 30
0.0
 11
10666.5172894234
 21
14568.8098322938
 31
0.0
  0
LINE
  5
C1
330
1F
100
AcDbEntity
  8
0
  6
Continuous
 62
     7
 48
50.0
370
    25
100
AcDbLine
 10
10666.4172728295
 20
14426.3099085878
 30
0.0
 11
10666.5172894234
 21
14426.3099085878
 31
0.0
  0
LINE
  5
C2
330
1F
100
AcDbEntity
  8
0
  6
Continuous
 62
     7
 48
50.0
370
    25
100
AcDbLine
 10
10666.4172728295
 20
14283.8097464631
 30
0.0
 11
10666.4172728295
 21
14426.3099085878
 31
0.0
  0
LINE
  5
C3
330
1F
100
AcDbEntity
  8
0
  6
Continuous
 62
     7
 48
50.0
370
    25
100
AcDbLine
 10
10666.4172728295
 20
14283.8097464631
 30
0.0
 11
10666.5172894234
 21
14283.8097464631
 31
0.0
  0
LINE
  5
C4
330
1F
100
AcDbEntity
  8
0
  6
Continuous
 62
     7
 48
50.0
370
    25
100
AcDbLine
 10
10666.5172894234
 20
13713.8098132203
 30
0.0
 11
10666.5172894234
 21
14283.8097464631
 31
0.0
  0
LINE
  5
C5
330
1F
100
AcDbEntity
  8
0
  6
Continuous
 62
     7
 48
50.0
370
    25
100
AcDbLine
 10
10666.4172728295
 20
13713.8098132203
 30
0.0
 11
10666.5172894234
 21
13713.8098132203
 31
0.0
  0
LINE
  5
C6
330
1F
100
AcDbEntity
  8
0
  6
Continuous
 62
     7
 48
50.0
370
    25
100
AcDbLine
 10
10666.4172728295
 20
13571.3098895143
 30
0.0
 11
10666.4172728295
 21
13713.8098132203
 31
0.0
  0
LINE
  5
C7
330
1F
100
AcDbEntity
  8
0
  6
Continuous
 62
     7
 48
50.0
370
    25
100
AcDbLine
 10
10666.4172728295
 20
13571.3098895143
 30
0.0
 11
10666.5172894234
 21
13571.3098895143
 31
0.0
  0
LINE
  5
C8
330
1F
100
AcDbEntity
  8
0
  6
Continuous
 62
     7
 48
50.0
370
    25
100
AcDbLine
 10
10666.5172894234
 20
13428.8098465989
 30
0.0
 11
10666.5172894234
 21
13571.3098895143
 31
0.0
  0
LINE
  5
C9
330
1F
100
AcDbEntity
  8
0
  6
Continuous
 62
     7
 48
50.0
370
    25
100
AcDbLine
 10
9535.5172772641
 20
14564.3099200319
 30
0.0
 11
10657.5172860855
 21
14564.3099200319
 31
0.0
  0
LINE
  5
CA
330
1F
100
AcDbEntity
  8
0
  6
Continuous
 62
     7
 48
50.0
370
    25
100
AcDbLine
 10
9535.5172772641
 20
13433.3098780702
 30
0.0
 11
9535.5172772641
 21
14564.3099200319
 31
0.0
  0
LINE
  5
CB
330
1F
100
AcDbEntity
  8
0
  6
Continuous
 62
     7
 48
50.0
370
    25
100
AcDbLine
 10
10657.5172860855
 20
13433.3098780702
 30
0.0
 11
9535.5172772641
 21
13433.3098780702
 31
0.0
  0
LINE
  5
CC
330
1F
100
AcDbEntity
  8
0
  6
Continuous
 62
     7
 48
50.0
370
    25
100
AcDbLine
 10
10657.5172860855
 20
14564.3099200319
 30
0.0
 11
10657.5172860855
 21
13433.3098780702
 31
0.0
  0
LINE
  5
CD
330
1F
100
AcDbEntity
  8
0
  6
Continuous
 62
     7
 48
50.0
370
    25
100
AcDbLine
 10
10666.5172894234
 20
13419.3098198961
 30
0.0
 11
10666.5172894234
 21
13428.8098465989
 31
0.0
  0
LINE
  5
CE
330
1F
100
AcDbEntity
  8
0
  6
Continuous
 62
     7
 48
50.0
370
    25
100
AcDbLine
 10
9526.5172739262
 20
13419.3098198961
 30
0.0
 11
9526.5172739262
 21
13428.8098465989
 31
0.0
  0
LINE
  5
CF
330
1F
100
AcDbEntity
  8
0
  6
Continuous
 62
     7
 48
50.0
370
    25
100
AcDbLine
 10
10656.5172989601
 20
13433.3098780702
 30
0.0
 11
10656.5172989601
 21
14563.3097540925
 31
0.0
  0
LINE
  5
D0
330
1F
100
AcDbEntity
  8
0
  6
Continuous
 62
     7
 48
50.0
370
    25
100
AcDbLine
 10
10657.5172860855
 20
14564.3099200319
 30
0.0
 11
10656.5172989601
 21
14563.3097540925
 31
0.0
  0
LINE
  5
D1
330
1F
100
AcDbEntity
  8
0
  6
Continuous
 62
     7
 48
50.0
370
    25
100
AcDbLine
 10
9536.5172941918
 20
14563.3097540925
 30
0.0
 11
9536.5172941918
 21
13433.3098780702
 31
0.0
  0
LINE
  5
D2
330
1F
100
AcDbEntity
  8
0
  6
Continuous
 62
     7
 48
50.0
370
    25
100
AcDbLine
 10
9536.5172941918
 20
14563.3097540925
 30
0.0
 11
9535.5172772641
 21
14564.3099200319
 31
0.0
  0
LINE
  5
D3
330
1F
100
AcDbEntity
  8
0
  6
Continuous
 62
     7
 48
50.0
370
    25
100
AcDbLine
 10
10656.5172989601
 20
14562.510813434
 30
0.0
 11
9536.5172941918
 21
14562.510813434
 31
0.0
  0
LINE
  5
D4
330
1F
100
AcDbEntity
  8
0
  6
Continuous
 62
     7
 48
50.0
370
    25
100
AcDbLine
 10
10666.5172894234
 20
13713.8098132203
 30
0.0
 11
10666.5172894234
 21
13679.1687857698
 31
0.0
  0
LINE
  5
D5
330
1F
100
AcDbEntity
  8
0
  6
Continuous
 62
     7
 48
50.0
370
    25
100
AcDbLine
 10
10666.4172728295
 20
13679.1687857698
 30
0.0
 11
10666.5172894234
 21
13679.1687857698
 31
0.0
  0
LINE
  5
D6
330
1F
100
AcDbEntity
  8
0
  6
Continuous
 62
     7
 48
50.0
370
    25
100
AcDbLine
 10
9526.5172739262
 20
13713.8098132203
 30
0.0
 11
9526.5172739262
 21
13679.1687857698
 31
0.0
  0
LINE
  5
D7
330
1F
100
AcDbEntity
  8
0
  6
Continuous
 62
     7
 48
50.0
370
    25
100
AcDbLine
 10
9526.6172905201
 20
13679.1687857698
 30
0.0
 11
9526.5172739262
 21
13679.1687857698
 31
0.0
  0
LINE
  5
D8
330
1F
100
AcDbEntity
  8
0
  6
Continuous
 62
     7
 48
50.0
370
    25
100
AcDbLine
 10
10666.5172894234
 20
14426.3099085878
 30
0.0
 11
10666.5172894234
 21
14391.6688811372
 31
0.0
  0
LINE
  5
D9
330
1F
100
AcDbEntity
  8
0
  6
Continuous
 62
     7
 48
50.0
370
    25
100
AcDbLine
 10
10666.4172728295
 20
14391.6688811372
 30
0.0
 11
10666.5172894234
 21
14391.6688811372
 31
0.0
  0
LINE
  5
DA
330
1F
100
AcDbEntity
  8
0
  6
Continuous
 62
     7
 48
50.0
370
    25
100
AcDbLine
 10
9526.5172739262
 20
14426.3099085878
 30
0.0
 11
9526.5172739262
 21
14391.6688811372
 31
0.0
  0
LINE
  5
DB
330
1F
100
AcDbEntity
  8
0
  6
Continuous
 62
     7
 48
50.0
370
    25
100
AcDbLine
 10
9526.6172905201
 20
14391.6688811372
 30
0.0
 11
9526.5172739262
 21
14391.6688811372
 31
0.0
  0
LINE
  5
DC
330
1F
100
AcDbEntity
  8
0
  6
Continuous
 62
     7
 48
50.0
370
    25
100
AcDbLine
 10
10656.5172989601
 20
14563.3097540925
 30
0.0
 11
9536.5172941918
 21
14563.3097540925
 31
0.0
  0
LINE
  5
DD
330
1F
100
AcDbEntity
  8
0
  6
Continuous
 62
     7
 48
50.0
370
    25
100
AcDbLine
 10
8367.5173242325
 20
12279.3098342012
 30
0.0
 11
9507.5172801251
 21
12279.3098342012
 31
0.0
  0
LINE
  5
DE
330
1F
100
AcDbEntity
  8
0
  6
Continuous
 62
     7
 48
50.0
370
    25
100
AcDbLine
 10
8367.5173242325
 20
12421.8098771165
 30
0.0
 11
8367.5173242325
 21
12279.3098342012
 31
0.0
  0
LINE
  5
DF
330
1F
100
AcDbEntity
  8
0
  6
Continuous
 62
     7
 48
50.0
370
    25
100
AcDbLine
 10
8367.6172216172
 20
12421.8098771165
 30
0.0
 11
8367.5173242325
 21
12421.8098771165
 31
0.0
  0
LINE
  5
E0
330
1F
100
AcDbEntity
  8
0
  6
Continuous
 62
     7
 48
50.0
370
    25
100
AcDbLine
 10
8367.6172216172
 20
12421.8098771165
 30
0.0
 11
8367.6172216172
 21
12564.3098604272
 31
0.0
  0
LINE
  5
E1
330
1F
100
AcDbEntity
  8
0
  6
Continuous
 62
     7
 48
50.0
370
    25
100
AcDbLine
 10
8367.6172216172
 20
12564.3098604272
 30
0.0
 11
8367.5173242325
 21
12564.3098604272
 31
0.0
  0
LINE
  5
E2
330
1F
100
AcDbEntity
  8
0
  6
Continuous
 62
     7
 48
50.0
370
    25
100
AcDbLine
 10
8367.5173242325
 20
13134.3098532747
 30
0.0
 11
8367.5173242325
 21
12564.3098604272
 31
0.0
  0
LINE
  5
E3
330
1F
100
AcDbEntity
  8
0
  6
Continuous
 62
     7
 48
50.0
370
    25
100
AcDbLine
 10
8367.6172216172
 20
13134.3098532747
 30
0.0
 11
8367.5173242325
 21
13134.3098532747
 31
0.0
  0
LINE
  5
E4
330
1F
100
AcDbEntity
  8
0
  6
Continuous
 62
     7
 48
50.0
370
    25
100
AcDbLine
 10
8367.6172216172
 20
13134.3098532747
 30
0.0
 11
8367.6172216172
 21
13276.80989619
 31
0.0
  0
LINE
  5
E5
330
1F
100
AcDbEntity
  8
0
  6
Continuous
 62
     7
 48
50.0
370
    25
100
AcDbLine
 10
8367.6172216172
 20
13276.80989619
 30
0.0
 11
8367.5173242325
 21
13276.80989619
 31
0.0
  0
LINE
  5
E6
330
1F
100
AcDbEntity
  8
0
  6
Continuous
 62
     7
 48
50.0
370
    25
100
AcDbLine
 10
8367.5173242325
 20
13419.3098198961
 30
0.0
 11
8367.5173242325
 21
13276.80989619
 31
0.0
  0
LINE
  5
E7
330
1F
100
AcDbEntity
  8
0
  6
Continuous
 62
     7
 48
50.0
370
    25
100
AcDbLine
 10
9507.5172801251
 20
13419.3098198961
 30
0.0
 11
8367.5173242325
 21
13419.3098198961
 31
0.0
  0
LINE
  5
E8
330
1F
100
AcDbEntity
  8
0
  6
Continuous
 62
     7
 48
50.0
370
    25
100
AcDbLine
 10
9507.5172801251
 20
13276.80989619
 30
0.0
 11
9507.5172801251
 21
13419.3098198961
 31
0.0
  0
LINE
  5
E9
330
1F
100
AcDbEntity
  8
0
  6
Continuous
 62
     7
 48
50.0
370
    25
100
AcDbLine
 10
9507.4172933335
 20
13276.80989619
 30
0.0
 11
9507.5172801251
 21
13276.80989619
 31
0.0
  0
LINE
  5
EA
330
1F
100
AcDbEntity
  8
0
  6
Continuous
 62
     7
 48
50.0
370
    25
100
AcDbLine
 10
9507.4172933335
 20
13134.3098532747
 30
0.0
 11
9507.4172933335
 21
13276.80989619
 31
0.0
  0
LINE
  5
EB
330
1F
100
AcDbEntity
  8
0
  6
Continuous
 62
     7
 48
50.0
370
    25
100
AcDbLine
 10
9507.4172933335
 20
13134.3098532747
 30
0.0
 11
9507.5172801251
 21
13134.3098532747
 31
0.0
  0
LINE
  5
EC
330
1F
100
AcDbEntity
  8
0
  6
Continuous
 62
     7
 48
50.0
370
    25
100
AcDbLine
 10
9507.5172801251
 20
12564.3098604272
 30
0.0
 11
9507.5172801251
 21
13134.3098532747
 31
0.0
  0
LINE
  5
ED
330
1F
100
AcDbEntity
  8
0
  6
Continuous
 62
     7
 48
50.0
370
    25
100
AcDbLine
 10
9507.4172933335
 20
12564.3098604272
 30
0.0
 11
9507.5172801251
 21
12564.3098604272
 31
0.0
  0
LINE
  5
EE
330
1F
100
AcDbEntity
  8
0
  6
Continuous
 62
     7
 48
50.0
370
    25
100
AcDbLine
 10
9507.4172933335
 20
12421.8098771165
 30
0.0
 11
9507.4172933335
 21
12564.3098604272
 31
0.0
  0
LINE
  5
EF
330
1F
100
AcDbEntity
  8
0
  6
Continuous
 62
     7
 48
50.0
370
    25
100
AcDbLine
 10
9507.4172933335
 20
12421.8098771165
 30
0.0
 11
9507.5172801251
 21
12421.8098771165
 31
0.0
  0
LINE
  5
F0
330
1F
100
AcDbEntity
  8
0
  6
Continuous
 62
     7
 48
50.0
370
    25
100
AcDbLine
 10
9507.5172801251
 20
12279.3098342012
 30
0.0
 11
9507.5172801251
 21
12421.8098771165
 31
0.0
  0
LINE
  5
F1
330
1F
100
AcDbEntity
  8
0
  6
Continuous
 62
     7
 48
50.0
370
    25
100
AcDbLine
 10
8376.5172679657
 20
13414.8099076341
 30
0.0
 11
9498.5172767872
 21
13414.8099076341
 31
0.0
  0
LINE
  5
F2
330
1F
100
AcDbEntity
  8
0
  6
Continuous
 62
     7
 48
50.0
370
    25
100
AcDbLine
 10
8376.5172679657
 20
12283.8098656724
 30
0.0
 11
8376.5172679657
 21
13414.8099076341
 31
0.0
  0
LINE
  5
F3
330
1F
100
AcDbEntity
  8
0
  6
Continuous
 62
     7
 48
50.0
370
    25
100
AcDbLine
 10
9498.5172767872
 20
12283.8098656724
 30
0.0
 11
8376.5172679657
 21
12283.8098656724
 31
0.0
  0
LINE
  5
F4
330
1F
100
AcDbEntity
  8
0
  6
Continuous
 62
     7
 48
50.0
370
    25
100
AcDbLine
 10
9498.5172767872
 20
13414.8099076341
 30
0.0
 11
9498.5172767872
 21
12283.8098656724
 31
0.0
  0
LINE
  5
F5
330
1F
100
AcDbEntity
  8
0
  6
Continuous
 62
     7
 48
50.0
370
    25
100
AcDbLine
 10
9507.5172801251
 20
12244.6688663553
 30
0.0
 11
9507.5172801251
 21
12279.3098342012
 31
0.0
  0
LINE
  5
F6
330
1F
100
AcDbEntity
  8
0
  6
Continuous
 62
     7
 48
50.0
370
    25
100
AcDbLine
 10
8367.5173242325
 20
12244.6688663553
 30
0.0
 11
9507.5172801251
 21
12244.6688663553
 31
0.0
  0
LINE
  5
F7
330
1F
100
AcDbEntity
  8
0
  6
Continuous
 62
     7
 48
50.0
370
    25
100
AcDbLine
 10
8367.5173242325
 20
12244.6688663553
 30
0.0
 11
8367.5173242325
 21
12279.3098342012
 31
0.0
  0
LINE
  5
F8
330
1F
100
AcDbEntity
  8
0
  6
Continuous
 62
     7
 48
50.0
370
    25
100
AcDbLine
 10
9497.5172896618
 20
12283.8098656724
 30
0.0
 11
9497.5172896618
 21
13413.8098609041
 31
0.0
  0
LINE
  5
F9
330
1F
100
AcDbEntity
  8
0
  6
Continuous
 62
     7
 48
50.0
370
    25
100
AcDbLine
 10
9498.5172767872
 20
13414.8099076341
 30
0.0
 11
9497.5172896618
 21
13413.8098609041
 31
0.0
  0
LINE
  5
FA
330
1F
100
AcDbEntity
  8
0
  6
Continuous
 62
     7
 48
50.0
370
    25
100
AcDbLine
 10
8377.5173146958
 20
13413.8098609041
 30
0.0
 11
8377.5173146958
 21
12283.8098656724
 31
0.0
  0
LINE
  5
FB
330
1F
100
AcDbEntity
  8
0
  6
Continuous
 62
     7
 48
50.0
370
    25
100
AcDbLine
 10
8377.5173146958
 20
13413.8098609041
 30
0.0
 11
8376.5172679657
 21
13414.8099076341
 31
0.0
  0
LINE
  5
FC
330
1F
100
AcDbEntity
  8
0
  6
Continuous
 62
     7
 48
50.0
370
    25
100
AcDbLine
 10
9497.5172896618
 20
13413.0108010362
 30
0.0
 11
8377.5173146958
 21
13413.0108010362
 31
0.0
  0
LINE
  5
FD
330
1F
100
AcDbEntity
  8
0
  6
Continuous
 62
     7
 48
50.0
370
    25
100
AcDbLine
 10
9507.5172801251
 20
12564.3098604272
 30
0.0
 11
9507.5172801251
 21
12529.6688329767
 31
0.0
  0
LINE
  5
FE
330
1F
100
AcDbEntity
  8
0
  6
Continuous
 62
     7
 48
50.0
370
    25
100
AcDbLine
 10
9507.4172933335
 20
12529.6688329767
 30
0.0
 11
9507.5172801251
 21
12529.6688329767
 31
0.0
  0
LINE
  5
FF
330
1F
100
AcDbEntity
  8
0
  6
Continuous
 62
     7
 48
50.0
370
    25
100
AcDbLine
 10
8367.5173242325
 20
12564.3098604272
 30
0.0
 11
8367.5173242325
 21
12529.6688329767
 31
0.0
  0
LINE
  5
100
330
1F
100
AcDbEntity
  8
0
  6
Continuous
 62
     7
 48
50.0
370
    25
100
AcDbLine
 10
8367.6172216172
 20
12529.6688329767
 30
0.0
 11
8367.5173242325
 21
12529.6688329767
 31
0.0
  0
LINE
  5
101
330
1F
100
AcDbEntity
  8
0
  6
Continuous
 62
     7
 48
50.0
370
    25
100
AcDbLine
 10
9507.5172801251
 20
13276.80989619
 30
0.0
 11
9507.5172801251
 21
13242.1688687395
 31
0.0
  0
LINE
  5
102
330
1F
100
AcDbEntity
  8
0
  6
Continuous
 62
     7
 48
50.0
370
    25
100
AcDbLine
 10
9507.4172933335
 20
13242.1688687395
 30
0.0
 11
9507.5172801251
 21
13242.1688687395
 31
0.0
  0
LINE
  5
103
330
1F
100
AcDbEntity
  8
0
  6
Continuous
 62
     7
 48
50.0
370
    25
100
AcDbLine
 10
8367.5173242325
 20
13276.80989619
 30
0.0
 11
8367.5173242325
 21
13242.1688687395
 31
0.0
  0
LINE
  5
104
330
1F
100
AcDbEntity
  8
0
  6
Continuous
 62
     7
 48
50.0
370
    25
100
AcDbLine
 10
8367.6172216172
 20
13242.1688687395
 30
0.0
 11
8367.5173242325
 21
13242.1688687395
 31
0.0
  0
LINE
  5
105
330
1F
100
AcDbEntity
  8
0
  6
Continuous
 62
     7
 48
50.0
370
    25
100
AcDbLine
 10
9497.5172896618
 20
13413.8098609041
 30
0.0
 11
8377.5173146958
 21
13413.8098609041
 31
0.0
  0
LINE
  5
106
330
1F
100
AcDbEntity
  8
0
  6
Continuous
 62
     7
 48
50.0
370
    25
100
AcDbLine
 10
8367.5173242325
 20
13428.8098465989
 30
0.0
 11
9507.5172801251
 21
13428.8098465989
 31
0.0
  0
LINE
  5
107
330
1F
100
AcDbEntity
  8
0
  6
Continuous
 62
     7
 48
50.0
370
    25
100
AcDbLine
 10
8367.5173242325
 20
13571.3098895143
 30
0.0
 11
8367.5173242325
 21
13428.8098465989
 31
0.0
  0
LINE
  5
108
330
1F
100
AcDbEntity
  8
0
  6
Continuous
 62
     7
 48
50.0
370
    25
100
AcDbLine
 10
8367.6172216172
 20
13571.3098895143
 30
0.0
 11
8367.5173242325
 21
13571.3098895143
 31
0.0
  0
LINE
  5
109
330
1F
100
AcDbEntity
  8
0
  6
Continuous
 62
     7
 48
50.0
370
    25
100
AcDbLine
 10
8367.6172216172
 20
13571.3098895143
 30
0.0
 11
8367.6172216172
 21
13713.8098132203
 31
0.0
  0
LINE
  5
10A
330
1F
100
AcDbEntity
  8
0
  6
Continuous
 62
     7
 48
50.0
370
    25
100
AcDbLine
 10
8367.6172216172
 20
13713.8098132203
 30
0.0
 11
8367.5173242325
 21
13713.8098132203
 31
0.0
  0
LINE
  5
10B
330
1F
100
AcDbEntity
  8
0
  6
Continuous
 62
     7
 48
50.0
370
    25
100
AcDbLine
 10
8367.5173242325
 20
14283.8097464631
 30
0.0
 11
8367.5173242325
 21
13713.8098132203
 31
0.0
  0
LINE
  5
10C
330
1F
100
AcDbEntity
  8
0
  6
Continuous
 62
     7
 48
50.0
370
    25
100
AcDbLine
 10
8367.6172216172
 20
14283.8097464631
 30
0.0
 11
8367.5173242325
 21
14283.8097464631
 31
0.0
  0
LINE
  5
10D
330
1F
100
AcDbEntity
  8
0
  6
Continuous
 62
     7
 48
50.0
370
    25
100
AcDbLine
 10
8367.6172216172
 20
14283.8097464631
 30
0.0
 11
8367.6172216172
 21
14426.3099085878
 31
0.0
  0
LINE
  5
10E
330
1F
100
AcDbEntity
  8
0
  6
Continuous
 62
     7
 48
50.0
370
    25
100
AcDbLine
 10
8367.6172216172
 20
14426.3099085878
 30
0.0
 11
8367.5173242325
 21
14426.3099085878
 31
0.0
  0
LINE
  5
10F
330
1F
100
AcDbEntity
  8
0
  6
Continuous
 62
     7
 48
50.0
370
    25
100
AcDbLine
 10
8367.5173242325
 20
14568.8098322938
 30
0.0
 11
8367.5173242325
 21
14426.3099085878
 31
0.0
  0
LINE
  5
110
330
1F
100
AcDbEntity
  8
0
  6
Continuous
 62
     7
 48
50.0
370
    25
100
AcDbLine
 10
9507.5172801251
 20
14568.8098322938
 30
0.0
 11
8367.5173242325
 21
14568.8098322938
 31
0.0
  0
LINE
  5
111
330
1F
100
AcDbEntity
  8
0
  6
Continuous
 62
     7
 48
50.0
370
    25
100
AcDbLine
 10
9507.5172801251
 20
14426.3099085878
 30
0.0
 11
9507.5172801251
 21
14568.8098322938
 31
0.0
  0
LINE
  5
112
330
1F
100
AcDbEntity
  8
0
  6
Continuous
 62
     7
 48
50.0
370
    25
100
AcDbLine
 10
9507.4172933335
 20
14426.3099085878
 30
0.0
 11
9507.5172801251
 21
14426.3099085878
 31
0.0
  0
LINE
  5
113
330
1F
100
AcDbEntity
  8
0
  6
Continuous
 62
     7
 48
50.0
370
    25
100
AcDbLine
 10
9507.4172933335
 20
14283.8097464631
 30
0.0
 11
9507.4172933335
 21
14426.3099085878
 31
0.0
  0
LINE
  5
114
330
1F
100
AcDbEntity
  8
0
  6
Continuous
 62
     7
 48
50.0
370
    25
100
AcDbLine
 10
9507.4172933335
 20
14283.8097464631
 30
0.0
 11
9507.5172801251
 21
14283.8097464631
 31
0.0
  0
LINE
  5
115
330
1F
100
AcDbEntity
  8
0
  6
Continuous
 62
     7
 48
50.0
370
    25
100
AcDbLine
 10
9507.5172801251
 20
13713.8098132203
 30
0.0
 11
9507.5172801251
 21
14283.8097464631
 31
0.0
  0
LINE
  5
116
330
1F
100
AcDbEntity
  8
0
  6
Continuous
 62
     7
 48
50.0
370
    25
100
AcDbLine
 10
9507.4172933335
 20
13713.8098132203
 30
0.0
 11
9507.5172801251
 21
13713.8098132203
 31
0.0
  0
LINE
  5
117
330
1F
100
AcDbEntity
  8
0
  6
Continuous
 62
     7
 48
50.0
370
    25
100
AcDbLine
 10
9507.4172933335
 20
13571.3098895143
 30
0.0
 11
9507.4172933335
 21
13713.8098132203
 31
0.0
  0
LINE
  5
118
330
1F
100
AcDbEntity
  8
0
  6
Continuous
 62
     7
 48
50.0
370
    25
100
AcDbLine
 10
9507.4172933335
 20
13571.3098895143
 30
0.0
 11
9507.5172801251
 21
13571.3098895143
 31
0.0
  0
LINE
  5
119
330
1F
100
AcDbEntity
  8
0
  6
Continuous
 62
     7
 48
50.0
370
    25
100
AcDbLine
 10
9507.5172801251
 20
13428.8098465989
 30
0.0
 11
9507.5172801251
 21
13571.3098895143
 31
0.0
  0
LINE
  5
11A
330
1F
100
AcDbEntity
  8
0
  6
Continuous
 62
     7
 48
50.0
370
    25
100
AcDbLine
 10
8376.5172679657
 20
14564.3099200319
 30
0.0
 11
9498.5172767872
 21
14564.3099200319
 31
0.0
  0
LINE
  5
11B
330
1F
100
AcDbEntity
  8
0
  6
Continuous
 62
     7
 48
50.0
370
    25
100
AcDbLine
 10
8376.5172679657
 20
13433.3098780702
 30
0.0
 11
8376.5172679657
 21
14564.3099200319
 31
0.0
  0
LINE
  5
11C
330
1F
100
AcDbEntity
  8
0
  6
Continuous
 62
     7
 48
50.0
370
    25
100
AcDbLine
 10
9498.5172767872
 20
13433.3098780702
 30
0.0
 11
8376.5172679657
 21
13433.3098780702
 31
0.0
  0
LINE
  5
11D
330
1F
100
AcDbEntity
  8
0
  6
Continuous
 62
     7
 48
50.0
370
    25
100
AcDbLine
 10
9498.5172767872
 20
14564.3099200319
 30
0.0
 11
9498.5172767872
 21
13433.3098780702
 31
0.0
  0
LINE
  5
11E
330
1F
100
AcDbEntity
  8
0
  6
Continuous
 62
     7
 48
50.0
370
    25
100
AcDbLine
 10
9507.5172801251
 20
13419.3098198961
 30
0.0
 11
9507.5172801251
 21
13428.8098465989
 31
0.0
  0
LINE
  5
11F
330
1F
100
AcDbEntity
  8
0
  6
Continuous
 62
     7
 48
50.0
370
    25
100
AcDbLine
 10
8367.5173242325
 20
13419.3098198961
 30
0.0
 11
8367.5173242325
 21
13428.8098465989
 31
0.0
  0
LINE
  5
120
330
1F
100
AcDbEntity
  8
0
  6
Continuous
 62
     7
 48
50.0
370
    25
100
AcDbLine
 10
9497.5172896618
 20
13433.3098780702
 30
0.0
 11
9497.5172896618
 21
14563.3097540925
 31
0.0
  0
LINE
  5
121
330
1F
100
AcDbEntity
  8
0
  6
Continuous
 62
     7
 48
50.0
370
    25
100
AcDbLine
 10
9498.5172767872
 20
14564.3099200319
 30
0.0
 11
9497.5172896618
 21
14563.3097540925
 31
0.0
  0
LINE
  5
122
330
1F
100
AcDbEntity
  8
0
  6
Continuous
 62
     7
 48
50.0
370
    25
100
AcDbLine
 10
8377.5173146958
 20
14563.3097540925
 30
0.0
 11
8377.5173146958
 21
13433.3098780702
 31
0.0
  0
LINE
  5
123
330
1F
100
AcDbEntity
  8
0
  6
Continuous
 62
     7
 48
50.0
370
    25
100
AcDbLine
 10
8377.5173146958
 20
14563.3097540925
 30
0.0
 11
8376.5172679657
 21
14564.3099200319
 31
0.0
  0
LINE
  5
124
330
1F
100
AcDbEntity
  8
0
  6
Continuous
 62
     7
 48
50.0
370
    25
100
AcDbLine
 10
9497.5172896618
 20
14562.510813434
 30
0.0
 11
8377.5173146958
 21
14562.510813434
 31
0.0
  0
LINE
  5
125
330
1F
100
AcDbEntity
  8
0
  6
Continuous
 62
     7
 48
50.0
370
    25
100
AcDbLine
 10
9507.5172801251
 20
13713.8098132203
 30
0.0
 11
9507.5172801251
 21
13679.1687857698
 31
0.0
  0
LINE
  5
126
330
1F
100
AcDbEntity
  8
0
  6
Continuous
 62
     7
 48
50.0
370
    25
100
AcDbLine
 10
9507.4172933335
 20
13679.1687857698
 30
0.0
 11
9507.5172801251
 21
13679.1687857698
 31
0.0
  0
LINE
  5
127
330
1F
100
AcDbEntity
  8
0
  6
Continuous
 62
     7
 48
50.0
370
    25
100
AcDbLine
 10
8367.5173242325
 20
13713.8098132203
 30
0.0
 11
8367.5173242325
 21
13679.1687857698
 31
0.0
  0
LINE
  5
128
330
1F
100
AcDbEntity
  8
0
  6
Continuous
 62
     7
 48
50.0
370
    25
100
AcDbLine
 10
8367.6172216172
 20
13679.1687857698
 30
0.0
 11
8367.5173242325
 21
13679.1687857698
 31
0.0
  0
LINE
  5
129
330
1F
100
AcDbEntity
  8
0
  6
Continuous
 62
     7
 48
50.0
370
    25
100
AcDbLine
 10
9507.5172801251
 20
14426.3099085878
 30
0.0
 11
9507.5172801251
 21
14391.6688811372
 31
0.0
  0
LINE
  5
12A
330
1F
100
AcDbEntity
  8
0
  6
Continuous
 62
     7
 48
50.0
370
    25
100
AcDbLine
 10
9507.4172933335
 20
14391.6688811372
 30
0.0
 11
9507.5172801251
 21
14391.6688811372
 31
0.0
  0
LINE
  5
12B
330
1F
100
AcDbEntity
  8
0
  6
Continuous
 62
     7
 48
50.0
370
    25
100
AcDbLine
 10
8367.5173242325
 20
14426.3099085878
 30
0.0
 11
8367.5173242325
 21
14391.6688811372
 31
0.0
  0
LINE
  5
12C
330
1F
100
AcDbEntity
  8
0
  6
Continuous
 62
     7
 48
50.0
370
    25
100
AcDbLine
 10
8367.6172216172
 20
14391.6688811372
 30
0.0
 11
8367.5173242325
 21
14391.6688811372
 31
0.0
  0
LINE
  5
12D
330
1F
100
AcDbEntity
  8
0
  6
Continuous
 62
     7
 48
50.0
370
    25
100
AcDbLine
 10
9497.5172896618
 20
14563.3097540925
 30
0.0
 11
8377.5173146958
 21
14563.3097540925
 31
0.0
  0
LINE
  5
12E
330
1F
100
AcDbEntity
  8
0
  6
Continuous
 62
     7
 48
50.0
370
    25
100
AcDbLine
 10
8332.0172746415
 20
14221.1378466676
 30
0.0
 11
8332.0172746415
 21
14225.9188544343
 31
0.0
  0
LINE
  5
12F
330
1F
100
AcDbEntity
  8
0
  6
Continuous
 62
     7
 48
50.0
370
    25
100
AcDbLine
 10
10702.0172794098
 20
14225.9188544343
 30
0.0
 11
10702.0172794098
 21
14221.1378466676
 31
0.0
  0
LWPOLYLINE
  5
130
330
1F
100
AcDbEntity
  8
0
  6
Continuous
 62
     7
 48
50.0
370
    25
100
AcDbPolyline
 90
       28
 70
   128
 43
0.0
 10
8363.5172565216
 20
14159.2169653962
 10
8363.342018866
 20
14160.5151545595
 10
8362.8258426422
 20
14161.7432486604
 10
8361.9966228241
 20
14162.8352057527
 10
8360.8988244767
 20
14163.7321364473
 10
8359.591813826
 20
14164.3856417726
 10
8358.1460435624
 20
14164.7606741975
 10
8356.6393573517
 20
14164.8364913057
 10
8355.1530559296
 20
14164.6095168184
 10
8353.7672479386
 20
14164.0919100831
 10
8352.5566776032
 20
14163.3113276552
 10
8351.5865524048
 20
14162.3102080415
 10
8350.9093244309
 20
14161.1421954225
 10
8350.5612333054
 20
14159.8704707216
 10
8350.5612333054
 20
14158.5634600709
 10
8350.9093244309
 20
14157.29173537
 10
8351.5865524048
 20
14156.123722751
 10
8352.5566776032
 20
14155.1223647188
 10
8353.7672479386
 20
14154.3420207094
 10
8355.1530559296
 20
14153.8241755556
 10
8356.6393573517
 20
14153.5972010682
 10
8358.1460435624
 20
14153.673256595
 10
8359.591813826
 20
14154.0480506013
 10
8360.8988244767
 20
14154.7015559266
 10
8361.9966228241
 20
14155.5984866212
 10
8362.8258426422
 20
14156.6906821321
 10
8363.342018866
 20
14157.918776233
 10
8363.5172565216
 20
14159.2169653962
  0
LWPOLYLINE
  5
131
330
1F
100
AcDbEntity
  8
0
  6
Continuous
 62
     7
 48
50.0
370
    25
100
AcDbPolyline
 90
       28
 70
   128
 43
0.0
 10
10670.5172975296
 20
14202.5183093141
 10
10670.6924755806
 20
14201.2201201509
 10
10671.2086518044
 20
14199.9917876314
 10
10672.0379908318
 20
14198.8998305391
 10
10673.1357295746
 20
14198.0028998445
 10
10674.4427402253
 20
14197.3493945192
 10
10675.8885700936
 20
14196.9746005128
 10
10677.3951966996
 20
14196.8985449861
 10
10678.8814981217
 20
14197.1255194734
 10
10680.2673061127
 20
14197.6431262086
 10
10681.4778764481
 20
14198.4237086366
 10
10682.4479420418
 20
14199.4248282503
 10
10683.125289225
 20
14200.5928408693
 10
10683.4733207459
 20
14201.8648039888
 10
10683.4733207459
 20
14203.1718146394
 10
10683.125289225
 20
14204.4435393403
 10
10682.4479420418
 20
14205.6115519594
 10
10681.4778764481
 20
14206.612671573
 10
10680.2673061127
 20
14207.393254001
 10
10678.8814981217
 20
14207.9108607362
 10
10677.3951966996
 20
14208.1378352235
 10
10675.8885700936
 20
14208.0617796968
 10
10674.4427402253
 20
14207.6869856904
 10
10673.1357295746
 20
14207.0334803651
 10
10672.0379908318
 20
14206.1365496705
 10
10671.2086518044
 20
14205.0445925783
 10
10670.6924755806
 20
14203.8164984773
 10
10670.5172975296
 20
14202.5183093141
  0
LWPOLYLINE
  5
132
330
1F
100
AcDbEntity
  8
0
  6
Continuous
 62
     7
 48
50.0
370
    25
100
AcDbPolyline
 90
       28
 70
   128
 43
0.0
 10
10670.5172975296
 20
14159.2169653962
 10
10670.6924755806
 20
14157.918776233
 10
10671.2086518044
 20
14156.6906821321
 10
10672.0379908318
 20
14155.5984866212
 10
10673.1357295746
 20
14154.7015559266
 10
10674.4427402253
 20
14154.0480506013
 10
10675.8885700936
 20
14153.673256595
 10
10677.3951966996
 20
14153.5972010682
 10
10678.8814981217
 20
14153.8241755556
 10
10680.2673061127
 20
14154.3420207094
 10
10681.4778764481
 20
14155.1223647188
 10
10682.4479420418
 20
14156.123722751
 10
10683.125289225
 20
14157.29173537
 10
10683.4733207459
 20
14158.5634600709
 10
10683.4733207459
 20
14159.8704707216
 10
10683.125289225
 20
14161.1421954225
 10
10682.4479420418
 20
14162.3102080415
 10
10681.4778764481
 20
14163.3113276552
 10
10680.2673061127
 20
14164.0919100831
 10
10678.8814981217
 20
14164.6095168184
 10
10677.3951966996
 20
14164.8364913057
 10
10675.8885700936
 20
14164.7606741975
 10
10674.4427402253
 20
14164.3856417726
 10
10673.1357295746
 20
14163.7321364473
 10
10672.0379908318
 20
14162.8352057527
 10
10671.2086518044
 20
14161.7432486604
 10
10670.6924755806
 20
14160.5151545595
 10
10670.5172975296
 20
14159.2169653962
  0
LWPOLYLINE
  5
133
330
1F
100
AcDbEntity
  8
0
  6
Continuous
 62
     7
 48
50.0
370
    25
100
AcDbPolyline
 90
       28
 70
   128
 43
0.0
 10
8363.5172565216
 20
14202.5183093141
 10
8363.342018866
 20
14203.8164984773
 10
8362.8258426422
 20
14205.0445925783
 10
8361.9966228241
 20
14206.1365496705
 10
8360.8988244767
 20
14207.0334803651
 10
8359.591813826
 20
14207.6869856904
 10
8358.1460435624
 20
14208.0617796968
 10
8356.6393573517
 20
14208.1378352235
 10
8355.1530559296
 20
14207.9108607362
 10
8353.7672479386
 20
14207.393254001
 10
8352.5566776032
 20
14206.612671573
 10
8351.5865524048
 20
14205.6115519594
 10
8350.9093244309
 20
14204.4435393403
 10
8350.5612333054
 20
14203.1718146394
 10
8350.5612333054
 20
14201.8648039888
 10
8350.9093244309
 20
14200.5928408693
 10
8351.5865524048
 20
14199.4248282503
 10
8352.5566776032
 20
14198.4237086366
 10
8353.7672479386
 20
14197.6431262086
 10
8355.1530559296
 20
14197.1255194734
 10
8356.6393573517
 20
14196.8985449861
 10
8358.1460435624
 20
14196.9746005128
 10
8359.591813826
 20
14197.3493945192
 10
8360.8988244767
 20
14198.0028998445
 10
8361.9966228241
 20
14198.8998305391
 10
8362.8258426422
 20
14199.9917876314
 10
8363.342018866
 20
14201.2201201509
 10
8363.5172565216
 20
14202.5183093141
  0
LINE
  5
134
330
1F
100
AcDbEntity
  8
0
  6
Continuous
 62
     7
 48
50.0
370
    25
100
AcDbLine
 10
8332.0172746415
 20
14221.1378466676
 30
0.0
 11
8332.0172746415
 21
14140.5974280427
 31
0.0
  0
LINE
  5
135
330
1F
100
AcDbEntity
  8
0
  6
Continuous
 62
     7
 48
50.0
370
    25
100
AcDbLine
 10
10702.0172794098
 20
14221.1378466676
 30
0.0
 11
10702.0172794098
 21
14140.5974280427
 31
0.0
  0
LINE
  5
136
330
1F
100
AcDbEntity
  8
0
  6
Continuous
 62
     7
 48
50.0
370
    25
100
AcDbLine
 10
8332.0172746415
 20
14247.418726642
 30
0.0
 11
8332.0172746415
 21
14225.9188544343
 31
0.0
  0
LINE
  5
137
330
1F
100
AcDbEntity
  8
0
  6
Continuous
 62
     7
 48
50.0
370
    25
100
AcDbLine
 10
10702.0172794098
 20
14247.418726642
 30
0.0
 11
10702.0172794098
 21
14225.9188544343
 31
0.0
  0
LINE
  5
138
330
1F
100
AcDbEntity
  8
0
  6
Continuous
 62
     7
 48
50.0
370
    25
100
AcDbLine
 10
9526.5172739262
 20
14239.9187933992
 30
0.0
 11
9507.5172801251
 21
14239.9187933992
 31
0.0
  0
LINE
  5
139
330
1F
100
AcDbEntity
  8
0
  6
Continuous
 62
     7
 48
50.0
370
    25
100
AcDbLine
 10
9507.5172801251
 20
14233.4187876771
 30
0.0
 11
9526.5172739262
 21
14233.4187876771
 31
0.0
  0
LWPOLYLINE
  5
13A
330
1F
100
AcDbEntity
  8
0
  6
Continuous
 62
     7
 48
50.0
370
    25
100
AcDbPolyline
 90
       15
 70
   128
 43
0.0
 10
10670.5317218537
 20
14202.8931033204
 10
10670.6924755806
 20
14201.9699465822
 10
10671.2086518044
 20
14200.7418524812
 10
10672.0379908318
 20
14199.6498953889
 10
10673.1357295746
 20
14198.7529646943
 10
10674.4427402253
 20
14198.099459369
 10
10675.8885700936
 20
14197.7246653627
 10
10677.3951966996
 20
14197.6486098359
 10
10678.8814981217
 20
14197.8755843233
 10
10680.2673061127
 20
14198.3931910585
 10
10681.4778764481
 20
14199.1737734865
 10
10682.4479420418
 20
14200.1748931001
 10
10683.125289225
 20
14201.3429057191
 10
10683.4733207459
 20
14202.6146304201
 10
10683.502825045
 20
14202.8931033204
  0
LWPOLYLINE
  5
13B
330
1F
100
AcDbEntity
  8
0
  6
Continuous
 62
     7
 48
50.0
370
    25
100
AcDbPolyline
 90
       15
 70
   128
 43
0.0
 10
8350.5316694016
 20
14202.8931033204
 10
8350.5612333054
 20
14202.6146304201
 10
8350.9093244309
 20
14201.3429057191
 10
8351.5865524048
 20
14200.1748931001
 10
8352.5566776032
 20
14199.1737734865
 10
8353.7672479386
 20
14198.3931910585
 10
8355.1530559296
 20
14197.8755843233
 10
8356.6393573517
 20
14197.6486098359
 10
8358.1460435624
 20
14197.7246653627
 10
8359.591813826
 20
14198.099459369
 10
8360.8988244767
 20
14198.7529646943
 10
8361.9966228241
 20
14199.6498953889
 10
8362.8258426422
 20
14200.7418524812
 10
8363.342018866
 20
14201.9699465822
 10
8363.5028321976
 20
14202.8931033204
  0
LINE
  5
13C
330
1F
100
AcDbEntity
  8
0
  6
Continuous
 62
     7
 48
50.0
370
    25
100
AcDbLine
 10
9526.5172739262
 20
14238.6198889802
 30
0.0
 11
9507.5172801251
 21
14238.6198889802
 31
0.0
  0
LWPOLYLINE
  5
13D
330
1F
100
AcDbEntity
  8
0
  6
Continuous
 62
     7
 48
50.0
370
    25
100
AcDbPolyline
 90
       15
 70
   128
 43
0.0
 10
10670.5317218537
 20
14159.5919978212
 10
10670.6924755806
 20
14158.6688410829
 10
10671.2086518044
 20
14157.4405085634
 10
10672.0379908318
 20
14156.3485514711
 10
10673.1357295746
 20
14155.4516207765
 10
10674.4427402253
 20
14154.7981154512
 10
10675.8885700936
 20
14154.4233214448
 10
10677.3951966996
 20
14154.3472659181
 10
10678.8814981217
 20
14154.5742404054
 10
10680.2673061127
 20
14155.0918471406
 10
10681.4778764481
 20
14155.8724295686
 10
10682.4479420418
 20
14156.8735491823
 10
10683.125289225
 20
14158.0415618013
 10
10683.4733207459
 20
14159.3135249208
 10
10683.502825045
 20
14159.5919978212
  0
LWPOLYLINE
  5
13E
330
1F
100
AcDbEntity
  8
0
  6
Continuous
 62
     7
 48
50.0
370
    25
100
AcDbPolyline
 90
       15
 70
   128
 43
0.0
 10
8350.5316694016
 20
14159.5919978212
 10
8350.5612333054
 20
14159.3135249208
 10
8350.9093244309
 20
14158.0415618013
 10
8351.5865524048
 20
14156.8735491823
 10
8352.5566776032
 20
14155.8724295686
 10
8353.7672479386
 20
14155.0918471406
 10
8355.1530559296
 20
14154.5742404054
 10
8356.6393573517
 20
14154.3472659181
 10
8358.1460435624
 20
14154.4233214448
 10
8359.591813826
 20
14154.7981154512
 10
8360.8988244767
 20
14155.4516207765
 10
8361.9966228241
 20
14156.3485514711
 10
8362.8258426422
 20
14157.4405085634
 10
8363.342018866
 20
14158.6688410829
 10
8363.5028321976
 20
14159.5919978212
  0
LINE
  5
13F
330
1F
100
AcDbEntity
  8
0
  6
Continuous
 62
     7
 48
50.0
370
    25
100
AcDbLine
 10
8332.0172746415
 20
14247.8876959871
 30
0.0
 11
8332.0172746415
 21
14247.418726642
 31
0.0
  0
LINE
  5
140
330
1F
100
AcDbEntity
  8
0
  6
Continuous
 62
     7
 48
50.0
370
    25
100
AcDbLine
 10
10702.0172794098
 20
14247.8876959871
 30
0.0
 11
10702.0172794098
 21
14247.418726642
 31
0.0
  0
LINE
  5
141
330
1F
100
AcDbEntity
  8
0
  6
Continuous
 62
     7
 48
50.0
370
    25
100
AcDbLine
 10
10702.0172794098
 20
14140.5974280427
 30
0.0
 11
10702.0172794098
 21
14138.8474356721
 31
0.0
  0
LINE
  5
142
330
1F
100
AcDbEntity
  8
0
  6
Continuous
 62
     7
 48
50.0
370
    25
100
AcDbLine
 10
8332.0172746415
 20
14138.8474356721
 30
0.0
 11
8332.0172746415
 21
14140.5974280427
 31
0.0
  0
LINE
  5
143
330
1F
100
AcDbEntity
  8
0
  6
Continuous
 62
     7
 48
50.0
370
    25
100
AcDbLine
 10
8332.0172746415
 20
13540.6376969407
 30
0.0
 11
8332.0172746415
 21
13545.4188239168
 31
0.0
  0
LINE
  5
144
330
1F
100
AcDbEntity
  8
0
  6
Continuous
 62
     7
 48
50.0
370
    25
100
AcDbLine
 10
10702.0172794098
 20
13545.4188239168
 30
0.0
 11
10702.0172794098
 21
13540.6376969407
 31
0.0
  0
LWPOLYLINE
  5
145
330
1F
100
AcDbEntity
  8
0
  6
Continuous
 62
     7
 48
50.0
370
    25
100
AcDbPolyline
 90
       28
 70
   128
 43
0.0
 10
8363.5172565216
 20
13478.7169348787
 10
8363.342018866
 20
13480.0151240419
 10
8362.8258426422
 20
13481.2433373521
 10
8361.9966228241
 20
13482.3352944444
 10
8360.8988244767
 20
13483.232225139
 10
8359.591813826
 20
13483.8857304643
 10
8358.1460435624
 20
13484.2605244707
 10
8356.6393573517
 20
13484.3365799974
 10
8355.1530559296
 20
13484.1096055101
 10
8353.7672479386
 20
13483.5918795656
 10
8352.5566776032
 20
13482.8114163469
 10
8351.5865524048
 20
13481.8101775239
 10
8350.9093244309
 20
13480.6422841142
 10
8350.5612333054
 20
13479.370440204
 10
8350.5612333054
 20
13478.0634295534
 10
8350.9093244309
 20
13476.7917048524
 10
8351.5865524048
 20
13475.6236922334
 10
8352.5566776032
 20
13474.6224534105
 10
8353.7672479386
 20
13473.8419901918
 10
8355.1530559296
 20
13473.3242642473
 10
8356.6393573517
 20
13473.09728976
 10
8358.1460435624
 20
13473.1733452867
 10
8359.591813826
 20
13473.548139293
 10
8360.8988244767
 20
13474.2016446184
 10
8361.9966228241
 20
13475.0985753129
 10
8362.8258426422
 20
13476.1905324052
 10
8363.342018866
 20
13477.4187457155
 10
8363.5172565216
 20
13478.7169348787
  0
LWPOLYLINE
  5
146
330
1F
100
AcDbEntity
  8
0
  6
Continuous
 62
     7
 48
50.0
370
    25
100
AcDbPolyline
 90
       28
 70
   128
 43
0.0
 10
10670.5172975296
 20
13522.0181595872
 10
10670.6924755806
 20
13520.7200896333
 10
10671.2086518044
 20
13519.4918763231
 10
10672.0379908318
 20
13518.3998000215
 10
10673.1357295746
 20
13517.5028693269
 10
10674.4427402253
 20
13516.8493640016
 10
10675.8885700936
 20
13516.4745699952
 10
10677.3951966996
 20
13516.3985144685
 10
10678.8814981217
 20
13516.6254889558
 10
10680.2673061127
 20
13517.1432149003
 10
10681.4778764481
 20
13517.923678119
 10
10682.4479420418
 20
13518.924916942
 10
10683.125289225
 20
13520.092929561
 10
10683.4733207459
 20
13521.3646542619
 10
10683.4733207459
 20
13522.6716649125
 10
10683.125289225
 20
13523.9435088228
 10
10682.4479420418
 20
13525.1115214418
 10
10681.4778764481
 20
13526.1127602647
 10
10680.2673061127
 20
13526.8932234834
 10
10678.8814981217
 20
13527.4108302186
 10
10677.3951966996
 20
13527.6378047059
 10
10675.8885700936
 20
13527.5618683885
 10
10674.4427402253
 20
13527.1869551729
 10
10673.1357295746
 20
13526.5334498475
 10
10672.0379908318
 20
13525.636519153
 10
10671.2086518044
 20
13524.5445620607
 10
10670.6924755806
 20
13523.3163487504
 10
10670.5172975296
 20
13522.0181595872
  0
LWPOLYLINE
  5
147
330
1F
100
AcDbEntity
  8
0
  6
Continuous
 62
     7
 48
50.0
370
    25
100
AcDbPolyline
 90
       28
 70
   128
 43
0.0
 10
10670.5172975296
 20
13478.7169348787
 10
10670.6924755806
 20
13477.4187457155
 10
10671.2086518044
 20
13476.1905324052
 10
10672.0379908318
 20
13475.0985753129
 10
10673.1357295746
 20
13474.2016446184
 10
10674.4427402253
 20
13473.548139293
 10
10675.8885700936
 20
13473.1733452867
 10
10677.3951966996
 20
13473.09728976
 10
10678.8814981217
 20
13473.3242642473
 10
10680.2673061127
 20
13473.8419901918
 10
10681.4778764481
 20
13474.6224534105
 10
10682.4479420418
 20
13475.6236922334
 10
10683.125289225
 20
13476.7917048524
 10
10683.4733207459
 20
13478.0634295534
 10
10683.4733207459
 20
13479.370440204
 10
10683.125289225
 20
13480.6422841142
 10
10682.4479420418
 20
13481.8101775239
 10
10681.4778764481
 20
13482.8114163469
 10
10680.2673061127
 20
13483.5918795656
 10
10678.8814981217
 20
13484.1096055101
 10
10677.3951966996
 20
13484.3365799974
 10
10675.8885700936
 20
13484.2605244707
 10
10674.4427402253
 20
13483.8857304643
 10
10673.1357295746
 20
13483.232225139
 10
10672.0379908318
 20
13482.3352944444
 10
10671.2086518044
 20
13481.2433373521
 10
10670.6924755806
 20
13480.0151240419
 10
10670.5172975296
 20
13478.7169348787
  0
LWPOLYLINE
  5
148
330
1F
100
AcDbEntity
  8
0
  6
Continuous
 62
     7
 48
50.0
370
    25
100
AcDbPolyline
 90
       28
 70
   128
 43
0.0
 10
8363.5172565216
 20
13522.0181595872
 10
8363.342018866
 20
13523.3163487504
 10
8362.8258426422
 20
13524.5445620607
 10
8361.9966228241
 20
13525.636519153
 10
8360.8988244767
 20
13526.5334498475
 10
8359.591813826
 20
13527.1869551729
 10
8358.1460435624
 20
13527.5618683885
 10
8356.6393573517
 20
13527.6378047059
 10
8355.1530559296
 20
13527.4108302186
 10
8353.7672479386
 20
13526.8932234834
 10
8352.5566776032
 20
13526.1127602647
 10
8351.5865524048
 20
13525.1115214418
 10
8350.9093244309
 20
13523.9435088228
 10
8350.5612333054
 20
13522.6716649125
 10
8350.5612333054
 20
13521.3646542619
 10
8350.9093244309
 20
13520.092929561
 10
8351.5865524048
 20
13518.924916942
 10
8352.5566776032
 20
13517.923678119
 10
8353.7672479386
 20
13517.1432149003
 10
8355.1530559296
 20
13516.6254889558
 10
8356.6393573517
 20
13516.3985144685
 10
8358.1460435624
 20
13516.4745699952
 10
8359.591813826
 20
13516.8493640016
 10
8360.8988244767
 20
13517.5028693269
 10
8361.9966228241
 20
13518.3998000215
 10
8362.8258426422
 20
13519.4918763231
 10
8363.342018866
 20
13520.7200896333
 10
8363.5172565216
 20
13522.0181595872
  0
LINE
  5
149
330
1F
100
AcDbEntity
  8
0
  6
Continuous
 62
     7
 48
50.0
370
    25
100
AcDbLine
 10
8332.0172746415
 20
13540.6376969407
 30
0.0
 11
8332.0172746415
 21
13460.0973975252
 31
0.0
  0
LINE
  5
14A
330
1F
100
AcDbEntity
  8
0
  6
Continuous
 62
     7
 48
50.0
370
    25
100
AcDbLine
 10
10702.0172794098
 20
13540.6376969407
 30
0.0
 11
10702.0172794098
 21
13460.0973975252
 31
0.0
  0
LINE
  5
14B
330
1F
100
AcDbEntity
  8
0
  6
Continuous
 62
     7
 48
50.0
370
    25
100
AcDbLine
 10
8332.0172746415
 20
13566.9188153337
 30
0.0
 11
8332.0172746415
 21
13545.4188239168
 31
0.0
  0
LINE
  5
14C
330
1F
100
AcDbEntity
  8
0
  6
Continuous
 62
     7
 48
50.0
370
    25
100
AcDbLine
 10
10702.0172794098
 20
13566.9188153337
 30
0.0
 11
10702.0172794098
 21
13545.4188239168
 31
0.0
  0
LINE
  5
14D
330
1F
100
AcDbEntity
  8
0
  6
Continuous
 62
     7
 48
50.0
370
    25
100
AcDbLine
 10
9526.5172739262
 20
13559.4188820909
 30
0.0
 11
9507.5172801251
 21
13559.4188820909
 31
0.0
  0
LINE
  5
14E
330
1F
100
AcDbEntity
  8
0
  6
Continuous
 62
     7
 48
50.0
370
    25
100
AcDbLine
 10
9507.5172801251
 20
13552.9188763688
 30
0.0
 11
9526.5172739262
 21
13552.9188763688
 31
0.0
  0
LWPOLYLINE
  5
14F
330
1F
100
AcDbEntity
  8
0
  6
Continuous
 62
     7
 48
50.0
370
    25
100
AcDbPolyline
 90
       15
 70
   128
 43
0.0
 10
10670.5317218537
 20
13522.3931920122
 10
10670.6924755806
 20
13521.4700352739
 10
10671.2086518044
 20
13520.2418219636
 10
10672.0379908318
 20
13519.1498648713
 10
10673.1357295746
 20
13518.2529341768
 10
10674.4427402253
 20
13517.5994288515
 10
10675.8885700936
 20
13517.2245156358
 10
10677.3951966996
 20
13517.1485793184
 10
10678.8814981217
 20
13517.3755538057
 10
10680.2673061127
 20
13517.8931605409
 10
10681.4778764481
 20
13518.6737429689
 10
10682.4479420418
 20
13519.6749817918
 10
10683.125289225
 20
13520.8428752015
 10
10683.4733207459
 20
13522.1147191118
 10
10683.502825045
 20
13522.3931920122
  0
LWPOLYLINE
  5
150
330
1F
100
AcDbEntity
  8
0
  6
Continuous
 62
     7
 48
50.0
370
    25
100
AcDbPolyline
 90
       15
 70
   128
 43
0.0
 10
8350.5316694016
 20
13522.3931920122
 10
8350.5612333054
 20
13522.1147191118
 10
8350.9093244309
 20
13520.8428752015
 10
8351.5865524048
 20
13519.6749817918
 10
8352.5566776032
 20
13518.6737429689
 10
8353.7672479386
 20
13517.8931605409
 10
8355.1530559296
 20
13517.3755538057
 10
8356.6393573517
 20
13517.1485793184
 10
8358.1460435624
 20
13517.2245156358
 10
8359.591813826
 20
13517.5994288515
 10
8360.8988244767
 20
13518.2529341768
 10
8361.9966228241
 20
13519.1498648713
 10
8362.8258426422
 20
13520.2418219636
 10
8363.342018866
 20
13521.4700352739
 10
8363.5028321976
 20
13522.3931920122
  0
LINE
  5
151
330
1F
100
AcDbEntity
  8
0
  6
Continuous
 62
     7
 48
50.0
370
    25
100
AcDbLine
 10
9526.5172739262
 20
13558.1198584627
 30
0.0
 11
9507.5172801251
 21
13558.1198584627
 31
0.0
  0
LWPOLYLINE
  5
152
330
1F
100
AcDbEntity
  8
0
  6
Continuous
 62
     7
 48
50.0
370
    25
100
AcDbPolyline
 90
       15
 70
   128
 43
0.0
 10
10670.5317218537
 20
13479.0919673036
 10
10670.6924755806
 20
13478.1688105653
 10
10671.2086518044
 20
13476.9405972551
 10
10672.0379908318
 20
13475.8485209535
 10
10673.1357295746
 20
13474.9517094682
 10
10674.4427402253
 20
13474.2982041429
 10
10675.8885700936
 20
13473.9232909273
 10
10677.3951966996
 20
13473.8473546098
 10
10678.8814981217
 20
13474.0742098878
 10
10680.2673061127
 20
13474.5919358323
 10
10681.4778764481
 20
13475.372399051
 10
10682.4479420418
 20
13476.373637874
 10
10683.125289225
 20
13477.541650493
 10
10683.4733207459
 20
13478.8133751939
 10
10683.502825045
 20
13479.0919673036
  0
LWPOLYLINE
  5
153
330
1F
100
AcDbEntity
  8
0
  6
Continuous
 62
     7
 48
50.0
370
    25
100
AcDbPolyline
 90
       15
 70
   128
 43
0.0
 10
8350.5316694016
 20
13479.0919673036
 10
8350.5612333054
 20
13478.8133751939
 10
8350.9093244309
 20
13477.541650493
 10
8351.5865524048
 20
13476.373637874
 10
8352.5566776032
 20
13475.372399051
 10
8353.7672479386
 20
13474.5919358323
 10
8355.1530559296
 20
13474.0742098878
 10
8356.6393573517
 20
13473.8473546098
 10
8358.1460435624
 20
13473.9232909273
 10
8359.591813826
 20
13474.2982041429
 10
8360.8988244767
 20
13474.9517094682
 10
8361.9966228241
 20
13475.8485209535
 10
8362.8258426422
 20
13476.9405972551
 10
8363.342018866
 20
13478.1688105653
 10
8363.5028321976
 20
13479.0919673036
  0
LINE
  5
154
330
1F
100
AcDbEntity
  8
0
  6
Continuous
 62
     7
 48
50.0
370
    25
100
AcDbLine
 10
8332.0172746415
 20
13567.3877846788
 30
0.0
 11
8332.0172746415
 21
13566.9188153337
 31
0.0
  0
LINE
  5
155
330
1F
100
AcDbEntity
  8
0
  6
Continuous
 62
     7
 48
50.0
370
    25
100
AcDbLine
 10
10702.0172794098
 20
13567.3877846788
 30
0.0
 11
10702.0172794098
 21
13566.9188153337
 31
0.0
  0
LINE
  5
156
330
1F
100
AcDbEntity
  8
0
  6
Continuous
 62
     7
 48
50.0
370
    25
100
AcDbLine
 10
10702.0172794098
 20
13460.0973975252
 30
0.0
 11
10702.0172794098
 21
13458.3474051545
 31
0.0
  0
LINE
  5
157
330
1F
100
AcDbEntity
  8
0
  6
Continuous
 62
     7
 48
50.0
370
    25
100
AcDbLine
 10
8332.0172746415
 20
13458.3474051545
 30
0.0
 11
8332.0172746415
 21
13460.0973975252
 31
0.0
  0
LINE
  5
158
330
1F
100
AcDbEntity
  8
0
  6
Continuous
 62
     7
 48
50.0
370
    25
100
AcDbLine
 10
8332.0172746415
 20
12481.1377775262
 30
0.0
 11
8332.0172746415
 21
12485.9188448976
 31
0.0
  0
LINE
  5
159
330
1F
100
AcDbEntity
  8
0
  6
Continuous
 62
     7
 48
50.0
370
    25
100
AcDbLine
 10
10702.0172794098
 20
12485.9188448976
 30
0.0
 11
10702.0172794098
 21
12481.1377775262
 31
0.0
  0
LWPOLYLINE
  5
15A
330
1F
100
AcDbEntity
  8
0
  6
Continuous
 62
     7
 48
50.0
370
    25
100
AcDbPolyline
 90
       28
 70
   128
 43
0.0
 10
8363.5172565216
 20
12419.2169558595
 10
8363.342018866
 20
12420.5150854181
 10
8362.8258426422
 20
12421.7432987283
 10
8361.9966228241
 20
12422.8353154252
 10
8360.8988244767
 20
12423.7322461198
 10
8359.591813826
 20
12424.3857514451
 10
8358.1460435624
 20
12424.7606050561
 10
8356.6393573517
 20
12424.8366009782
 10
8355.1530559296
 20
12424.6096264909
 10
8353.7672479386
 20
12424.091960151
 10
8352.5566776032
 20
12423.3114373277
 10
8351.5865524048
 20
12422.3101985048
 10
8350.9093244309
 20
12421.1422454904
 10
8350.5612333054
 20
12419.8704611848
 10
8350.5612333054
 20
12418.5634505342
 10
8350.9093244309
 20
12417.2916662286
 10
8351.5865524048
 20
12416.1236536096
 10
8352.5566776032
 20
12415.1224147867
 10
8353.7672479386
 20
12414.341951568
 10
8355.1530559296
 20
12413.8242852281
 10
8356.6393573517
 20
12413.5973107408
 10
8358.1460435624
 20
12413.6733066629
 10
8359.591813826
 20
12414.0481602739
 10
8360.8988244767
 20
12414.7016655992
 10
8361.9966228241
 20
12415.5985962938
 10
8362.8258426422
 20
12416.6905533861
 10
8363.342018866
 20
12417.9187666963
 10
8363.5172565216
 20
12419.2169558595
  0
LWPOLYLINE
  5
15B
330
1F
100
AcDbEntity
  8
0
  6
Continuous
 62
     7
 48
50.0
370
    25
100
AcDbPolyline
 90
       28
 70
   128
 43
0.0
 10
10670.5172975296
 20
12462.5181805681
 10
10670.6924755806
 20
12461.2200510095
 10
10671.2086518044
 20
12459.9918376993
 10
10672.0379908318
 20
12458.8998210023
 10
10673.1357295746
 20
12458.0029499124
 10
10674.4427402253
 20
12457.3494445871
 10
10675.8885700936
 20
12456.9745909761
 10
10677.3951966996
 20
12456.898595054
 10
10678.8814981217
 20
12457.1255099367
 10
10680.2673061127
 20
12457.6432358812
 10
10681.4778764481
 20
12458.4236990999
 10
10682.4479420418
 20
12459.4249379228
 10
10683.125289225
 20
12460.5928909372
 10
10683.4733207459
 20
12461.8646752427
 10
10683.4733207459
 20
12463.1716858934
 10
10683.125289225
 20
12464.443470199
 10
10682.4479420418
 20
12465.611482818
 10
10681.4778764481
 20
12466.6127216409
 10
10680.2673061127
 20
12467.3931848596
 10
10678.8814981217
 20
12467.9109108041
 10
10677.3951966996
 20
12468.1378256868
 10
10675.8885700936
 20
12468.0618297647
 10
10674.4427402253
 20
12467.6869761537
 10
10673.1357295746
 20
12467.0334708284
 10
10672.0379908318
 20
12466.1365401338
 10
10671.2086518044
 20
12465.0445830415
 10
10670.6924755806
 20
12463.8163697313
 10
10670.5172975296
 20
12462.5181805681
  0
LWPOLYLINE
  5
15C
330
1F
100
AcDbEntity
  8
0
  6
Continuous
 62
     7
 48
50.0
370
    25
100
AcDbPolyline
 90
       28
 70
   128
 43
0.0
 10
10670.5172975296
 20
12419.2169558595
 10
10670.6924755806
 20
12417.9187666963
 10
10671.2086518044
 20
12416.6905533861
 10
10672.0379908318
 20
12415.5985962938
 10
10673.1357295746
 20
12414.7016655992
 10
10674.4427402253
 20
12414.0481602739
 10
10675.8885700936
 20
12413.6733066629
 10
10677.3951966996
 20
12413.5973107408
 10
10678.8814981217
 20
12413.8242852281
 10
10680.2673061127
 20
12414.341951568
 10
10681.4778764481
 20
12415.1224147867
 10
10682.4479420418
 20
12416.1236536096
 10
10683.125289225
 20
12417.2916662286
 10
10683.4733207459
 20
12418.5634505342
 10
10683.4733207459
 20
12419.8704611848
 10
10683.125289225
 20
12421.1422454904
 10
10682.4479420418
 20
12422.3101985048
 10
10681.4778764481
 20
12423.3114373277
 10
10680.2673061127
 20
12424.091960151
 10
10678.8814981217
 20
12424.6096264909
 10
10677.3951966996
 20
12424.8366009782
 10
10675.8885700936
 20
12424.7606050561
 10
10674.4427402253
 20
12424.3857514451
 10
10673.1357295746
 20
12423.7322461198
 10
10672.0379908318
 20
12422.8353154252
 10
10671.2086518044
 20
12421.7432987283
 10
10670.6924755806
 20
12420.5150854181
 10
10670.5172975296
 20
12419.2169558595
  0
LWPOLYLINE
  5
15D
330
1F
100
AcDbEntity
  8
0
  6
Continuous
 62
     7
 48
50.0
370
    25
100
AcDbPolyline
 90
       28
 70
   128
 43
0.0
 10
8363.5172565216
 20
12462.5181805681
 10
8363.342018866
 20
12463.8163697313
 10
8362.8258426422
 20
12465.0445830415
 10
8361.9966228241
 20
12466.1365401338
 10
8360.8988244767
 20
12467.0334708284
 10
8359.591813826
 20
12467.6869761537
 10
8358.1460435624
 20
12468.0618297647
 10
8356.6393573517
 20
12468.1378256868
 10
8355.1530559296
 20
12467.9109108041
 10
8353.7672479386
 20
12467.3931848596
 10
8352.5566776032
 20
12466.6127216409
 10
8351.5865524048
 20
12465.611482818
 10
8350.9093244309
 20
12464.443470199
 10
8350.5612333054
 20
12463.1716858934
 10
8350.5612333054
 20
12461.8646752427
 10
8350.9093244309
 20
12460.5928909372
 10
8351.5865524048
 20
12459.4249379228
 10
8352.5566776032
 20
12458.4236990999
 10
8353.7672479386
 20
12457.6432358812
 10
8355.1530559296
 20
12457.1255099367
 10
8356.6393573517
 20
12456.898595054
 10
8358.1460435624
 20
12456.9745909761
 10
8359.591813826
 20
12457.3494445871
 10
8360.8988244767
 20
12458.0029499124
 10
8361.9966228241
 20
12458.8998210023
 10
8362.8258426422
 20
12459.9918376993
 10
8363.342018866
 20
12461.2200510095
 10
8363.5172565216
 20
12462.5181805681
  0
LINE
  5
15E
330
1F
100
AcDbEntity
  8
0
  6
Continuous
 62
     7
 48
50.0
370
    25
100
AcDbLine
 10
8332.0172746415
 20
12481.1377775262
 30
0.0
 11
8332.0172746415
 21
12400.597418506
 31
0.0
  0
LINE
  5
15F
330
1F
100
AcDbEntity
  8
0
  6
Continuous
 62
     7
 48
50.0
370
    25
100
AcDbLine
 10
10702.0172794098
 20
12481.1377775262
 30
0.0
 11
10702.0172794098
 21
12400.597418506
 31
0.0
  0
LINE
  5
160
330
1F
100
AcDbEntity
  8
0
  6
Continuous
 62
     7
 48
50.0
370
    25
100
AcDbLine
 10
8332.0172746415
 20
12507.4188363145
 30
0.0
 11
8332.0172746415
 21
12485.9188448976
 31
0.0
  0
LINE
  5
161
330
1F
100
AcDbEntity
  8
0
  6
Continuous
 62
     7
 48
50.0
370
    25
100
AcDbLine
 10
10702.0172794098
 20
12507.4188363145
 30
0.0
 11
10702.0172794098
 21
12485.9188448976
 31
0.0
  0
LINE
  5
162
330
1F
100
AcDbEntity
  8
0
  6
Continuous
 62
     7
 48
50.0
370
    25
100
AcDbLine
 10
9526.6172905201
 20
12499.9188434671
 30
0.0
 11
9507.4172933335
 21
12499.9188434671
 31
0.0
  0
LINE
  5
163
330
1F
100
AcDbEntity
  8
0
  6
Continuous
 62
     7
 48
50.0
370
    25
100
AcDbLine
 10
9507.4172933335
 20
12493.418837745
 30
0.0
 11
9526.6172905201
 21
12493.418837745
 31
0.0
  0
LWPOLYLINE
  5
164
330
1F
100
AcDbEntity
  8
0
  6
Continuous
 62
     7
 48
50.0
370
    25
100
AcDbPolyline
 90
       15
 70
   128
 43
0.0
 10
10670.5317218537
 20
12462.893212993
 10
10670.6924755806
 20
12461.9700562547
 10
10671.2086518044
 20
12460.7418429445
 10
10672.0379908318
 20
12459.6498262475
 10
10673.1357295746
 20
12458.752895553
 10
10674.4427402253
 20
12458.0993902276
 10
10675.8885700936
 20
12457.7245366166
 10
10677.3951966996
 20
12457.6485406946
 10
10678.8814981217
 20
12457.8755151819
 10
10680.2673061127
 20
12458.3931815217
 10
10681.4778764481
 20
12459.1737043451
 10
10682.4479420418
 20
12460.174943168
 10
10683.125289225
 20
12461.3428961824
 10
10683.4733207459
 20
12462.614680488
 10
10683.502825045
 20
12462.893212993
  0
LWPOLYLINE
  5
165
330
1F
100
AcDbEntity
  8
0
  6
Continuous
 62
     7
 48
50.0
370
    25
100
AcDbPolyline
 90
       15
 70
   128
 43
0.0
 10
8350.5316694016
 20
12462.893212993
 10
8350.5612333054
 20
12462.614680488
 10
8350.9093244309
 20
12461.3428961824
 10
8351.5865524048
 20
12460.174943168
 10
8352.5566776032
 20
12459.1737043451
 10
8353.7672479386
 20
12458.3931815217
 10
8355.1530559296
 20
12457.8755151819
 10
8356.6393573517
 20
12457.6485406946
 10
8358.1460435624
 20
12457.7245366166
 10
8359.591813826
 20
12458.0993902276
 10
8360.8988244767
 20
12458.752895553
 10
8361.9966228241
 20
12459.6498262475
 10
8362.8258426422
 20
12460.7418429445
 10
8363.342018866
 20
12461.9700562547
 10
8363.5028321976
 20
12462.893212993
  0
LINE
  5
166
330
1F
100
AcDbEntity
  8
0
  6
Continuous
 62
     7
 48
50.0
370
    25
100
AcDbLine
 10
9526.6172905201
 20
12498.6198198388
 30
0.0
 11
9507.4172933335
 21
12498.6198198388
 31
0.0
  0
LWPOLYLINE
  5
167
330
1F
100
AcDbEntity
  8
0
  6
Continuous
 62
     7
 48
50.0
370
    25
100
AcDbPolyline
 90
       15
 70
   128
 43
0.0
 10
10670.5317218537
 20
12419.5919286798
 10
10670.6924755806
 20
12418.6687719415
 10
10671.2086518044
 20
12417.4405586313
 10
10672.0379908318
 20
12416.348601539
 10
10673.1357295746
 20
12415.4516708444
 10
10674.4427402253
 20
12414.7981655191
 10
10675.8885700936
 20
12414.4233119081
 10
10677.3951966996
 20
12414.347315986
 10
10678.8814981217
 20
12414.5742308687
 10
10680.2673061127
 20
12415.0919568132
 10
10681.4778764481
 20
12415.8724200319
 10
10682.4479420418
 20
12416.8736588548
 10
10683.125289225
 20
12418.0416714738
 10
10683.4733207459
 20
12419.3134557794
 10
10683.502825045
 20
12419.5919286798
  0
LWPOLYLINE
  5
168
330
1F
100
AcDbEntity
  8
0
  6
Continuous
 62
     7
 48
50.0
370
    25
100
AcDbPolyline
 90
       15
 70
   128
 43
0.0
 10
8350.5316694016
 20
12419.5919286798
 10
8350.5612333054
 20
12419.3134557794
 10
8350.9093244309
 20
12418.0416714738
 10
8351.5865524048
 20
12416.8736588548
 10
8352.5566776032
 20
12415.8724200319
 10
8353.7672479386
 20
12415.0919568132
 10
8355.1530559296
 20
12414.5742308687
 10
8356.6393573517
 20
12414.347315986
 10
8358.1460435624
 20
12414.4233119081
 10
8359.591813826
 20
12414.7981655191
 10
8360.8988244767
 20
12415.4516708444
 10
8361.9966228241
 20
12416.348601539
 10
8362.8258426422
 20
12417.4405586313
 10
8363.342018866
 20
12418.6687719415
 10
8363.5028321976
 20
12419.5919286798
  0
LINE
  5
169
330
1F
100
AcDbEntity
  8
0
  6
Continuous
 62
     7
 48
50.0
370
    25
100
AcDbLine
 10
8332.0172746415
 20
12507.887746055
 30
0.0
 11
8332.0172746415
 21
12507.4188363145
 31
0.0
  0
LINE
  5
16A
330
1F
100
AcDbEntity
  8
0
  6
Continuous
 62
     7
 48
50.0
370
    25
100
AcDbLine
 10
10702.0172794098
 20
12507.887746055
 30
0.0
 11
10702.0172794098
 21
12507.4188363145
 31
0.0
  0
LINE
  5
16B
330
1F
100
AcDbEntity
  8
0
  6
Continuous
 62
     7
 48
50.0
370
    25
100
AcDbLine
 10
10702.0172794098
 20
12400.597418506
 30
0.0
 11
10702.0172794098
 21
12398.8473665307
 31
0.0
  0
LINE
  5
16C
330
1F
100
AcDbEntity
  8
0
  6
Continuous
 62
     7
 48
50.0
370
    25
100
AcDbLine
 10
8332.0172746415
 20
12398.8473665307
 30
0.0
 11
8332.0172746415
 21
12400.597418506
 31
0.0
  0
LINE
  5
16D
330
1F
100
AcDbEntity
  8
0
  6
Continuous
 62
     7
 48
50.0
370
    25
100
AcDbLine
 10
8332.0172746415
 20
13161.6377484392
 30
0.0
 11
8332.0172746415
 21
13166.4188754152
 31
0.0
  0
LINE
  5
16E
330
1F
100
AcDbEntity
  8
0
  6
Continuous
 62
     7
 48
50.0
370
    25
100
AcDbLine
 10
10702.0172794098
 20
13166.4188754152
 30
0.0
 11
10702.0172794098
 21
13161.6377484392
 31
0.0
  0
LWPOLYLINE
  5
16F
330
1F
100
AcDbEntity
  8
0
  6
Continuous
 62
     7
 48
50.0
370
    25
100
AcDbPolyline
 90
       28
 70
   128
 43
0.0
 10
8363.5172565216
 20
13099.7169863771
 10
8363.342018866
 20
13101.015056331
 10
8362.8258426422
 20
13102.2432696412
 10
8361.9966228241
 20
13103.3353459428
 10
8360.8988244767
 20
13104.2322766374
 10
8359.591813826
 20
13104.8857819627
 10
8358.1460435624
 20
13105.2605759691
 10
8356.6393573517
 20
13105.3366314958
 10
8355.1530559296
 20
13105.1096570085
 10
8353.7672479386
 20
13104.591931064
 10
8352.5566776032
 20
13103.8114678453
 10
8351.5865524048
 20
13102.8102290223
 10
8350.9093244309
 20
13101.6422164033
 10
8350.5612333054
 20
13100.3704917024
 10
8350.5612333054
 20
13099.0634810518
 10
8350.9093244309
 20
13097.7916371416
 10
8351.5865524048
 20
13096.6236245225
 10
8352.5566776032
 20
13095.6223856996
 10
8353.7672479386
 20
13094.8419224809
 10
8355.1530559296
 20
13094.3241965364
 10
8356.6393573517
 20
13094.0973412584
 10
8358.1460435624
 20
13094.1732775758
 10
8359.591813826
 20
13094.5481907915
 10
8360.8988244767
 20
13095.2016961168
 10
8361.9966228241
 20
13096.0986268114
 10
8362.8258426422
 20
13097.1905839036
 10
8363.342018866
 20
13098.4187972139
 10
8363.5172565216
 20
13099.7169863771
  0
LWPOLYLINE
  5
170
330
1F
100
AcDbEntity
  8
0
  6
Continuous
 62
     7
 48
50.0
370
    25
100
AcDbPolyline
 90
       28
 70
   128
 43
0.0
 10
10670.5172975296
 20
13143.0182110856
 10
10670.6924755806
 20
13141.7200219224
 10
10671.2086518044
 20
13140.4918086122
 10
10672.0379908318
 20
13139.3998515199
 10
10673.1357295746
 20
13138.5029208253
 10
10674.4427402253
 20
13137.8494155
 10
10675.8885700936
 20
13137.4745022844
 10
10677.3951966996
 20
13137.3985659669
 10
10678.8814981217
 20
13137.6255404542
 10
10680.2673061127
 20
13138.1432663988
 10
10681.4778764481
 20
13138.9237296174
 10
10682.4479420418
 20
13139.9249684404
 10
10683.125289225
 20
13141.0928618501
 10
10683.4733207459
 20
13142.3647057603
 10
10683.4733207459
 20
13143.671716411
 10
10683.125289225
 20
13144.9434411119
 10
10682.4479420418
 20
13146.1114537309
 10
10681.4778764481
 20
13147.1126925538
 10
10680.2673061127
 20
13147.8931557725
 10
10678.8814981217
 20
13148.4108817171
 10
10677.3951966996
 20
13148.6378562044
 10
10675.8885700936
 20
13148.5618006776
 10
10674.4427402253
 20
13148.1870066713
 10
10673.1357295746
 20
13147.533501346
 10
10672.0379908318
 20
13146.6365706514
 10
10671.2086518044
 20
13145.5446135591
 10
10670.6924755806
 20
13144.3164002489
 10
10670.5172975296
 20
13143.0182110856
  0
LWPOLYLINE
  5
171
330
1F
100
AcDbEntity
  8
0
  6
Continuous
 62
     7
 48
50.0
370
    25
100
AcDbPolyline
 90
       28
 70
   128
 43
0.0
 10
10670.5172975296
 20
13099.7169863771
 10
10670.6924755806
 20
13098.4187972139
 10
10671.2086518044
 20
13097.1905839036
 10
10672.0379908318
 20
13096.0986268114
 10
10673.1357295746
 20
13095.2016961168
 10
10674.4427402253
 20
13094.5481907915
 10
10675.8885700936
 20
13094.1732775758
 10
10677.3951966996
 20
13094.0973412584
 10
10678.8814981217
 20
13094.3241965364
 10
10680.2673061127
 20
13094.8419224809
 10
10681.4778764481
 20
13095.6223856996
 10
10682.4479420418
 20
13096.6236245225
 10
10683.125289225
 20
13097.7916371416
 10
10683.4733207459
 20
13099.0634810518
 10
10683.4733207459
 20
13100.3704917024
 10
10683.125289225
 20
13101.6422164033
 10
10682.4479420418
 20
13102.8102290223
 10
10681.4778764481
 20
13103.8114678453
 10
10680.2673061127
 20
13104.591931064
 10
10678.8814981217
 20
13105.1096570085
 10
10677.3951966996
 20
13105.3366314958
 10
10675.8885700936
 20
13105.2605759691
 10
10674.4427402253
 20
13104.8857819627
 10
10673.1357295746
 20
13104.2322766374
 10
10672.0379908318
 20
13103.3353459428
 10
10671.2086518044
 20
13102.2432696412
 10
10670.6924755806
 20
13101.015056331
 10
10670.5172975296
 20
13099.7169863771
  0
LWPOLYLINE
  5
172
330
1F
100
AcDbEntity
  8
0
  6
Continuous
 62
     7
 48
50.0
370
    25
100
AcDbPolyline
 90
       28
 70
   128
 43
0.0
 10
8363.5172565216
 20
13143.0182110856
 10
8363.342018866
 20
13144.3164002489
 10
8362.8258426422
 20
13145.5446135591
 10
8361.9966228241
 20
13146.6365706514
 10
8360.8988244767
 20
13147.533501346
 10
8359.591813826
 20
13148.1870066713
 10
8358.1460435624
 20
13148.5618006776
 10
8356.6393573517
 20
13148.6378562044
 10
8355.1530559296
 20
13148.4108817171
 10
8353.7672479386
 20
13147.8931557725
 10
8352.5566776032
 20
13147.1126925538
 10
8351.5865524048
 20
13146.1114537309
 10
8350.9093244309
 20
13144.9434411119
 10
8350.5612333054
 20
13143.671716411
 10
8350.5612333054
 20
13142.3647057603
 10
8350.9093244309
 20
13141.0928618501
 10
8351.5865524048
 20
13139.9249684404
 10
8352.5566776032
 20
13138.9237296174
 10
8353.7672479386
 20
13138.1432663988
 10
8355.1530559296
 20
13137.6255404542
 10
8356.6393573517
 20
13137.3985659669
 10
8358.1460435624
 20
13137.4745022844
 10
8359.591813826
 20
13137.8494155
 10
8360.8988244767
 20
13138.5029208253
 10
8361.9966228241
 20
13139.3998515199
 10
8362.8258426422
 20
13140.4918086122
 10
8363.342018866
 20
13141.7200219224
 10
8363.5172565216
 20
13143.0182110856
  0
LINE
  5
173
330
1F
100
AcDbEntity
  8
0
  6
Continuous
 62
     7
 48
50.0
370
    25
100
AcDbLine
 10
8332.0172746415
 20
13161.6377484392
 30
0.0
 11
8332.0172746415
 21
13081.0974490236
 31
0.0
  0
LINE
  5
174
330
1F
100
AcDbEntity
  8
0
  6
Continuous
 62
     7
 48
50.0
370
    25
100
AcDbLine
 10
10702.0172794098
 20
13161.6377484392
 30
0.0
 11
10702.0172794098
 21
13081.0974490236
 31
0.0
  0
LINE
  5
175
330
1F
100
AcDbEntity
  8
0
  6
Continuous
 62
     7
 48
50.0
370
    25
100
AcDbLine
 10
8332.0172746415
 20
13187.9188668321
 30
0.0
 11
8332.0172746415
 21
13166.4188754152
 31
0.0
  0
LINE
  5
176
330
1F
100
AcDbEntity
  8
0
  6
Continuous
 62
     7
 48
50.0
370
    25
100
AcDbLine
 10
10702.0172794098
 20
13187.9188668321
 30
0.0
 11
10702.0172794098
 21
13166.4188754152
 31
0.0
  0
LINE
  5
177
330
1F
100
AcDbEntity
  8
0
  6
Continuous
 62
     7
 48
50.0
370
    25
100
AcDbLine
 10
9526.6172905201
 20
13180.41881438
 30
0.0
 11
9507.4172933335
 21
13180.41881438
 31
0.0
  0
LINE
  5
178
330
1F
100
AcDbEntity
  8
0
  6
Continuous
 62
     7
 48
50.0
370
    25
100
AcDbLine
 10
9507.4172933335
 20
13173.918808658
 30
0.0
 11
9526.6172905201
 21
13173.918808658
 31
0.0
  0
LWPOLYLINE
  5
179
330
1F
100
AcDbEntity
  8
0
  6
Continuous
 62
     7
 48
50.0
370
    25
100
AcDbPolyline
 90
       15
 70
   128
 43
0.0
 10
10670.5317218537
 20
13143.3932435106
 10
10670.6924755806
 20
13142.4700867723
 10
10671.2086518044
 20
13141.241873462
 10
10672.0379908318
 20
13140.1497971605
 10
10673.1357295746
 20
13139.2528664659
 10
10674.4427402253
 20
13138.5993611406
 10
10675.8885700936
 20
13138.2245671342
 10
10677.3951966996
 20
13138.1485116075
 10
10678.8814981217
 20
13138.3754860948
 10
10680.2673061127
 20
13138.8932120393
 10
10681.4778764481
 20
13139.673675258
 10
10682.4479420418
 20
13140.6749140809
 10
10683.125289225
 20
13141.8429267
 10
10683.4733207459
 20
13143.1146514009
 10
10683.502825045
 20
13143.3932435106
  0
LWPOLYLINE
  5
17A
330
1F
100
AcDbEntity
  8
0
  6
Continuous
 62
     7
 48
50.0
370
    25
100
AcDbPolyline
 90
       15
 70
   128
 43
0.0
 10
8350.5316694016
 20
13143.3932435106
 10
8350.5612333054
 20
13143.1146514009
 10
8350.9093244309
 20
13141.8429267
 10
8351.5865524048
 20
13140.6749140809
 10
8352.5566776032
 20
13139.673675258
 10
8353.7672479386
 20
13138.8932120393
 10
8355.1530559296
 20
13138.3754860948
 10
8356.6393573517
 20
13138.1485116075
 10
8358.1460435624
 20
13138.2245671342
 10
8359.591813826
 20
13138.5993611406
 10
8360.8988244767
 20
13139.2528664659
 10
8361.9966228241
 20
13140.1497971605
 10
8362.8258426422
 20
13141.241873462
 10
8363.342018866
 20
13142.4700867723
 10
8363.5028321976
 20
13143.3932435106
  0
LINE
  5
17B
330
1F
100
AcDbEntity
  8
0
  6
Continuous
 62
     7
 48
50.0
370
    25
100
AcDbLine
 10
9526.6172905201
 20
13179.1197907518
 30
0.0
 11
9507.4172933335
 21
13179.1197907518
 31
0.0
  0
LWPOLYLINE
  5
17C
330
1F
100
AcDbEntity
  8
0
  6
Continuous
 62
     7
 48
50.0
370
    25
100
AcDbPolyline
 90
       15
 70
   128
 43
0.0
 10
10670.5317218537
 20
13100.0918995927
 10
10670.6924755806
 20
13099.1687428544
 10
10671.2086518044
 20
13097.9405295442
 10
10672.0379908318
 20
13096.8485724519
 10
10673.1357295746
 20
13095.9516417573
 10
10674.4427402253
 20
13095.298136432
 10
10675.8885700936
 20
13094.9233424257
 10
10677.3951966996
 20
13094.8472868989
 10
10678.8814981217
 20
13095.0742613862
 10
10680.2673061127
 20
13095.5919873308
 10
10681.4778764481
 20
13096.3724505494
 10
10682.4479420418
 20
13097.3736893724
 10
10683.125289225
 20
13098.5417019914
 10
10683.4733207459
 20
13099.8134266923
 10
10683.502825045
 20
13100.0918995927
  0
LWPOLYLINE
  5
17D
330
1F
100
AcDbEntity
  8
0
  6
Continuous
 62
     7
 48
50.0
370
    25
100
AcDbPolyline
 90
       15
 70
   128
 43
0.0
 10
8350.5316694016
 20
13100.0918995927
 10
8350.5612333054
 20
13099.8134266923
 10
8350.9093244309
 20
13098.5417019914
 10
8351.5865524048
 20
13097.3736893724
 10
8352.5566776032
 20
13096.3724505494
 10
8353.7672479386
 20
13095.5919873308
 10
8355.1530559296
 20
13095.0742613862
 10
8356.6393573517
 20
13094.8472868989
 10
8358.1460435624
 20
13094.9233424257
 10
8359.591813826
 20
13095.298136432
 10
8360.8988244767
 20
13095.9516417573
 10
8361.9966228241
 20
13096.8485724519
 10
8362.8258426422
 20
13097.9405295442
 10
8363.342018866
 20
13099.1687428544
 10
8363.5028321976
 20
13100.0918995927
  0
LINE
  5
17E
330
1F
100
AcDbEntity
  8
0
  6
Continuous
 62
     7
 48
50.0
370
    25
100
AcDbLine
 10
8332.0172746415
 20
13188.3877169679
 30
0.0
 11
8332.0172746415
 21
13187.9188668321
 31
0.0
  0
LINE
  5
17F
330
1F
100
AcDbEntity
  8
0
  6
Continuous
 62
     7
 48
50.0
370
    25
100
AcDbLine
 10
10702.0172794098
 20
13188.3877169679
 30
0.0
 11
10702.0172794098
 21
13187.9188668321
 31
0.0
  0
LINE
  5
180
330
1F
100
AcDbEntity
  8
0
  6
Continuous
 62
     7
 48
50.0
370
    25
100
AcDbLine
 10
10702.0172794098
 20
13081.0974490236
 30
0.0
 11
10702.0172794098
 21
13079.3473374437
 31
0.0
  0
LINE
  5
181
330
1F
100
AcDbEntity
  8
0
  6
Continuous
 62
     7
 48
50.0
370
    25
100
AcDbLine
 10
8332.0172746415
 20
13079.3473374437
 30
0.0
 11
8332.0172746415
 21
13081.0974490236
 31
0.0
  0
LINE
  5
182
330
1F
100
AcDbEntity
  8
0
  6
Continuous
 62
     7
 48
50.0
370
    25
100
AcDbLine
 10
10542.0172531838
 20
12244.6688663553
 30
0.0
 11
10542.0172531838
 21
10240.2698647569
 31
0.0
  0
LINE
  5
183
330
1F
100
AcDbEntity
  8
0
  6
Continuous
 62
     7
 48
50.0
370
    25
100
AcDbLine
 10
10542.0172531838
 20
10240.2698647569
 30
0.0
 11
10537.5172813172
 21
10240.2698647569
 31
0.0
  0
LINE
  5
184
330
1F
100
AcDbEntity
  8
0
  6
Continuous
 62
     7
 48
50.0
370
    25
100
AcDbLine
 10
10537.5172813172
 20
10240.2698647569
 30
0.0
 11
10486.5172822708
 21
10240.2698647569
 31
0.0
  0
LINE
  5
185
330
1F
100
AcDbEntity
  8
0
  6
Continuous
 62
     7
 48
50.0
370
    25
100
AcDbLine
 10
10482.0172507996
 20
12244.6688663553
 30
0.0
 11
10482.0172507996
 21
10240.2698647569
 31
0.0
  0
LINE
  5
186
330
1F
100
AcDbEntity
  8
0
  6
Continuous
 62
     7
 48
50.0
370
    25
100
AcDbLine
 10
10486.5172822708
 20
10240.2698647569
 30
0.0
 11
10482.0172507996
 21
10240.2698647569
 31
0.0
  0
LINE
  5
187
330
1F
100
AcDbEntity
  8
0
  6
Continuous
 62
     7
 48
50.0
370
    25
100
AcDbLine
 10
8667.5172765488
 20
10240.2698647569
 30
0.0
 11
8616.5172775025
 21
10240.2698647569
 31
0.0
  0
LINE
  5
188
330
1F
100
AcDbEntity
  8
0
  6
Continuous
 62
     7
 48
50.0
370
    25
100
AcDbLine
 10
8672.0173080201
 20
12244.6688663553
 30
0.0
 11
8672.0173080201
 21
10240.2698647569
 31
0.0
  0
LINE
  5
189
330
1F
100
AcDbEntity
  8
0
  6
Continuous
 62
     7
 48
50.0
370
    25
100
AcDbLine
 10
8672.0173080201
 20
10240.2698647569
 30
0.0
 11
8667.5172765488
 21
10240.2698647569
 31
0.0
  0
LINE
  5
18A
330
1F
100
AcDbEntity
  8
0
  6
Continuous
 62
     7
 48
50.0
370
    25
100
AcDbLine
 10
8612.0172460312
 20
12244.6688663553
 30
0.0
 11
8612.0172460312
 21
10240.2698647569
 31
0.0
  0
LINE
  5
18B
330
1F
100
AcDbEntity
  8
0
  6
Continuous
 62
     7
 48
50.0
370
    25
100
AcDbLine
 10
8616.5172775025
 20
10240.2698647569
 30
0.0
 11
8612.0172460312
 21
10240.2698647569
 31
0.0
  0
LINE
  5
18C
330
1F
100
AcDbEntity
  8
0
  6
Continuous
 62
     8
 48
50.0
370
    25
100
AcDbLine
 10
8332.0172746415
 20
14225.9188544343
 30
0.0
 11
8367.5173242325
 21
14225.9188544343
 31
0.0
  0
LINE
  5
18D
330
1F
100
AcDbEntity
  8
0
  6
Continuous
 62
     8
 48
50.0
370
    25
100
AcDbLine
 10
8332.0172746415
 20
14221.1378466676
 30
0.0
 11
8367.5173242325
 21
14221.1378466676
 31
0.0
  0
LINE
  5
18E
330
1F
100
AcDbEntity
  8
0
  6
Continuous
 62
     8
 48
50.0
370
    25
100
AcDbLine
 10
9507.5172801251
 20
14225.9188544343
 30
0.0
 11
9526.5172739262
 21
14225.9188544343
 31
0.0
  0
LINE
  5
18F
330
1F
100
AcDbEntity
  8
0
  6
Continuous
 62
     8
 48
50.0
370
    25
100
AcDbLine
 10
9507.5172801251
 20
14221.1378466676
 30
0.0
 11
9526.5172739262
 21
14221.1378466676
 31
0.0
  0
LINE
  5
190
330
1F
100
AcDbEntity
  8
0
  6
Continuous
 62
     8
 48
50.0
370
    25
100
AcDbLine
 10
10666.5172894234
 20
14221.1378466676
 30
0.0
 11
10702.0172794098
 21
14221.1378466676
 31
0.0
  0
LINE
  5
191
330
1F
100
AcDbEntity
  8
0
  6
Continuous
 62
     8
 48
50.0
370
    25
100
AcDbLine
 10
10666.5172894234
 20
14225.9188544343
 30
0.0
 11
10702.0172794098
 21
14225.9188544343
 31
0.0
  0
LINE
  5
192
330
1F
100
AcDbEntity
  8
0
  6
Continuous
 62
     8
 48
50.0
370
    25
100
AcDbLine
 10
8332.0172746415
 20
14140.5974280427
 30
0.0
 11
8367.5173242325
 21
14140.5974280427
 31
0.0
  0
LINE
  5
193
330
1F
100
AcDbEntity
  8
0
  6
Continuous
 62
     8
 48
50.0
370
    25
100
AcDbLine
 10
10666.5172894234
 20
14140.5974280427
 30
0.0
 11
10702.0172794098
 21
14140.5974280427
 31
0.0
  0
LINE
  5
194
330
1F
100
AcDbEntity
  8
0
  6
Continuous
 62
     8
 48
50.0
370
    25
100
AcDbLine
 10
9507.5172801251
 20
14140.5974280427
 30
0.0
 11
9526.5172739262
 21
14140.5974280427
 31
0.0
  0
LINE
  5
195
330
1F
100
AcDbEntity
  8
0
  6
Continuous
 62
     8
 48
50.0
370
    25
100
AcDbLine
 10
8332.0172746415
 20
14247.418726642
 30
0.0
 11
8367.5173242325
 21
14247.418726642
 31
0.0
  0
LINE
  5
196
330
1F
100
AcDbEntity
  8
0
  6
Continuous
 62
     8
 48
50.0
370
    25
100
AcDbLine
 10
9507.5172801251
 20
14247.418726642
 30
0.0
 11
9526.5172739262
 21
14247.418726642
 31
0.0
  0
LINE
  5
197
330
1F
100
AcDbEntity
  8
0
  6
Continuous
 62
     8
 48
50.0
370
    25
100
AcDbLine
 10
10666.5172894234
 20
14247.418726642
 30
0.0
 11
10702.0172794098
 21
14247.418726642
 31
0.0
  0
LINE
  5
198
330
1F
100
AcDbEntity
  8
0
  6
Continuous
 62
     8
 48
50.0
370
    25
100
AcDbLine
 10
8351.4451701874
 20
14162.1154200624
 30
0.0
 11
8362.5894506211
 21
14162.1154200624
 31
0.0
  0
LINE
  5
199
330
1F
100
AcDbEntity
  8
0
  6
Continuous
 62
     8
 48
50.0
370
    25
100
AcDbLine
 10
10671.4451034302
 20
14162.1154200624
 30
0.0
 11
10682.5894434685
 21
14162.1154200624
 31
0.0
  0
LINE
  5
19A
330
1F
100
AcDbEntity
  8
0
  6
Continuous
 62
     8
 48
50.0
370
    25
100
AcDbLine
 10
8332.0172746415
 20
13545.4188239168
 30
0.0
 11
8367.5173242325
 21
13545.4188239168
 31
0.0
  0
LINE
  5
19B
330
1F
100
AcDbEntity
  8
0
  6
Continuous
 62
     8
 48
50.0
370
    25
100
AcDbLine
 10
8332.0172746415
 20
13540.6376969407
 30
0.0
 11
8367.5173242325
 21
13540.6376969407
 31
0.0
  0
LINE
  5
19C
330
1F
100
AcDbEntity
  8
0
  6
Continuous
 62
     8
 48
50.0
370
    25
100
AcDbLine
 10
9507.5172801251
 20
13545.4188239168
 30
0.0
 11
9526.5172739262
 21
13545.4188239168
 31
0.0
  0
LINE
  5
19D
330
1F
100
AcDbEntity
  8
0
  6
Continuous
 62
     8
 48
50.0
370
    25
100
AcDbLine
 10
9507.5172801251
 20
13540.6376969407
 30
0.0
 11
9526.5172739262
 21
13540.6376969407
 31
0.0
  0
LINE
  5
19E
330
1F
100
AcDbEntity
  8
0
  6
Continuous
 62
     8
 48
50.0
370
    25
100
AcDbLine
 10
10666.5172894234
 20
13540.6376969407
 30
0.0
 11
10702.0172794098
 21
13540.6376969407
 31
0.0
  0
LINE
  5
19F
330
1F
100
AcDbEntity
  8
0
  6
Continuous
 62
     8
 48
50.0
370
    25
100
AcDbLine
 10
10666.5172894234
 20
13545.4188239168
 30
0.0
 11
10702.0172794098
 21
13545.4188239168
 31
0.0
  0
LINE
  5
1A0
330
1F
100
AcDbEntity
  8
0
  6
Continuous
 62
     8
 48
50.0
370
    25
100
AcDbLine
 10
8332.0172746415
 20
13460.0973975252
 30
0.0
 11
8367.5173242325
 21
13460.0973975252
 31
0.0
  0
LINE
  5
1A1
330
1F
100
AcDbEntity
  8
0
  6
Continuous
 62
     8
 48
50.0
370
    25
100
AcDbLine
 10
10666.5172894234
 20
13460.0973975252
 30
0.0
 11
10702.0172794098
 21
13460.0973975252
 31
0.0
  0
LINE
  5
1A2
330
1F
100
AcDbEntity
  8
0
  6
Continuous
 62
     8
 48
50.0
370
    25
100
AcDbLine
 10
9507.5172801251
 20
13460.0973975252
 30
0.0
 11
9526.5172739262
 21
13460.0973975252
 31
0.0
  0
LINE
  5
1A3
330
1F
100
AcDbEntity
  8
0
  6
Continuous
 62
     8
 48
50.0
370
    25
100
AcDbLine
 10
8332.0172746415
 20
13566.9188153337
 30
0.0
 11
8367.5173242325
 21
13566.9188153337
 31
0.0
  0
LINE
  5
1A4
330
1F
100
AcDbEntity
  8
0
  6
Continuous
 62
     8
 48
50.0
370
    25
100
AcDbLine
 10
9507.5172801251
 20
13566.9188153337
 30
0.0
 11
9526.5172739262
 21
13566.9188153337
 31
0.0
  0
LINE
  5
1A5
330
1F
100
AcDbEntity
  8
0
  6
Continuous
 62
     8
 48
50.0
370
    25
100
AcDbLine
 10
10666.5172894234
 20
13566.9188153337
 30
0.0
 11
10702.0172794098
 21
13566.9188153337
 31
0.0
  0
LINE
  5
1A6
330
1F
100
AcDbEntity
  8
0
  6
Continuous
 62
     8
 48
50.0
370
    25
100
AcDbLine
 10
8351.4451701874
 20
13481.6153895448
 30
0.0
 11
8362.5894506211
 21
13481.6153895448
 31
0.0
  0
LINE
  5
1A7
330
1F
100
AcDbEntity
  8
0
  6
Continuous
 62
     8
 48
50.0
370
    25
100
AcDbLine
 10
10671.4451034302
 20
13481.6153895448
 30
0.0
 11
10682.5894434685
 21
13481.6153895448
 31
0.0
  0
LINE
  5
1A8
330
1F
100
AcDbEntity
  8
0
  6
Continuous
 62
     8
 48
50.0
370
    25
100
AcDbLine
 10
8332.0172746415
 20
12485.9188448976
 30
0.0
 11
8367.6172216172
 21
12485.9188448976
 31
0.0
  0
LINE
  5
1A9
330
1F
100
AcDbEntity
  8
0
  6
Continuous
 62
     8
 48
50.0
370
    25
100
AcDbLine
 10
8332.0172746415
 20
12481.1377775262
 30
0.0
 11
8367.6172216172
 21
12481.1377775262
 31
0.0
  0
LINE
  5
1AA
330
1F
100
AcDbEntity
  8
0
  6
Continuous
 62
     8
 48
50.0
370
    25
100
AcDbLine
 10
9507.4172933335
 20
12485.9188448976
 30
0.0
 11
9526.6172905201
 21
12485.9188448976
 31
0.0
  0
LINE
  5
1AB
330
1F
100
AcDbEntity
  8
0
  6
Continuous
 62
     8
 48
50.0
370
    25
100
AcDbLine
 10
9507.4172933335
 20
12481.1377775262
 30
0.0
 11
9526.6172905201
 21
12481.1377775262
 31
0.0
  0
LINE
  5
1AC
330
1F
100
AcDbEntity
  8
0
  6
Continuous
 62
     8
 48
50.0
370
    25
100
AcDbLine
 10
10666.4172728295
 20
12481.1377775262
 30
0.0
 11
10702.0172794098
 21
12481.1377775262
 31
0.0
  0
LINE
  5
1AD
330
1F
100
AcDbEntity
  8
0
  6
Continuous
 62
     8
 48
50.0
370
    25
100
AcDbLine
 10
10666.4172728295
 20
12485.9188448976
 30
0.0
 11
10702.0172794098
 21
12485.9188448976
 31
0.0
  0
LINE
  5
1AE
330
1F
100
AcDbEntity
  8
0
  6
Continuous
 62
     8
 48
50.0
370
    25
100
AcDbLine
 10
8332.0172746415
 20
12400.597418506
 30
0.0
 11
8367.5173242325
 21
12400.597418506
 31
0.0
  0
LINE
  5
1AF
330
1F
100
AcDbEntity
  8
0
  6
Continuous
 62
     8
 48
50.0
370
    25
100
AcDbLine
 10
10666.5172894234
 20
12400.597418506
 30
0.0
 11
10702.0172794098
 21
12400.597418506
 31
0.0
  0
LINE
  5
1B0
330
1F
100
AcDbEntity
  8
0
  6
Continuous
 62
     8
 48
50.0
370
    25
100
AcDbLine
 10
9507.5172801251
 20
12400.597418506
 30
0.0
 11
9526.5172739262
 21
12400.597418506
 31
0.0
  0
LINE
  5
1B1
330
1F
100
AcDbEntity
  8
0
  6
Continuous
 62
     8
 48
50.0
370
    25
100
AcDbLine
 10
8332.0172746415
 20
12507.4188363145
 30
0.0
 11
8367.6172216172
 21
12507.4188363145
 31
0.0
  0
LINE
  5
1B2
330
1F
100
AcDbEntity
  8
0
  6
Continuous
 62
     8
 48
50.0
370
    25
100
AcDbLine
 10
9507.4172933335
 20
12507.4188363145
 30
0.0
 11
9526.6172905201
 21
12507.4188363145
 31
0.0
  0
LINE
  5
1B3
330
1F
100
AcDbEntity
  8
0
  6
Continuous
 62
     8
 48
50.0
370
    25
100
AcDbLine
 10
10666.4172728295
 20
12507.4188363145
 30
0.0
 11
10702.0172794098
 21
12507.4188363145
 31
0.0
  0
LINE
  5
1B4
330
1F
100
AcDbEntity
  8
0
  6
Continuous
 62
     8
 48
50.0
370
    25
100
AcDbLine
 10
8351.4451701874
 20
12422.115350921
 30
0.0
 11
8362.5894506211
 21
12422.115350921
 31
0.0
  0
LINE
  5
1B5
330
1F
100
AcDbEntity
  8
0
  6
Continuous
 62
     8
 48
50.0
370
    25
100
AcDbLine
 10
10671.4451034302
 20
12422.115350921
 30
0.0
 11
10682.5894434685
 21
12422.115350921
 31
0.0
  0
LINE
  5
1B6
330
1F
100
AcDbEntity
  8
0
  6
Continuous
 62
     8
 48
50.0
370
    25
100
AcDbLine
 10
8332.0172746415
 20
13166.4188754152
 30
0.0
 11
8367.6172216172
 21
13166.4188754152
 31
0.0
  0
LINE
  5
1B7
330
1F
100
AcDbEntity
  8
0
  6
Continuous
 62
     8
 48
50.0
370
    25
100
AcDbLine
 10
8332.0172746415
 20
13161.6377484392
 30
0.0
 11
8367.6172216172
 21
13161.6377484392
 31
0.0
  0
LINE
  5
1B8
330
1F
100
AcDbEntity
  8
0
  6
Continuous
 62
     8
 48
50.0
370
    25
100
AcDbLine
 10
9507.4172933335
 20
13166.4188754152
 30
0.0
 11
9526.6172905201
 21
13166.4188754152
 31
0.0
  0
LINE
  5
1B9
330
1F
100
AcDbEntity
  8
0
  6
Continuous
 62
     8
 48
50.0
370
    25
100
AcDbLine
 10
9507.4172933335
 20
13161.6377484392
 30
0.0
 11
9526.6172905201
 21
13161.6377484392
 31
0.0
  0
LINE
  5
1BA
330
1F
100
AcDbEntity
  8
0
  6
Continuous
 62
     8
 48
50.0
370
    25
100
AcDbLine
 10
10666.4172728295
 20
13161.6377484392
 30
0.0
 11
10702.0172794098
 21
13161.6377484392
 31
0.0
  0
LINE
  5
1BB
330
1F
100
AcDbEntity
  8
0
  6
Continuous
 62
     8
 48
50.0
370
    25
100
AcDbLine
 10
10666.4172728295
 20
13166.4188754152
 30
0.0
 11
10702.0172794098
 21
13166.4188754152
 31
0.0
  0
LINE
  5
1BC
330
1F
100
AcDbEntity
  8
0
  6
Continuous
 62
     8
 48
50.0
370
    25
100
AcDbLine
 10
8332.0172746415
 20
13081.0974490236
 30
0.0
 11
8367.5173242325
 21
13081.0974490236
 31
0.0
  0
LINE
  5
1BD
330
1F
100
AcDbEntity
  8
0
  6
Continuous
 62
     8
 48
50.0
370
    25
100
AcDbLine
 10
10666.5172894234
 20
13081.0974490236
 30
0.0
 11
10702.0172794098
 21
13081.0974490236
 31
0.0
  0
LINE
  5
1BE
330
1F
100
AcDbEntity
  8
0
  6
Continuous
 62
     8
 48
50.0
370
    25
100
AcDbLine
 10
9507.5172801251
 20
13081.0974490236
 30
0.0
 11
9526.5172739262
 21
13081.0974490236
 31
0.0
  0
LINE
  5
1BF
330
1F
100
AcDbEntity
  8
0
  6
Continuous
 62
     8
 48
50.0
370
    25
100
AcDbLine
 10
8332.0172746415
 20
13187.9188668321
 30
0.0
 11
8367.6172216172
 21
13187.9188668321
 31
0.0
  0
LINE
  5
1C0
330
1F
100
AcDbEntity
  8
0
  6
Continuous
 62
     8
 48
50.0
370
    25
100
AcDbLine
 10
9507.4172933335
 20
13187.9188668321
 30
0.0
 11
9526.6172905201
 21
13187.9188668321
 31
0.0
  0
LINE
  5
1C1
330
1F
100
AcDbEntity
  8
0
  6
Continuous
 62
     8
 48
50.0
370
    25
100
AcDbLine
 10
10666.4172728295
 20
13187.9188668321
 30
0.0
 11
10702.0172794098
 21
13187.9188668321
 31
0.0
  0
LINE
  5
1C2
330
1F
100
AcDbEntity
  8
0
  6
Continuous
 62
     8
 48
50.0
370
    25
100
AcDbLine
 10
8351.4451701874
 20
13102.6153218339
 30
0.0
 11
8362.5894506211
 21
13102.6153218339
 31
0.0
  0
LINE
  5
1C3
330
1F
100
AcDbEntity
  8
0
  6
Continuous
 62
     8
 48
50.0
370
    25
100
AcDbLine
 10
10671.4451034302
 20
13102.6153218339
 30
0.0
 11
10682.5894434685
 21
13102.6153218339
 31
0.0
  0
LINE
  5
1C4
330
1F
100
AcDbEntity
  8
0
  6
Continuous
 62
     8
 48
50.0
370
    25
100
AcDbLine
 10
10537.5172813172
 20
12244.6688663553
 30
0.0
 11
10537.5172813172
 21
10240.2698647569
 31
0.0
  0
LINE
  5
1C5
330
1F
100
AcDbEntity
  8
0
  6
Continuous
 62
     8
 48
50.0
370
    25
100
AcDbLine
 10
10486.5172822708
 20
12244.6688663553
 30
0.0
 11
10486.5172822708
 21
10240.2698647569
 31
0.0
  0
LINE
  5
1C6
330
1F
100
AcDbEntity
  8
0
  6
Continuous
 62
     8
 48
50.0
370
    25
100
AcDbLine
 10
8616.5172775025
 20
12244.6688663553
 30
0.0
 11
8616.5172775025
 21
10240.2698647569
 31
0.0
  0
LINE
  5
1C7
330
1F
100
AcDbEntity
  8
0
  6
Continuous
 62
     8
 48
50.0
370
    25
100
AcDbLine
 10
8667.5172765488
 20
12244.6688663553
 30
0.0
 11
8667.5172765488
 21
10240.2698647569
 31
0.0
  0
DIMENSION
  5
1C8
330
1F
100
AcDbEntity
  8
0
  6
Continuous
 62
     7
 48
50.0
370
    18
100
AcDbDimension
  2
_D
 10
9507.5172794007
 20
14950.9352936507
 30
0.0
 11
8910.1672383189
 21
14950.9352936508
 31
0.0
 70
   160
  1
<>
 71
     2
 42
-1.0
  3
SLDDIMSTYLE0
100
AcDbAlignedDimension
 13
8367.5172794005
 23
14293.1615581398
 33
0.0
 14
9507.5172794005
 24
14293.1615581398
 34
0.0
 50
0.0
100
AcDbRotatedDimension
  0
DIMENSION
  5
1D4
330
1F
100
AcDbEntity
  8
0
  6
Continuous
 62
     7
 48
50.0
370
    18
100
AcDbDimension
  2
_D_1
 10
10512.0172794098
 20
9756.436996476
 30
0.0
 11
9512.5551974353
 21
9756.436996476
 31
0.0
 70
   160
  1
<>
 71
     2
 42
-1.0
  3
SLDDIMSTYLE0
100
AcDbAlignedDimension
 13
8642.0172794098
 23
12270.2698409152
 33
0.0
 14
10512.0172794098
 24
12270.2698409152
 34
0.0
100
AcDbRotatedDimension
  0
LINE
  5
1DE
330
1F
100
AcDbEntity
  8
0
  6
Continuous
 62
     7
 48
50.0
370
    25
100
AcDbLine
 10
15556.0839830995
 20
13362.7457935634
 30
0.0
 11
15518.5839830996
 21
13297.7938882796
 31
0.0
  0
LINE
  5
1DF
330
1F
100
AcDbEntity
  8
0
  6
Continuous
 62
     7
 48
50.0
370
    25
100
AcDbLine
 10
15902.4941446131
 20
13162.7457935631
 30
0.0
 11
15864.9941446131
 21
13097.7938882792
 31
0.0
  0
ARC
  5
1E0
330
1F
100
AcDbEntity
  8
0
  6
Continuous
 62
     7
 48
2500.0
370
    25
100
AcDbCircle
 10
15851.7585730246
 20
13119.8692058207
 30
0.0
 40
6.499999999999427
100
AcDbArc
 50
239.9999999999
 51
60.0
  0
LINE
  5
1E1
330
1F
100
AcDbEntity
  8
0
  6
Continuous
 62
     7
 48
50.0
370
    25
100
AcDbLine
 10
15855.0085730246
 20
13125.4983709453
 30
0.0
 11
15850.6784460057
 21
13127.9983709453
 31
0.0
  0
ARC
  5
1E2
330
1F
100
AcDbEntity
  8
0
  6
Continuous
 62
     7
 48
2500.0
370
    25
100
AcDbCircle
 10
15847.4284460056
 20
13122.3692058207
 30
0.0
 40
6.500000000008701
100
AcDbArc
 50
59.9999999998
 51
240.0
  0
LINE
  5
1E3
330
1F
100
AcDbEntity
  8
0
  6
Continuous
 62
     7
 48
50.0
370
    25
100
AcDbLine
 10
15848.5085730246
 20
13114.2400406961
 30
0.0
 11
15844.1784460056
 21
13116.7400406961
 31
0.0
  0
ARC
  5
1E4
330
1F
100
AcDbEntity
  8
0
  6
Continuous
 62
     7
 48
2500.0
370
    25
100
AcDbCircle
 10
15569.3195546811
 20
13340.67047601
 30
0.0
 40
6.50000000000222
100
AcDbArc
 50
59.9999999998
 51
240.0000000001
  0
LINE
  5
1E5
330
1F
100
AcDbEntity
  8
0
  6
Continuous
 62
     7
 48
50.0
370
    25
100
AcDbLine
 10
15566.0695546811
 20
13335.0413108853
 30
0.0
 11
15570.3996817
 21
13332.5413108854
 31
0.0
  0
ARC
  5
1E6
330
1F
100
AcDbEntity
  8
0
  6
Continuous
 62
     7
 48
2500.0
370
    25
100
AcDbCircle
 10
15573.6496817
 20
13338.1704760099
 30
0.0
 40
6.499999999997917
100
AcDbArc
 50
239.9999999998
 51
59.9999999999
  0
LINE
  5
1E7
330
1F
100
AcDbEntity
  8
0
  6
Continuous
 62
     7
 48
50.0
370
    25
100
AcDbLine
 10
15572.5695546811
 20
13346.2996411345
 30
0.0
 11
15576.8996817
 21
13343.7996411345
 31
0.0
  0
ARC
  5
1E8
330
1F
100
AcDbEntity
  8
0
  6
Continuous
 62
     7
 48
2500.0
370
    25
100
AcDbCircle
 10
15544.3195546811
 20
13297.3692058207
 30
0.0
 40
6.49999999999907
100
AcDbArc
 50
59.9999999998
 51
240.0
  0
LINE
  5
1E9
330
1F
100
AcDbEntity
  8
0
  6
Continuous
 62
     7
 48
50.0
370
    25
100
AcDbLine
 10
15541.0695546811
 20
13291.7400406961
 30
0.0
 11
15545.3996817
 21
13289.2400406961
 31
0.0
  0
ARC
  5
1EA
330
1F
100
AcDbEntity
  8
0
  6
Continuous
 62
     7
 48
2500.0
370
    25
100
AcDbCircle
 10
15548.6496817
 20
13294.8692058207
 30
0.0
 40
6.500000000010877
100
AcDbArc
 50
240.0
 51
60.0000000001
  0
LINE
  5
1EB
330
1F
100
AcDbEntity
  8
0
  6
Continuous
 62
     7
 48
50.0
370
    25
100
AcDbLine
 10
15547.5695546811
 20
13302.9983709453
 30
0.0
 11
15551.8996817
 21
13300.4983709453
 31
0.0
  0
ARC
  5
1EC
330
1F
100
AcDbEntity
  8
0
  6
Continuous
 62
     7
 48
2500.0
370
    25
100
AcDbCircle
 10
15607.9150535044
 20
13289.5198409153
 30
0.0
 40
7.000000000007335
100
AcDbArc
 50
60.0000000001
 51
239.9999999999
  0
LINE
  5
1ED
330
1F
100
AcDbEntity
  8
0
  6
Continuous
 62
     7
 48
50.0
370
    25
100
AcDbLine
 10
15636.4579934444
 20
13264.9576630889
 30
0.0
 11
15604.4150535044
 21
13283.4576630889
 31
0.0
  0
ARC
  5
1EE
330
1F
100
AcDbEntity
  8
0
  6
Continuous
 62
     7
 48
2500.0
370
    25
100
AcDbCircle
 10
15639.9579934444
 20
13271.0198409154
 30
0.0
 40
7.000000000000903
100
AcDbArc
 50
240.0000000001
 51
59.9999999999
  0
LINE
  5
1EF
330
1F
100
AcDbEntity
  8
0
  6
Continuous
 62
     7
 48
50.0
370
    25
100
AcDbLine
 10
15611.4150535044
 20
13295.5820187418
 30
0.0
 11
15643.4579934444
 21
13277.0820187418
 31
0.0
  0
ARC
  5
1F0
330
1F
100
AcDbEntity
  8
0
  6
Continuous
 62
     7
 48
2500.0
370
    25
100
AcDbCircle
 10
15699.2233652488
 20
13265.6704760099
 30
0.0
 40
6.50000000001112
100
AcDbArc
 50
60.0000000001
 51
239.9999999998
  0
LINE
  5
1F1
330
1F
100
AcDbEntity
  8
0
  6
Continuous
 62
     7
 48
50.0
370
    25
100
AcDbLine
 10
15695.9733652487
 20
13260.0413108854
 30
0.0
 11
15700.3034922677
 21
13257.5413108854
 31
0.0
  0
ARC
  5
1F2
330
1F
100
AcDbEntity
  8
0
  6
Continuous
 62
     7
 48
2500.0
370
    25
100
AcDbCircle
 10
15703.5534922677
 20
13263.1704760099
 30
0.0
 40
6.500000000006103
100
AcDbArc
 50
239.9999999998
 51
60.0000000002
  0
LINE
  5
1F3
330
1F
100
AcDbEntity
  8
0
  6
Continuous
 62
     7
 48
50.0
370
    25
100
AcDbLine
 10
15702.4733652488
 20
13271.2996411346
 30
0.0
 11
15706.8034922677
 21
13268.7996411345
 31
0.0
  0
ARC
  5
1F4
330
1F
100
AcDbEntity
  8
0
  6
Continuous
 62
     7
 48
2500.0
370
    25
100
AcDbCircle
 10
15674.2233652488
 20
13222.3692058207
 30
0.0
 40
6.499999999999005
100
AcDbArc
 50
60.0
 51
240.0
  0
LINE
  5
1F5
330
1F
100
AcDbEntity
  8
0
  6
Continuous
 62
     7
 48
50.0
370
    25
100
AcDbLine
 10
15670.9733652488
 20
13216.7400406961
 30
0.0
 11
15675.3034922677
 21
13214.2400406961
 31
0.0
  0
ARC
  5
1F6
330
1F
100
AcDbEntity
  8
0
  6
Continuous
 62
     7
 48
2500.0
370
    25
100
AcDbCircle
 10
15678.5534922677
 20
13219.8692058207
 30
0.0
 40
6.500000000001912
100
AcDbArc
 50
240.0
 51
60.0
  0
LINE
  5
1F7
330
1F
100
AcDbEntity
  8
0
  6
Continuous
 62
     7
 48
50.0
370
    25
100
AcDbLine
 10
15677.4733652488
 20
13227.9983709453
 30
0.0
 11
15681.8034922677
 21
13225.4983709453
 31
0.0
  0
ARC
  5
1F8
330
1F
100
AcDbEntity
  8
0
  6
Continuous
 62
     7
 48
2500.0
370
    25
100
AcDbCircle
 10
15742.524635438
 20
13240.6704760099
 30
0.0
 40
6.500000000000824
100
AcDbArc
 50
59.9999999999
 51
240.0000000001
  0
LINE
  5
1F9
330
1F
100
AcDbEntity
  8
0
  6
Continuous
 62
     7
 48
50.0
370
    25
100
AcDbLine
 10
15739.274635438
 20
13235.0413108853
 30
0.0
 11
15743.6047624569
 21
13232.5413108853
 31
0.0
  0
ARC
  5
1FA
330
1F
100
AcDbEntity
  8
0
  6
Continuous
 62
     7
 48
2500.0
370
    25
100
AcDbCircle
 10
15746.8547624569
 20
13238.1704760099
 30
0.0
 40
6.500000000003065
100
AcDbArc
 50
240.0000000002
 51
60.0
  0
LINE
  5
1FB
330
1F
100
AcDbEntity
  8
0
  6
Continuous
 62
     7
 48
50.0
370
    25
100
AcDbLine
 10
15745.774635438
 20
13246.2996411345
 30
0.0
 11
15750.1047624569
 21
13243.7996411345
 31
0.0
  0
ARC
  5
1FC
330
1F
100
AcDbEntity
  8
0
  6
Continuous
 62
     7
 48
2500.0
370
    25
100
AcDbCircle
 10
15717.524635438
 20
13197.3692058207
 30
0.0
 40
6.500000000014288
100
AcDbArc
 50
59.9999999996
 51
240.0000000003
  0
LINE
  5
1FD
330
1F
100
AcDbEntity
  8
0
  6
Continuous
 62
     7
 48
50.0
370
    25
100
AcDbLine
 10
15714.274635438
 20
13191.7400406961
 30
0.0
 11
15718.6047624569
 21
13189.2400406961
 31
0.0
  0
ARC
  5
1FE
330
1F
100
AcDbEntity
  8
0
  6
Continuous
 62
     7
 48
2500.0
370
    25
100
AcDbCircle
 10
15721.8547624569
 20
13194.8692058207
 30
0.0
 40
6.500000000001668
100
AcDbArc
 50
240.0
 51
60.0
  0
LINE
  5
1FF
330
1F
100
AcDbEntity
  8
0
  6
Continuous
 62
     7
 48
50.0
370
    25
100
AcDbLine
 10
15720.774635438
 20
13202.9983709453
 30
0.0
 11
15725.1047624569
 21
13200.4983709453
 31
0.0
  0
ARC
  5
200
330
1F
100
AcDbEntity
  8
0
  6
Continuous
 62
     7
 48
2500.0
370
    25
100
AcDbCircle
 10
15781.1201342613
 20
13189.5198409153
 30
0.0
 40
7.000000000007757
100
AcDbArc
 50
60.0
 51
240.0000000001
  0
LINE
  5
201
330
1F
100
AcDbEntity
  8
0
  6
Continuous
 62
     7
 48
50.0
370
    25
100
AcDbLine
 10
15809.6630742013
 20
13164.9576630888
 30
0.0
 11
15777.6201342613
 21
13183.4576630888
 31
0.0
  0
ARC
  5
202
330
1F
100
AcDbEntity
  8
0
  6
Continuous
 62
     7
 48
2500.0
370
    25
100
AcDbCircle
 10
15813.1630742013
 20
13171.0198409153
 30
0.0
 40
7.000000000002365
100
AcDbArc
 50
240.0
 51
59.9999999999
  0
LINE
  5
203
330
1F
100
AcDbEntity
  8
0
  6
Continuous
 62
     7
 48
50.0
370
    25
100
AcDbLine
 10
15784.6201342613
 20
13195.5820187418
 30
0.0
 11
15816.6630742013
 21
13177.0820187418
 31
0.0
  0
ARC
  5
204
330
1F
100
AcDbEntity
  8
0
  6
Continuous
 62
     7
 48
2500.0
370
    25
100
AcDbCircle
 10
15872.4284460056
 20
13165.6704760099
 30
0.0
 40
6.499999999998518
100
AcDbArc
 50
60.0000000001
 51
240.0
  0
LINE
  5
205
330
1F
100
AcDbEntity
  8
0
  6
Continuous
 62
     7
 48
50.0
370
    25
100
AcDbLine
 10
15869.1784460056
 20
13160.0413108853
 30
0.0
 11
15873.5085730246
 21
13157.5413108853
 31
0.0
  0
ARC
  5
206
330
1F
100
AcDbEntity
  8
0
  6
Continuous
 62
     7
 48
2500.0
370
    25
100
AcDbCircle
 10
15876.7585730246
 20
13163.1704760099
 30
0.0
 40
6.500000000003309
100
AcDbArc
 50
239.9999999999
 51
60.0000000001
  0
LINE
  5
207
330
1F
100
AcDbEntity
  8
0
  6
Continuous
 62
     7
 48
50.0
370
    25
100
AcDbLine
 10
15875.6784460056
 20
13171.2996411345
 30
0.0
 11
15880.0085730246
 21
13168.7996411345
 31
0.0
  0
LINE
  5
208
330
1F
100
AcDbEntity
  8
0
  6
Continuous
 62
     7
 48
50.0
370
    25
100
AcDbLine
 10
17505.8328298666
 20
12421.8098581711
 30
0.0
 11
17752.6500699451
 21
12279.3098581711
 31
0.0
  0
LINE
  5
209
330
1F
100
AcDbEntity
  8
0
  6
Continuous
 62
     7
 48
50.0
370
    25
100
AcDbLine
 10
17732.6500699451
 20
12244.6688420197
 30
0.0
 11
17752.6500699451
 21
12279.3098581711
 31
0.0
  0
LINE
  5
20A
330
1F
100
AcDbEntity
  8
0
  6
Continuous
 62
     7
 48
50.0
370
    25
100
AcDbLine
 10
17485.8328298666
 20
12387.1688420197
 30
0.0
 11
17732.6500699451
 21
12244.6688420197
 31
0.0
  0
LINE
  5
20B
330
1F
100
AcDbEntity
  8
0
  6
Continuous
 62
     7
 48
50.0
370
    25
100
AcDbLine
 10
17485.8328298666
 20
12387.1688420197
 30
0.0
 11
17505.8328298666
 21
12421.8098581711
 31
0.0
  0
LINE
  5
20C
330
1F
100
AcDbEntity
  8
0
  6
Continuous
 62
     7
 48
50.0
370
    25
100
AcDbLine
 10
16251.7466294737
 20
13099.6688420197
 30
0.0
 11
16271.7466294737
 21
13134.3098581711
 31
0.0
  0
LINE
  5
20D
330
1F
100
AcDbEntity
  8
0
  6
Continuous
 62
     7
 48
50.0
370
    25
100
AcDbLine
 10
17259.015589788
 20
12564.3098581711
 30
0.0
 11
17239.015589788
 21
12529.6688420197
 31
0.0
  0
LINE
  5
20E
330
1F
100
AcDbEntity
  8
0
  6
Continuous
 62
     7
 48
50.0
370
    25
100
AcDbLine
 10
16251.7466294737
 20
13099.6688420197
 30
0.0
 11
17239.015589788
 21
12529.6688420197
 31
0.0
  0
LINE
  5
20F
330
1F
100
AcDbEntity
  8
0
  6
Continuous
 62
     7
 48
50.0
370
    25
100
AcDbLine
 10
16271.7466294737
 20
13134.3098581711
 30
0.0
 11
17259.015589788
 21
12564.3098581711
 31
0.0
  0
LINE
  5
210
330
1F
100
AcDbEntity
  8
0
  6
Continuous
 62
     7
 48
50.0
370
    25
100
AcDbLine
 10
15758.1121493166
 20
13384.6688420197
 30
0.0
 11
15778.1121493166
 21
13419.3098581711
 31
0.0
  0
LINE
  5
211
330
1F
100
AcDbEntity
  8
0
  6
Continuous
 62
     7
 48
50.0
370
    25
100
AcDbLine
 10
16024.9293893952
 20
13276.8098581711
 30
0.0
 11
16004.9293893952
 21
13242.1688420197
 31
0.0
  0
LINE
  5
212
330
1F
100
AcDbEntity
  8
0
  6
Continuous
 62
     7
 48
50.0
370
    25
100
AcDbLine
 10
15758.1121493166
 20
13384.6688420197
 30
0.0
 11
16004.9293893952
 21
13242.1688420197
 31
0.0
  0
LINE
  5
213
330
1F
100
AcDbEntity
  8
0
  6
Continuous
 62
     7
 48
50.0
370
    25
100
AcDbLine
 10
15778.1121493166
 20
13419.3098581711
 30
0.0
 11
16024.9293893952
 21
13276.8098581711
 31
0.0
  0
LINE
  5
214
330
1F
100
AcDbEntity
  8
0
  6
Continuous
 62
     7
 48
50.0
370
    25
100
AcDbLine
 10
17239.015589788
 20
12529.6688420197
 30
0.0
 11
17277.5537202567
 21
12507.4188420195
 31
0.0
  0
LINE
  5
215
330
1F
100
AcDbEntity
  8
0
  6
Continuous
 62
     7
 48
50.0
370
    25
100
AcDbLine
 10
17314.7928126194
 20
12485.9188420195
 30
0.0
 11
17485.8328298665
 21
12387.1688420197
 31
0.0
  0
LINE
  5
216
330
1F
100
AcDbEntity
  8
0
  6
Continuous
 62
     7
 48
50.0
370
    25
100
AcDbLine
 10
17505.8328298666
 20
12421.8098581711
 30
0.0
 11
17259.015589788
 21
12564.3098581711
 31
0.0
  0
LINE
  5
217
330
1F
100
AcDbEntity
  8
0
  6
Continuous
 62
     7
 48
50.0
370
    25
100
AcDbLine
 10
16004.9293893952
 20
13242.1688420197
 30
0.0
 11
16098.8931457061
 21
13187.9188420196
 31
0.0
  0
LINE
  5
218
330
1F
100
AcDbEntity
  8
0
  6
Continuous
 62
     7
 48
50.0
370
    25
100
AcDbLine
 10
16136.1322380688
 20
13166.4188420196
 30
0.0
 11
16251.7466294737
 21
13099.6688420197
 31
0.0
  0
LINE
  5
219
330
1F
100
AcDbEntity
  8
0
  6
Continuous
 62
     7
 48
50.0
370
    25
100
AcDbLine
 10
16271.7466294737
 20
13134.3098581711
 30
0.0
 11
16024.9293893952
 21
13276.8098581711
 31
0.0
  0
LINE
  5
21A
330
1F
100
AcDbEntity
  8
0
  6
Continuous
 62
     7
 48
50.0
370
    25
100
AcDbLine
 10
15514.8404265661
 20
13571.3098581711
 30
0.0
 11
15761.6576666447
 21
13428.8098581711
 31
0.0
  0
LINE
  5
21B
330
1F
100
AcDbEntity
  8
0
  6
Continuous
 62
     7
 48
50.0
370
    25
100
AcDbLine
 10
15741.6576666447
 20
13394.1688420197
 30
0.0
 11
15761.6576666447
 21
13428.8098581711
 31
0.0
  0
LINE
  5
21C
330
1F
100
AcDbEntity
  8
0
  6
Continuous
 62
     7
 48
50.0
370
    25
100
AcDbLine
 10
15494.8404265661
 20
13536.6688420197
 30
0.0
 11
15741.6576666447
 21
13394.1688420197
 31
0.0
  0
LINE
  5
21D
330
1F
100
AcDbEntity
  8
0
  6
Continuous
 62
     7
 48
50.0
370
    25
100
AcDbLine
 10
15494.8404265661
 20
13536.6688420197
 30
0.0
 11
15514.8404265661
 21
13571.3098581711
 31
0.0
  0
LINE
  5
21E
330
1F
100
AcDbEntity
  8
0
  6
Continuous
 62
     7
 48
50.0
370
    25
100
AcDbLine
 10
14260.7542261733
 20
14249.1688420197
 30
0.0
 11
14280.7542261733
 21
14283.8098581711
 31
0.0
  0
LINE
  5
21F
330
1F
100
AcDbEntity
  8
0
  6
Continuous
 62
     7
 48
50.0
370
    25
100
AcDbLine
 10
15268.0231864876
 20
13713.8098581711
 30
0.0
 11
15248.0231864876
 21
13679.1688420197
 31
0.0
  0
LINE
  5
220
330
1F
100
AcDbEntity
  8
0
  6
Continuous
 62
     7
 48
50.0
370
    25
100
AcDbLine
 10
14260.7542261733
 20
14249.1688420197
 30
0.0
 11
14263.7853150866
 21
14247.4188420197
 31
0.0
  0
LINE
  5
221
330
1F
100
AcDbEntity
  8
0
  6
Continuous
 62
     7
 48
50.0
370
    25
100
AcDbLine
 10
14301.0244074494
 20
14225.9188420197
 30
0.0
 11
15248.0231864876
 21
13679.1688420197
 31
0.0
  0
LINE
  5
222
330
1F
100
AcDbEntity
  8
0
  6
Continuous
 62
     7
 48
50.0
370
    25
100
AcDbLine
 10
14280.7542261733
 20
14283.8098581711
 30
0.0
 11
15268.0231864876
 21
13713.8098581711
 31
0.0
  0
LINE
  5
223
330
1F
100
AcDbEntity
  8
0
  6
Continuous
 62
     7
 48
50.0
370
    25
100
AcDbLine
 10
13767.1197460162
 20
14534.1688420197
 30
0.0
 11
13787.1197460162
 21
14568.8098581711
 31
0.0
  0
LINE
  5
224
330
1F
100
AcDbEntity
  8
0
  6
Continuous
 62
     7
 48
50.0
370
    25
100
AcDbLine
 10
14033.9369860947
 20
14426.3098581711
 30
0.0
 11
14013.9369860948
 21
14391.6688420197
 31
0.0
  0
LINE
  5
225
330
1F
100
AcDbEntity
  8
0
  6
Continuous
 62
     7
 48
50.0
370
    25
100
AcDbLine
 10
13767.1197460162
 20
14534.1688420197
 30
0.0
 11
14013.9369860948
 21
14391.6688420197
 31
0.0
  0
LINE
  5
226
330
1F
100
AcDbEntity
  8
0
  6
Continuous
 62
     7
 48
50.0
370
    25
100
AcDbLine
 10
13787.1197460162
 20
14568.8098581711
 30
0.0
 11
14033.9369860947
 21
14426.3098581711
 31
0.0
  0
LINE
  5
227
330
1F
100
AcDbEntity
  8
0
  6
Continuous
 62
     7
 48
50.0
370
    25
100
AcDbLine
 10
15248.0231864876
 20
13679.1688420197
 30
0.0
 11
15442.4458896372
 21
13566.9188420197
 31
0.0
  0
LINE
  5
228
330
1F
100
AcDbEntity
  8
0
  6
Continuous
 62
     7
 48
50.0
370
    25
100
AcDbLine
 10
15479.684982
 20
13545.4188420197
 30
0.0
 11
15494.8404265661
 21
13536.6688420197
 31
0.0
  0
LINE
  5
229
330
1F
100
AcDbEntity
  8
0
  6
Continuous
 62
     7
 48
50.0
370
    25
100
AcDbLine
 10
15514.8404265662
 20
13571.3098581711
 30
0.0
 11
15268.0231864876
 21
13713.8098581711
 31
0.0
  0
LINE
  5
22A
330
1F
100
AcDbEntity
  8
0
  6
Continuous
 62
     7
 48
50.0
370
    25
100
AcDbLine
 10
14013.9369860948
 20
14391.6688420197
 30
0.0
 11
14260.7542261733
 21
14249.1688420197
 31
0.0
  0
LINE
  5
22B
330
1F
100
AcDbEntity
  8
0
  6
Continuous
 62
     7
 48
50.0
370
    25
100
AcDbLine
 10
14280.7542261733
 20
14283.8098581711
 30
0.0
 11
14033.9369860948
 21
14426.3098581711
 31
0.0
  0
LINE
  5
22C
330
1F
100
AcDbEntity
  8
0
  6
Continuous
 62
     7
 48
50.0
370
    25
100
AcDbLine
 10
14624.3528508862
 20
12400.2698409155
 30
0.0
 11
14624.3528508861
 21
12240.2698409155
 31
0.0
  0
LINE
  5
22D
330
1F
100
AcDbEntity
  8
0
  6
Continuous
 62
     7
 48
50.0
370
    25
100
AcDbLine
 10
14699.8528508861
 20
12400.2698409155
 30
0.0
 11
14624.3528508862
 21
12400.2698409155
 31
0.0
  0
LINE
  5
22E
330
1F
100
AcDbEntity
  8
0
  6
Continuous
 62
     7
 48
50.0
370
    25
100
AcDbLine
 10
14719.8528508861
 20
12380.2698409155
 30
0.0
 11
14699.8528508861
 21
12400.2698409155
 31
0.0
  0
LINE
  5
22F
330
1F
100
AcDbEntity
  8
0
  6
Continuous
 62
     7
 48
50.0
370
    25
100
AcDbLine
 10
14719.8528508861
 20
12380.2698409155
 30
0.0
 11
14719.8528508861
 21
12260.2698409155
 31
0.0
  0
LINE
  5
230
330
1F
100
AcDbEntity
  8
0
  6
Continuous
 62
     7
 48
50.0
370
    25
100
AcDbLine
 10
14699.8528508861
 20
12240.2698409155
 30
0.0
 11
14719.8528508861
 21
12260.2698409155
 31
0.0
  0
LINE
  5
231
330
1F
100
AcDbEntity
  8
0
  6
Continuous
 62
     7
 48
50.0
370
    25
100
AcDbLine
 10
14699.8528508861
 20
12240.2698409155
 30
0.0
 11
14624.3528508861
 21
12240.2698409155
 31
0.0
  0
CIRCLE
  5
232
330
1F
100
AcDbEntity
  8
0
  6
Continuous
 62
     7
 48
2500.0
370
    25
100
AcDbCircle
 10
14684.8528508861
 20
12320.2698409155
 30
0.0
 40
6.499999999998181
  0
CIRCLE
  5
233
330
1F
100
AcDbEntity
  8
0
  6
Continuous
 62
     7
 48
2500.0
370
    25
100
AcDbCircle
 10
14684.8528508861
 20
12280.2698409155
 30
0.0
 40
6.500000000001819
  0
CIRCLE
  5
234
330
1F
100
AcDbEntity
  8
0
  6
Continuous
 62
     7
 48
2500.0
370
    25
100
AcDbCircle
 10
14684.8528508861
 20
12360.2698409155
 30
0.0
 40
6.5
  0
LINE
  5
235
330
1F
100
AcDbEntity
  8
0
  6
Continuous
 62
     7
 48
50.0
370
    25
100
AcDbLine
 10
14619.8528508861
 20
12400.2698409155
 30
0.0
 11
14619.8528508861
 21
12240.2698409155
 31
0.0
  0
LINE
  5
236
330
1F
100
AcDbEntity
  8
0
  6
Continuous
 62
     7
 48
50.0
370
    25
100
AcDbLine
 10
14624.3528508862
 20
12400.2698409155
 30
0.0
 11
14619.8528508861
 21
12400.2698409155
 31
0.0
  0
LINE
  5
237
330
1F
100
AcDbEntity
  8
0
  6
Continuous
 62
     7
 48
50.0
370
    25
100
AcDbLine
 10
14624.3528508861
 20
12240.2698409155
 30
0.0
 11
14619.8528508861
 21
12240.2698409155
 31
0.0
  0
LINE
  5
238
330
1F
100
AcDbEntity
  8
0
  6
Continuous
 62
     7
 48
50.0
370
    25
100
AcDbLine
 10
15632.1407464352
 20
13283.0386840882
 30
0.0
 11
15622.405495504
 21
13273.648226835
 31
0.0
  0
LINE
  5
239
330
1F
100
AcDbEntity
  8
0
  6
Continuous
 62
     7
 48
50.0
370
    25
100
AcDbLine
 10
15634.1194550646
 20
13266.8851691294
 30
0.0
 11
15643.8235044139
 21
13276.2455298681
 31
0.0
  0
LINE
  5
23A
330
1F
100
AcDbEntity
  8
0
  6
Continuous
 62
     7
 48
50.0
370
    25
100
AcDbLine
 10
14683.1092270506
 20
12400.2698409155
 30
0.0
 11
15563.0381226451
 21
13249.0342680788
 31
0.0
  0
LINE
  5
23B
330
1F
100
AcDbEntity
  8
0
  6
Continuous
 62
     7
 48
50.0
370
    25
100
AcDbLine
 10
15602.0675561993
 20
13286.681394999
 30
0.0
 11
15610.9624210955
 21
13295.2612301949
 31
0.0
  0
LINE
  5
23C
330
1F
100
AcDbEntity
  8
0
  6
Continuous
 62
     7
 48
50.0
370
    25
100
AcDbLine
 10
14681.096788926
 20
12314.9649376598
 30
0.0
 11
14690.2896898417
 21
12323.8322533244
 31
0.0
  0
LINE
  5
23D
330
1F
100
AcDbEntity
  8
0
  6
Continuous
 62
     7
 48
50.0
370
    25
100
AcDbLine
 10
14719.8528508861
 20
12352.3483749959
 30
0.0
 11
15617.1025513864
 21
13217.8201555914
 31
0.0
  0
LINE
  5
23E
330
1F
100
AcDbEntity
  8
0
  6
Continuous
 62
     7
 48
50.0
370
    25
100
AcDbLine
 10
14250.7542261734
 20
14231.8483339439
 30
0.0
 11
14252.0532642791
 21
14231.0983339439
 31
0.0
  0
LINE
  5
23F
330
1F
100
AcDbEntity
  8
0
  6
Continuous
 62
     7
 48
50.0
370
    25
100
AcDbLine
 10
14250.7542261734
 20
14231.8483339439
 30
0.0
 11
14259.0042261733
 21
14246.1377531064
 31
0.0
  0
LINE
  5
240
330
1F
100
AcDbEntity
  8
0
  6
Continuous
 62
     7
 48
50.0
370
    25
100
AcDbLine
 10
14260.303264279
 20
14245.3877531064
 30
0.0
 11
14259.0042261733
 21
14246.1377531064
 31
0.0
  0
LINE
  5
241
330
1F
100
AcDbEntity
  8
0
  6
Continuous
 62
     7
 48
50.0
370
    25
100
AcDbLine
 10
14252.0532642791
 20
14231.0983339439
 30
0.0
 11
14260.303264279
 21
14245.3877531064
 31
0.0
  0
LINE
  5
242
330
1F
100
AcDbEntity
  8
0
  6
Continuous
 62
     7
 48
50.0
370
    25
100
AcDbLine
 10
14300.2744074493
 20
14224.6198039139
 30
0.0
 11
14301.0244074493
 21
14225.9188420196
 31
0.0
  0
LINE
  5
243
330
1F
100
AcDbEntity
  8
0
  6
Continuous
 62
     7
 48
50.0
370
    25
100
AcDbLine
 10
14263.7853150866
 20
14247.4188420196
 30
0.0
 11
14263.0353150866
 21
14246.1198039139
 31
0.0
  0
LINE
  5
244
330
1F
100
AcDbEntity
  8
0
  6
Continuous
 62
     7
 48
50.0
370
    25
100
AcDbLine
 10
14263.7853150866
 20
14247.4188420196
 30
0.0
 11
14301.0244074493
 21
14225.9188420196
 31
0.0
  0
LINE
  5
245
330
1F
100
AcDbEntity
  8
0
  6
Continuous
 62
     7
 48
50.0
370
    25
100
AcDbLine
 10
14263.0353150866
 20
14246.1198039139
 30
0.0
 11
14300.2744074493
 21
14224.6198039139
 31
0.0
  0
LINE
  5
246
330
1F
100
AcDbEntity
  8
0
  6
Continuous
 62
     7
 48
50.0
370
    25
100
AcDbLine
 10
14302.3054963626
 20
14221.1377531064
 30
0.0
 11
14301.0064582569
 21
14221.8877531064
 31
0.0
  0
ARC
  5
247
330
1F
100
AcDbEntity
  8
0
  6
Continuous
 62
     7
 48
2500.0
370
    25
100
AcDbCircle
 10
14299.2744074493
 20
14222.8877531063
 30
0.0
 40
3.500000000030293
100
AcDbArc
 50
330.000000001
 51
60.0000000003
  0
ARC
  5
248
330
1F
100
AcDbEntity
  8
0
  6
Continuous
 62
     7
 48
2500.0
370
    25
100
AcDbCircle
 10
14299.2744074493
 20
14222.8877531063
 30
0.0
 40
2.000000000030216
100
AcDbArc
 50
330.0000000005
 51
60.0000000004
  0
LINE
  5
249
330
1F
100
AcDbEntity
  8
0
  6
Continuous
 62
     7
 48
50.0
370
    25
100
AcDbLine
 10
14254.5064582569
 20
14141.3473905544
 30
0.0
 11
14255.8054963625
 21
14140.5973905545
 31
0.0
  0
LINE
  5
24A
330
1F
100
AcDbEntity
  8
0
  6
Continuous
 62
     7
 48
50.0
370
    25
100
AcDbLine
 10
14251.0244074493
 20
14139.3163016412
 30
0.0
 11
14251.7744074494
 21
14140.6153397468
 31
0.0
  0
ARC
  5
24B
330
1F
100
AcDbEntity
  8
0
  6
Continuous
 62
     7
 48
2500.0
370
    25
100
AcDbCircle
 10
14252.7744074493
 20
14142.3473905544
 30
0.0
 40
3.499999999991089
100
AcDbArc
 50
240.0000000001
 51
330.0000000005
  0
ARC
  5
24C
330
1F
100
AcDbEntity
  8
0
  6
Continuous
 62
     7
 48
2500.0
370
    25
100
AcDbCircle
 10
14252.7744074493
 20
14142.3473905544
 30
0.0
 40
2.000000000008097
100
AcDbArc
 50
240.000000001
 51
330.0000000005
  0
LINE
  5
24D
330
1F
100
AcDbEntity
  8
0
  6
Continuous
 62
     7
 48
50.0
370
    25
100
AcDbLine
 10
14214.5353150866
 20
14162.1153397469
 30
0.0
 11
14213.7853150866
 21
14160.8163016412
 31
0.0
  0
LINE
  5
24E
330
1F
100
AcDbEntity
  8
0
  6
Continuous
 62
     7
 48
50.0
370
    25
100
AcDbLine
 10
14251.0244074493
 20
14139.3163016412
 30
0.0
 11
14213.7853150866
 21
14160.8163016412
 31
0.0
  0
LINE
  5
24F
330
1F
100
AcDbEntity
  8
0
  6
Continuous
 62
     7
 48
50.0
370
    25
100
AcDbLine
 10
14251.7744074494
 20
14140.6153397468
 30
0.0
 11
14214.5353150866
 21
14162.1153397469
 31
0.0
  0
ARC
  5
250
330
1F
100
AcDbEntity
  8
0
  6
Continuous
 62
     7
 48
2500.0
370
    25
100
AcDbCircle
 10
14215.5353150866
 20
14163.8473905544
 30
0.0
 40
3.500000000003269
100
AcDbArc
 50
149.9999999997
 51
240.0000000001
  0
LINE
  5
251
330
1F
100
AcDbEntity
  8
0
  6
Continuous
 62
     7
 48
50.0
370
    25
100
AcDbLine
 10
14212.5042261734
 20
14165.5973905544
 30
0.0
 11
14213.803264279
 21
14164.8473905544
 31
0.0
  0
ARC
  5
252
330
1F
100
AcDbEntity
  8
0
  6
Continuous
 62
     7
 48
2500.0
370
    25
100
AcDbCircle
 10
14215.5353150866
 20
14163.8473905544
 30
0.0
 40
1.999999999977857
100
AcDbArc
 50
149.9999999997
 51
240.0000000005
  0
LINE
  5
253
330
1F
100
AcDbEntity
  8
0
  6
Continuous
 62
     7
 48
50.0
370
    25
100
AcDbLine
 10
14302.3054963626
 20
14221.1377531064
 30
0.0
 11
14255.8054963625
 21
14140.5973905545
 31
0.0
  0
LINE
  5
254
330
1F
100
AcDbEntity
  8
0
  6
Continuous
 62
     7
 48
50.0
370
    25
100
AcDbLine
 10
14301.0064582569
 20
14221.8877531064
 30
0.0
 11
14254.5064582569
 21
14141.3473905544
 31
0.0
  0
LINE
  5
255
330
1F
100
AcDbEntity
  8
0
  6
Continuous
 62
     7
 48
50.0
370
    25
100
AcDbLine
 10
14222.053264279
 20
14179.1368097168
 30
0.0
 11
14220.7542261733
 21
14179.8868097169
 31
0.0
  0
LINE
  5
256
330
1F
100
AcDbEntity
  8
0
  6
Continuous
 62
     7
 48
50.0
370
    25
100
AcDbLine
 10
14213.803264279
 20
14164.8473905544
 30
0.0
 11
14222.053264279
 21
14179.1368097168
 31
0.0
  0
LINE
  5
257
330
1F
100
AcDbEntity
  8
0
  6
Continuous
 62
     7
 48
50.0
370
    25
100
AcDbLine
 10
14212.5042261734
 20
14165.5973905544
 30
0.0
 11
14220.7542261733
 21
14179.8868097169
 31
0.0
  0
ARC
  5
258
330
1F
100
AcDbEntity
  8
0
  6
Continuous
 62
     7
 48
2500.0
370
    25
100
AcDbCircle
 10
14262.0353150866
 20
14244.3877531064
 30
0.0
 40
2.000000000027618
100
AcDbArc
 50
59.9999999997
 51
149.9999999991
  0
ARC
  5
259
330
1F
100
AcDbEntity
  8
0
  6
Continuous
 62
     7
 48
2500.0
370
    25
100
AcDbCircle
 10
14262.0353150866
 20
14244.3877531064
 30
0.0
 40
3.500000000020241
100
AcDbArc
 50
60.0
 51
149.9999999997
  0
LINE
  5
25A
330
1F
100
AcDbEntity
  8
0
  6
Continuous
 62
     7
 48
50.0
370
    25
100
AcDbLine
 10
15429.414800724
 20
13551.3483339439
 30
0.0
 11
15437.664800724
 21
13565.6377531064
 31
0.0
  0
LINE
  5
25B
330
1F
100
AcDbEntity
  8
0
  6
Continuous
 62
     7
 48
50.0
370
    25
100
AcDbLine
 10
15438.9638388296
 20
13564.8877531064
 30
0.0
 11
15437.664800724
 21
13565.6377531064
 31
0.0
  0
LINE
  5
25C
330
1F
100
AcDbEntity
  8
0
  6
Continuous
 62
     7
 48
50.0
370
    25
100
AcDbLine
 10
15429.414800724
 20
13551.3483339439
 30
0.0
 11
15430.7138388297
 21
13550.5983339439
 31
0.0
  0
LINE
  5
25D
330
1F
100
AcDbEntity
  8
0
  6
Continuous
 62
     7
 48
50.0
370
    25
100
AcDbLine
 10
15430.7138388297
 20
13550.5983339439
 30
0.0
 11
15438.9638388296
 21
13564.8877531064
 31
0.0
  0
LINE
  5
25E
330
1F
100
AcDbEntity
  8
0
  6
Continuous
 62
     7
 48
50.0
370
    25
100
AcDbLine
 10
15478.9349819999
 20
13544.1198039139
 30
0.0
 11
15479.6849819999
 21
13545.4188420196
 31
0.0
  0
LINE
  5
25F
330
1F
100
AcDbEntity
  8
0
  6
Continuous
 62
     7
 48
50.0
370
    25
100
AcDbLine
 10
15442.4458896372
 20
13566.9188420196
 30
0.0
 11
15441.6958896372
 21
13565.6198039139
 31
0.0
  0
LINE
  5
260
330
1F
100
AcDbEntity
  8
0
  6
Continuous
 62
     7
 48
50.0
370
    25
100
AcDbLine
 10
15442.4458896372
 20
13566.9188420196
 30
0.0
 11
15479.6849819999
 21
13545.4188420196
 31
0.0
  0
LINE
  5
261
330
1F
100
AcDbEntity
  8
0
  6
Continuous
 62
     7
 48
50.0
370
    25
100
AcDbLine
 10
15441.6958896372
 20
13565.6198039139
 30
0.0
 11
15478.9349819999
 21
13544.1198039139
 31
0.0
  0
LINE
  5
262
330
1F
100
AcDbEntity
  8
0
  6
Continuous
 62
     7
 48
50.0
370
    25
100
AcDbLine
 10
15480.9660709132
 20
13540.6377531064
 30
0.0
 11
15479.6670328075
 21
13541.3877531064
 31
0.0
  0
ARC
  5
263
330
1F
100
AcDbEntity
  8
0
  6
Continuous
 62
     7
 48
2500.0
370
    25
100
AcDbCircle
 10
15477.9349819999
 20
13542.3877531063
 30
0.0
 40
3.500000000032778
100
AcDbArc
 50
330.0000000011
 51
60.0000000003
  0
ARC
  5
264
330
1F
100
AcDbEntity
  8
0
  6
Continuous
 62
     7
 48
2500.0
370
    25
100
AcDbCircle
 10
15477.9349819999
 20
13542.3877531063
 30
0.0
 40
2.000000000031792
100
AcDbArc
 50
330.0000000005
 51
60.0000000005
  0
LINE
  5
265
330
1F
100
AcDbEntity
  8
0
  6
Continuous
 62
     7
 48
50.0
370
    25
100
AcDbLine
 10
15433.1670328075
 20
13460.8473905544
 30
0.0
 11
15434.4660709132
 21
13460.0973905545
 31
0.0
  0
LINE
  5
266
330
1F
100
AcDbEntity
  8
0
  6
Continuous
 62
     7
 48
50.0
370
    25
100
AcDbLine
 10
15429.684982
 20
13458.8163016412
 30
0.0
 11
15430.434982
 21
13460.1153397468
 31
0.0
  0
ARC
  5
267
330
1F
100
AcDbEntity
  8
0
  6
Continuous
 62
     7
 48
2500.0
370
    25
100
AcDbCircle
 10
15431.4349819999
 20
13461.8473905544
 30
0.0
 40
3.499999999991998
100
AcDbArc
 50
240.0000000001
 51
330.0000000005
  0
ARC
  5
268
330
1F
100
AcDbEntity
  8
0
  6
Continuous
 62
     7
 48
2500.0
370
    25
100
AcDbCircle
 10
15431.4349819999
 20
13461.8473905544
 30
0.0
 40
2.000000000007431
100
AcDbArc
 50
240.0000000009
 51
330.0000000004
  0
LINE
  5
269
330
1F
100
AcDbEntity
  8
0
  6
Continuous
 62
     7
 48
50.0
370
    25
100
AcDbLine
 10
15393.1958896372
 20
13481.6153397469
 30
0.0
 11
15392.4458896372
 21
13480.3163016412
 31
0.0
  0
LINE
  5
26A
330
1F
100
AcDbEntity
  8
0
  6
Continuous
 62
     7
 48
50.0
370
    25
100
AcDbLine
 10
15429.684982
 20
13458.8163016412
 30
0.0
 11
15392.4458896372
 21
13480.3163016412
 31
0.0
  0
LINE
  5
26B
330
1F
100
AcDbEntity
  8
0
  6
Continuous
 62
     7
 48
50.0
370
    25
100
AcDbLine
 10
15430.434982
 20
13460.1153397468
 30
0.0
 11
15393.1958896372
 21
13481.6153397469
 31
0.0
  0
ARC
  5
26C
330
1F
100
AcDbEntity
  8
0
  6
Continuous
 62
     7
 48
2500.0
370
    25
100
AcDbCircle
 10
15394.1958896372
 20
13483.3473905544
 30
0.0
 40
1.999999999977857
100
AcDbArc
 50
149.9999999998
 51
240.0000000005
  0
ARC
  5
26D
330
1F
100
AcDbEntity
  8
0
  6
Continuous
 62
     7
 48
2500.0
370
    25
100
AcDbCircle
 10
15394.1958896372
 20
13483.3473905544
 30
0.0
 40
3.500000000003269
100
AcDbArc
 50
149.9999999997
 51
240.0000000001
  0
LINE
  5
26E
330
1F
100
AcDbEntity
  8
0
  6
Continuous
 62
     7
 48
50.0
370
    25
100
AcDbLine
 10
15391.164800724
 20
13485.0973905544
 30
0.0
 11
15392.4638388296
 21
13484.3473905544
 31
0.0
  0
LINE
  5
26F
330
1F
100
AcDbEntity
  8
0
  6
Continuous
 62
     7
 48
50.0
370
    25
100
AcDbLine
 10
15480.9660709132
 20
13540.6377531064
 30
0.0
 11
15434.4660709132
 21
13460.0973905545
 31
0.0
  0
LINE
  5
270
330
1F
100
AcDbEntity
  8
0
  6
Continuous
 62
     7
 48
50.0
370
    25
100
AcDbLine
 10
15479.6670328075
 20
13541.3877531064
 30
0.0
 11
15433.1670328075
 21
13460.8473905544
 31
0.0
  0
LINE
  5
271
330
1F
100
AcDbEntity
  8
0
  6
Continuous
 62
     7
 48
50.0
370
    25
100
AcDbLine
 10
15400.7138388296
 20
13498.6368097168
 30
0.0
 11
15399.414800724
 21
13499.3868097169
 31
0.0
  0
LINE
  5
272
330
1F
100
AcDbEntity
  8
0
  6
Continuous
 62
     7
 48
50.0
370
    25
100
AcDbLine
 10
15392.4638388296
 20
13484.3473905544
 30
0.0
 11
15400.7138388296
 21
13498.6368097168
 31
0.0
  0
LINE
  5
273
330
1F
100
AcDbEntity
  8
0
  6
Continuous
 62
     7
 48
50.0
370
    25
100
AcDbLine
 10
15391.164800724
 20
13485.0973905544
 30
0.0
 11
15399.414800724
 21
13499.3868097169
 31
0.0
  0
ARC
  5
274
330
1F
100
AcDbEntity
  8
0
  6
Continuous
 62
     7
 48
2500.0
370
    25
100
AcDbCircle
 10
15440.6958896372
 20
13563.8877531063
 30
0.0
 40
2.000000000026953
100
AcDbArc
 50
59.9999999997
 51
149.9999999992
  0
ARC
  5
275
330
1F
100
AcDbEntity
  8
0
  6
Continuous
 62
     7
 48
2500.0
370
    25
100
AcDbCircle
 10
15440.6958896372
 20
13563.8877531063
 30
0.0
 40
3.50000000001618
100
AcDbArc
 50
59.9999999999
 51
149.9999999998
  0
LINE
  5
276
330
1F
100
AcDbEntity
  8
0
  6
Continuous
 62
     7
 48
50.0
370
    25
100
AcDbLine
 10
17264.5226313434
 20
12491.8483339438
 30
0.0
 11
17265.8216694491
 21
12491.0983339438
 31
0.0
  0
LINE
  5
277
330
1F
100
AcDbEntity
  8
0
  6
Continuous
 62
     7
 48
50.0
370
    25
100
AcDbLine
 10
17264.5226313434
 20
12491.8483339438
 30
0.0
 11
17272.7726313434
 21
12506.1377531063
 31
0.0
  0
LINE
  5
278
330
1F
100
AcDbEntity
  8
0
  6
Continuous
 62
     7
 48
50.0
370
    25
100
AcDbLine
 10
17274.0716694491
 20
12505.3877531063
 30
0.0
 11
17272.7726313434
 21
12506.1377531063
 31
0.0
  0
LINE
  5
279
330
1F
100
AcDbEntity
  8
0
  6
Continuous
 62
     7
 48
50.0
370
    25
100
AcDbLine
 10
17265.8216694491
 20
12491.0983339438
 30
0.0
 11
17274.0716694491
 21
12505.3877531063
 31
0.0
  0
LINE
  5
27A
330
1F
100
AcDbEntity
  8
0
  6
Continuous
 62
     7
 48
50.0
370
    25
100
AcDbLine
 10
17314.0428126194
 20
12484.6198039138
 30
0.0
 11
17314.7928126194
 21
12485.9188420195
 31
0.0
  0
LINE
  5
27B
330
1F
100
AcDbEntity
  8
0
  6
Continuous
 62
     7
 48
50.0
370
    25
100
AcDbLine
 10
17277.5537202566
 20
12507.4188420195
 30
0.0
 11
17276.8037202567
 21
12506.1198039138
 31
0.0
  0
LINE
  5
27C
330
1F
100
AcDbEntity
  8
0
  6
Continuous
 62
     7
 48
50.0
370
    25
100
AcDbLine
 10
17277.5537202566
 20
12507.4188420195
 30
0.0
 11
17314.7928126194
 21
12485.9188420195
 31
0.0
  0
LINE
  5
27D
330
1F
100
AcDbEntity
  8
0
  6
Continuous
 62
     7
 48
50.0
370
    25
100
AcDbLine
 10
17276.8037202567
 20
12506.1198039138
 30
0.0
 11
17314.0428126194
 21
12484.6198039138
 31
0.0
  0
LINE
  5
27E
330
1F
100
AcDbEntity
  8
0
  6
Continuous
 62
     7
 48
50.0
370
    25
100
AcDbLine
 10
17316.0739015327
 20
12481.1377531063
 30
0.0
 11
17314.7748634269
 21
12481.8877531063
 31
0.0
  0
ARC
  5
27F
330
1F
100
AcDbEntity
  8
0
  6
Continuous
 62
     7
 48
2500.0
370
    25
100
AcDbCircle
 10
17313.0428126194
 20
12482.8877531062
 30
0.0
 40
3.500000000033248
100
AcDbArc
 50
330.0000000011
 51
60.0000000003
  0
ARC
  5
280
330
1F
100
AcDbEntity
  8
0
  6
Continuous
 62
     7
 48
2500.0
370
    25
100
AcDbCircle
 10
17313.0428126194
 20
12482.8877531062
 30
0.0
 40
2.000000000031126
100
AcDbArc
 50
330.0000000006
 51
60.0000000004
  0
LINE
  5
281
330
1F
100
AcDbEntity
  8
0
  6
Continuous
 62
     7
 48
50.0
370
    25
100
AcDbLine
 10
17228.3037202566
 20
12422.1153397468
 30
0.0
 11
17227.5537202566
 21
12420.8163016411
 31
0.0
  0
LINE
  5
282
330
1F
100
AcDbEntity
  8
0
  6
Continuous
 62
     7
 48
50.0
370
    25
100
AcDbLine
 10
17264.7928126194
 20
12399.3163016411
 30
0.0
 11
17265.5428126194
 21
12400.6153397467
 31
0.0
  0
LINE
  5
283
330
1F
100
AcDbEntity
  8
0
  6
Continuous
 62
     7
 48
50.0
370
    25
100
AcDbLine
 10
17264.7928126194
 20
12399.3163016411
 30
0.0
 11
17227.5537202566
 21
12420.8163016411
 31
0.0
  0
LINE
  5
284
330
1F
100
AcDbEntity
  8
0
  6
Continuous
 62
     7
 48
50.0
370
    25
100
AcDbLine
 10
17265.5428126194
 20
12400.6153397467
 30
0.0
 11
17228.3037202566
 21
12422.1153397468
 31
0.0
  0
LINE
  5
285
330
1F
100
AcDbEntity
  8
0
  6
Continuous
 62
     7
 48
50.0
370
    25
100
AcDbLine
 10
17268.274863427
 20
12401.3473905543
 30
0.0
 11
17269.5739015326
 21
12400.5973905544
 31
0.0
  0
ARC
  5
286
330
1F
100
AcDbEntity
  8
0
  6
Continuous
 62
     7
 48
2500.0
370
    25
100
AcDbCircle
 10
17266.5428126194
 20
12402.3473905543
 30
0.0
 40
3.499999999992908
100
AcDbArc
 50
240.0000000001
 51
330.0000000005
  0
ARC
  5
287
330
1F
100
AcDbEntity
  8
0
  6
Continuous
 62
     7
 48
2500.0
370
    25
100
AcDbCircle
 10
17266.5428126194
 20
12402.3473905543
 30
0.0
 40
2.000000000002462
100
AcDbArc
 50
240.0000000008
 51
330.0000000005
  0
ARC
  5
288
330
1F
100
AcDbEntity
  8
0
  6
Continuous
 62
     7
 48
2500.0
370
    25
100
AcDbCircle
 10
17229.3037202566
 20
12423.8473905543
 30
0.0
 40
1.999999999978767
100
AcDbArc
 50
149.9999999997
 51
240.0000000005
  0
ARC
  5
289
330
1F
100
AcDbEntity
  8
0
  6
Continuous
 62
     7
 48
2500.0
370
    25
100
AcDbCircle
 10
17229.3037202566
 20
12423.8473905543
 30
0.0
 40
3.500000000004179
100
AcDbArc
 50
149.9999999997
 51
240.0000000001
  0
LINE
  5
28A
330
1F
100
AcDbEntity
  8
0
  6
Continuous
 62
     7
 48
50.0
370
    25
100
AcDbLine
 10
17226.2726313434
 20
12425.5973905543
 30
0.0
 11
17227.5716694491
 21
12424.8473905543
 31
0.0
  0
LINE
  5
28B
330
1F
100
AcDbEntity
  8
0
  6
Continuous
 62
     7
 48
50.0
370
    25
100
AcDbLine
 10
17316.0739015327
 20
12481.1377531063
 30
0.0
 11
17269.5739015326
 21
12400.5973905544
 31
0.0
  0
LINE
  5
28C
330
1F
100
AcDbEntity
  8
0
  6
Continuous
 62
     7
 48
50.0
370
    25
100
AcDbLine
 10
17314.7748634269
 20
12481.8877531063
 30
0.0
 11
17268.274863427
 21
12401.3473905543
 31
0.0
  0
LINE
  5
28D
330
1F
100
AcDbEntity
  8
0
  6
Continuous
 62
     7
 48
50.0
370
    25
100
AcDbLine
 10
17235.8216694491
 20
12439.1368097168
 30
0.0
 11
17234.5226313434
 21
12439.8868097168
 31
0.0
  0
LINE
  5
28E
330
1F
100
AcDbEntity
  8
0
  6
Continuous
 62
     7
 48
50.0
370
    25
100
AcDbLine
 10
17227.5716694491
 20
12424.8473905543
 30
0.0
 11
17235.8216694491
 21
12439.1368097168
 31
0.0
  0
LINE
  5
28F
330
1F
100
AcDbEntity
  8
0
  6
Continuous
 62
     7
 48
50.0
370
    25
100
AcDbLine
 10
17226.2726313434
 20
12425.5973905543
 30
0.0
 11
17234.5226313434
 21
12439.8868097168
 31
0.0
  0
ARC
  5
290
330
1F
100
AcDbEntity
  8
0
  6
Continuous
 62
     7
 48
2500.0
370
    25
100
AcDbCircle
 10
17275.8037202566
 20
12504.3877531063
 30
0.0
 40
2.000000000024468
100
AcDbArc
 50
59.9999999997
 51
149.9999999992
  0
ARC
  5
291
330
1F
100
AcDbEntity
  8
0
  6
Continuous
 62
     7
 48
2500.0
370
    25
100
AcDbCircle
 10
17275.8037202566
 20
12504.3877531063
 30
0.0
 40
3.50000000001618
100
AcDbArc
 50
59.9999999999
 51
149.9999999999
  0
LINE
  5
292
330
1F
100
AcDbEntity
  8
0
  6
Continuous
 62
     7
 48
50.0
370
    25
100
AcDbLine
 10
16085.8620567928
 20
13172.3483339438
 30
0.0
 11
16087.1610948985
 21
13171.5983339438
 31
0.0
  0
LINE
  5
293
330
1F
100
AcDbEntity
  8
0
  6
Continuous
 62
     7
 48
50.0
370
    25
100
AcDbLine
 10
16085.8620567928
 20
13172.3483339438
 30
0.0
 11
16094.1120567928
 21
13186.6377531062
 31
0.0
  0
LINE
  5
294
330
1F
100
AcDbEntity
  8
0
  6
Continuous
 62
     7
 48
50.0
370
    25
100
AcDbLine
 10
16095.4110948985
 20
13185.8877531062
 30
0.0
 11
16094.1120567928
 21
13186.6377531062
 31
0.0
  0
LINE
  5
295
330
1F
100
AcDbEntity
  8
0
  6
Continuous
 62
     7
 48
50.0
370
    25
100
AcDbLine
 10
16087.1610948985
 20
13171.5983339438
 30
0.0
 11
16095.4110948985
 21
13185.8877531062
 31
0.0
  0
LINE
  5
296
330
1F
100
AcDbEntity
  8
0
  6
Continuous
 62
     7
 48
50.0
370
    25
100
AcDbLine
 10
16135.3822380687
 20
13165.1198039138
 30
0.0
 11
16136.1322380687
 21
13166.4188420195
 31
0.0
  0
LINE
  5
297
330
1F
100
AcDbEntity
  8
0
  6
Continuous
 62
     7
 48
50.0
370
    25
100
AcDbLine
 10
16098.893145706
 20
13187.9188420195
 30
0.0
 11
16098.143145706
 21
13186.6198039138
 31
0.0
  0
LINE
  5
298
330
1F
100
AcDbEntity
  8
0
  6
Continuous
 62
     7
 48
50.0
370
    25
100
AcDbLine
 10
16098.893145706
 20
13187.9188420195
 30
0.0
 11
16136.1322380687
 21
13166.4188420195
 31
0.0
  0
LINE
  5
299
330
1F
100
AcDbEntity
  8
0
  6
Continuous
 62
     7
 48
50.0
370
    25
100
AcDbLine
 10
16098.143145706
 20
13186.6198039138
 30
0.0
 11
16135.3822380687
 21
13165.1198039138
 31
0.0
  0
LINE
  5
29A
330
1F
100
AcDbEntity
  8
0
  6
Continuous
 62
     7
 48
50.0
370
    25
100
AcDbLine
 10
16137.413326982
 20
13161.6377531062
 30
0.0
 11
16136.1142888763
 21
13162.3877531062
 31
0.0
  0
ARC
  5
29B
330
1F
100
AcDbEntity
  8
0
  6
Continuous
 62
     7
 48
2500.0
370
    25
100
AcDbCircle
 10
16134.3822380687
 20
13163.3877531062
 30
0.0
 40
3.500000000030293
100
AcDbArc
 50
330.000000001
 51
60.0000000003
  0
ARC
  5
29C
330
1F
100
AcDbEntity
  8
0
  6
Continuous
 62
     7
 48
2500.0
370
    25
100
AcDbCircle
 10
16134.3822380687
 20
13163.3877531062
 30
0.0
 40
2.000000000032035
100
AcDbArc
 50
330.0000000005
 51
60.0000000003
  0
LINE
  5
29D
330
1F
100
AcDbEntity
  8
0
  6
Continuous
 62
     7
 48
50.0
370
    25
100
AcDbLine
 10
16049.643145706
 20
13102.6153397467
 30
0.0
 11
16048.893145706
 21
13101.316301641
 31
0.0
  0
LINE
  5
29E
330
1F
100
AcDbEntity
  8
0
  6
Continuous
 62
     7
 48
50.0
370
    25
100
AcDbLine
 10
16086.1322380688
 20
13079.8163016411
 30
0.0
 11
16086.8822380688
 21
13081.1153397467
 31
0.0
  0
LINE
  5
29F
330
1F
100
AcDbEntity
  8
0
  6
Continuous
 62
     7
 48
50.0
370
    25
100
AcDbLine
 10
16086.1322380688
 20
13079.8163016411
 30
0.0
 11
16048.893145706
 21
13101.316301641
 31
0.0
  0
LINE
  5
2A0
330
1F
100
AcDbEntity
  8
0
  6
Continuous
 62
     7
 48
50.0
370
    25
100
AcDbLine
 10
16086.8822380688
 20
13081.1153397467
 30
0.0
 11
16049.643145706
 21
13102.6153397467
 31
0.0
  0
LINE
  5
2A1
330
1F
100
AcDbEntity
  8
0
  6
Continuous
 62
     7
 48
50.0
370
    25
100
AcDbLine
 10
16089.6142888763
 20
13081.8473905543
 30
0.0
 11
16090.913326982
 21
13081.0973905543
 31
0.0
  0
ARC
  5
2A2
330
1F
100
AcDbEntity
  8
0
  6
Continuous
 62
     7
 48
2500.0
370
    25
100
AcDbCircle
 10
16087.8822380688
 20
13082.8473905543
 30
0.0
 40
3.499999999993817
100
AcDbArc
 50
240.0
 51
330.0000000005
  0
ARC
  5
2A3
330
1F
100
AcDbEntity
  8
0
  6
Continuous
 62
     7
 48
2500.0
370
    25
100
AcDbCircle
 10
16087.8822380688
 20
13082.8473905543
 30
0.0
 40
2.000000000008763
100
AcDbArc
 50
240.0000000008
 51
330.0000000006
  0
ARC
  5
2A4
330
1F
100
AcDbEntity
  8
0
  6
Continuous
 62
     7
 48
2500.0
370
    25
100
AcDbCircle
 10
16050.643145706
 20
13104.3473905543
 30
0.0
 40
3.50000000000145
100
AcDbArc
 50
149.9999999997
 51
240.0000000002
  0
LINE
  5
2A5
330
1F
100
AcDbEntity
  8
0
  6
Continuous
 62
     7
 48
50.0
370
    25
100
AcDbLine
 10
16047.6120567928
 20
13106.0973905543
 30
0.0
 11
16048.9110948985
 21
13105.3473905543
 31
0.0
  0
ARC
  5
2A6
330
1F
100
AcDbEntity
  8
0
  6
Continuous
 62
     7
 48
2500.0
370
    25
100
AcDbCircle
 10
16050.643145706
 20
13104.3473905543
 30
0.0
 40
1.999999999976413
100
AcDbArc
 50
149.9999999997
 51
240.0000000006
  0
LINE
  5
2A7
330
1F
100
AcDbEntity
  8
0
  6
Continuous
 62
     7
 48
50.0
370
    25
100
AcDbLine
 10
16057.1610948984
 20
13119.6368097167
 30
0.0
 11
16055.8620567928
 21
13120.3868097167
 31
0.0
  0
LINE
  5
2A8
330
1F
100
AcDbEntity
  8
0
  6
Continuous
 62
     7
 48
50.0
370
    25
100
AcDbLine
 10
16048.9110948985
 20
13105.3473905543
 30
0.0
 11
16057.1610948984
 21
13119.6368097167
 31
0.0
  0
LINE
  5
2A9
330
1F
100
AcDbEntity
  8
0
  6
Continuous
 62
     7
 48
50.0
370
    25
100
AcDbLine
 10
16047.6120567928
 20
13106.0973905543
 30
0.0
 11
16055.8620567928
 21
13120.3868097167
 31
0.0
  0
LINE
  5
2AA
330
1F
100
AcDbEntity
  8
0
  6
Continuous
 62
     7
 48
50.0
370
    25
100
AcDbLine
 10
16137.413326982
 20
13161.6377531062
 30
0.0
 11
16090.913326982
 21
13081.0973905543
 31
0.0
  0
LINE
  5
2AB
330
1F
100
AcDbEntity
  8
0
  6
Continuous
 62
     7
 48
50.0
370
    25
100
AcDbLine
 10
16136.1142888763
 20
13162.3877531062
 30
0.0
 11
16089.6142888763
 21
13081.8473905543
 31
0.0
  0
ARC
  5
2AC
330
1F
100
AcDbEntity
  8
0
  6
Continuous
 62
     7
 48
2500.0
370
    25
100
AcDbCircle
 10
16097.143145706
 20
13184.8877531062
 30
0.0
 40
3.50000000001709
100
AcDbArc
 50
59.9999999999
 51
149.9999999998
  0
ARC
  5
2AD
330
1F
100
AcDbEntity
  8
0
  6
Continuous
 62
     7
 48
2500.0
370
    25
100
AcDbCircle
 10
16097.143145706
 20
13184.8877531062
 30
0.0
 40
2.000000000024468
100
AcDbArc
 50
59.9999999997
 51
149.9999999992
  0
LINE
  5
2AE
330
1F
100
AcDbEntity
  8
0
  6
Continuous
 62
     7
 48
50.0
370
    25
100
AcDbLine
 10
14195.5138451165
 20
14166.1691873242
 30
0.0
 11
15737.0390638529
 21
13276.1691873241
 31
0.0
  0
LINE
  5
2AF
330
1F
100
AcDbEntity
  8
0
  6
Continuous
 62
     7
 48
50.0
370
    25
100
AcDbLine
 10
14197.7638451166
 20
14170.0663016412
 30
0.0
 11
14195.5138451165
 21
14166.1691873242
 31
0.0
  0
LINE
  5
2B0
330
1F
100
AcDbEntity
  8
0
  6
Continuous
 62
     7
 48
50.0
370
    25
100
AcDbLine
 10
14197.7638451166
 20
14170.0663016412
 30
0.0
 11
14213.7853150866
 21
14160.8163016412
 31
0.0
  0
LINE
  5
2B1
330
1F
100
AcDbEntity
  8
0
  6
Continuous
 62
     7
 48
50.0
370
    25
100
AcDbLine
 10
14251.0244074493
 20
14139.3163016412
 30
0.0
 11
15392.4458896372
 21
13480.3163016412
 31
0.0
  0
LINE
  5
2B2
330
1F
100
AcDbEntity
  8
0
  6
Continuous
 62
     7
 48
50.0
370
    25
100
AcDbLine
 10
15429.684982
 20
13458.8163016411
 30
0.0
 11
16048.8931457058
 21
13101.3163016407
 31
0.0
  0
LINE
  5
2B3
330
1F
100
AcDbEntity
  8
0
  6
Continuous
 62
     7
 48
50.0
370
    25
100
AcDbLine
 10
15739.2890638529
 20
13280.0663016412
 30
0.0
 11
15737.0390638529
 21
13276.1691873241
 31
0.0
  0
LINE
  5
2B4
330
1F
100
AcDbEntity
  8
0
  6
Continuous
 62
     7
 48
50.0
370
    25
100
AcDbLine
 10
14140.2638451165
 20
14070.473380206
 30
0.0
 11
15681.7890638528
 21
13180.473380206
 31
0.0
  0
LINE
  5
2B5
330
1F
100
AcDbEntity
  8
0
  6
Continuous
 62
     7
 48
50.0
370
    25
100
AcDbLine
 10
14142.5138451166
 20
14074.370494523
 30
0.0
 11
14140.2638451165
 21
14070.473380206
 31
0.0
  0
LINE
  5
2B6
330
1F
100
AcDbEntity
  8
0
  6
Continuous
 62
     7
 48
50.0
370
    25
100
AcDbLine
 10
14142.5138451166
 20
14074.370494523
 30
0.0
 11
15684.0390638529
 21
13184.370494523
 31
0.0
  0
LINE
  5
2B7
330
1F
100
AcDbEntity
  8
0
  6
Continuous
 62
     7
 48
50.0
370
    25
100
AcDbLine
 10
15684.0390638529
 20
13184.370494523
 30
0.0
 11
15681.7890638528
 21
13180.473380206
 31
0.0
  0
LINE
  5
2B8
330
1F
100
AcDbEntity
  8
0
  6
Continuous
 62
     7
 48
50.0
370
    25
100
AcDbLine
 10
14150.2638451166
 20
14087.7938882816
 30
0.0
 11
14142.5138451166
 21
14074.370494523
 31
0.0
  0
LINE
  5
2B9
330
1F
100
AcDbEntity
  8
0
  6
Continuous
 62
     7
 48
50.0
370
    25
100
AcDbLine
 10
14150.2638451166
 20
14087.7938882816
 30
0.0
 11
15691.7890638529
 21
13197.7938882817
 31
0.0
  0
LINE
  5
2BA
330
1F
100
AcDbEntity
  8
0
  6
Continuous
 62
     7
 48
50.0
370
    25
100
AcDbLine
 10
15691.7890638529
 20
13197.7938882817
 30
0.0
 11
15684.0390638529
 21
13184.370494523
 31
0.0
  0
LINE
  5
2BB
330
1F
100
AcDbEntity
  8
0
  6
Continuous
 62
     7
 48
50.0
370
    25
100
AcDbLine
 10
14195.5138451165
 20
14166.1691873242
 30
0.0
 11
14187.7638451165
 21
14152.7457935655
 31
0.0
  0
LINE
  5
2BC
330
1F
100
AcDbEntity
  8
0
  6
Continuous
 62
     7
 48
50.0
370
    25
100
AcDbLine
 10
15737.0390638529
 20
13276.1691873241
 30
0.0
 11
15729.2890638529
 21
13262.7457935655
 31
0.0
  0
LINE
  5
2BD
330
1F
100
AcDbEntity
  8
0
  6
Continuous
 62
     7
 48
50.0
370
    25
100
AcDbLine
 10
14187.7638451165
 20
14152.7457935655
 30
0.0
 11
15729.2890638529
 21
13262.7457935655
 31
0.0
  0
LINE
  5
2BE
330
1F
100
AcDbEntity
  8
0
  6
Continuous
 62
     7
 48
50.0
370
    25
100
AcDbLine
 10
14150.2638451165
 20
14087.7938882817
 30
0.0
 11
14187.7638451165
 21
14152.7457935655
 31
0.0
  0
ARC
  5
2BF
330
1F
100
AcDbEntity
  8
0
  6
Continuous
 62
     7
 48
2500.0
370
    25
100
AcDbCircle
 10
14596.3973818842
 20
13873.5198409236
 30
0.0
 40
6.50000000001307
100
AcDbArc
 50
239.9999999998
 51
60.0000000002
  0
LINE
  5
2C0
330
1F
100
AcDbEntity
  8
0
  6
Continuous
 62
     7
 48
50.0
370
    25
100
AcDbLine
 10
14524.3031717549
 20
13922.6490060482
 30
0.0
 11
14599.6473818842
 21
13879.1490060482
 31
0.0
  0
ARC
  5
2C1
330
1F
100
AcDbEntity
  8
0
  6
Continuous
 62
     7
 48
2500.0
370
    25
100
AcDbCircle
 10
14521.0531717549
 20
13917.0198409236
 30
0.0
 40
6.500000000000693
100
AcDbArc
 50
60.0000000002
 51
240.0000000001
  0
LINE
  5
2C2
330
1F
100
AcDbEntity
  8
0
  6
Continuous
 62
     7
 48
50.0
370
    25
100
AcDbLine
 10
14593.1473818842
 20
13867.890675799
 30
0.0
 11
14517.8031717549
 21
13911.390675799
 31
0.0
  0
CIRCLE
  5
2C3
330
1F
100
AcDbEntity
  8
0
  6
Continuous
 62
     7
 48
2500.0
370
    25
100
AcDbCircle
 10
15701.3884287583
 20
13264.4204760182
 30
0.0
 40
6.499999999999427
  0
CIRCLE
  5
2C4
330
1F
100
AcDbEntity
  8
0
  6
Continuous
 62
     7
 48
2500.0
370
    25
100
AcDbCircle
 10
15676.3884287583
 20
13221.119205829
 30
0.0
 40
6.500000000002577
  0
CIRCLE
  5
2C5
330
1F
100
AcDbEntity
  8
0
  6
Continuous
 62
     7
 48
2500.0
370
    25
100
AcDbCircle
 10
15571.4846181906
 20
13339.4204760182
 30
0.0
 40
6.500000000000337
  0
CIRCLE
  5
2C6
330
1F
100
AcDbEntity
  8
0
  6
Continuous
 62
     7
 48
2500.0
370
    25
100
AcDbCircle
 10
15546.4846181906
 20
13296.119205829
 30
0.0
 40
6.500000000002577
  0
ARC
  5
2C7
330
1F
100
AcDbEntity
  8
0
  6
Continuous
 62
     7
 48
2500.0
370
    25
100
AcDbCircle
 10
14977.4485595493
 20
13653.5198409236
 30
0.0
 40
6.500000000000872
100
AcDbArc
 50
240.0000000003
 51
59.9999999999
  0
LINE
  5
2C8
330
1F
100
AcDbEntity
  8
0
  6
Continuous
 62
     7
 48
50.0
370
    25
100
AcDbLine
 10
14905.3543494201
 20
13702.6490060482
 30
0.0
 11
14980.6985595493
 21
13659.1490060482
 31
0.0
  0
ARC
  5
2C9
330
1F
100
AcDbEntity
  8
0
  6
Continuous
 62
     7
 48
2500.0
370
    25
100
AcDbCircle
 10
14902.1043494201
 20
13697.0198409236
 30
0.0
 40
6.499999999998161
100
AcDbArc
 50
59.9999999999
 51
239.9999999998
  0
LINE
  5
2CA
330
1F
100
AcDbEntity
  8
0
  6
Continuous
 62
     7
 48
50.0
370
    25
100
AcDbLine
 10
14974.1985595493
 20
13647.890675799
 30
0.0
 11
14898.8543494201
 21
13691.390675799
 31
0.0
  0
ARC
  5
2CB
330
1F
100
AcDbEntity
  8
0
  6
Continuous
 62
     7
 48
2500.0
370
    25
100
AcDbCircle
 10
14239.594915525
 20
14079.5198409236
 30
0.0
 40
6.500000000017778
100
AcDbArc
 50
60.0000000003
 51
239.9999999999
  0
LINE
  5
2CC
330
1F
100
AcDbEntity
  8
0
  6
Continuous
 62
     7
 48
50.0
370
    25
100
AcDbLine
 10
14268.387855465
 20
14055.390675799
 30
0.0
 11
14236.344915525
 21
14073.8906757989
 31
0.0
  0
ARC
  5
2CD
330
1F
100
AcDbEntity
  8
0
  6
Continuous
 62
     7
 48
2500.0
370
    25
100
AcDbCircle
 10
14271.637855465
 20
14061.0198409236
 30
0.0
 40
6.500000000004396
100
AcDbArc
 50
240.0
 51
60.0
  0
LINE
  5
2CE
330
1F
100
AcDbEntity
  8
0
  6
Continuous
 62
     7
 48
50.0
370
    25
100
AcDbLine
 10
14242.844915525
 20
14085.1490060482
 30
0.0
 11
14274.887855465
 21
14066.6490060482
 31
0.0
  0
ARC
  5
2CF
330
1F
100
AcDbEntity
  8
0
  6
Continuous
 62
     7
 48
2500.0
370
    25
100
AcDbCircle
 10
15283.1555270852
 20
13477.0198409236
 30
0.0
 40
6.500000000026403
100
AcDbArc
 50
59.9999999998
 51
239.9999999999
  0
LINE
  5
2D0
330
1F
100
AcDbEntity
  8
0
  6
Continuous
 62
     7
 48
50.0
370
    25
100
AcDbLine
 10
15355.2497372145
 20
13427.890675799
 30
0.0
 11
15279.9055270852
 21
13471.390675799
 31
0.0
  0
ARC
  5
2D1
330
1F
100
AcDbEntity
  8
0
  6
Continuous
 62
     7
 48
2500.0
370
    25
100
AcDbCircle
 10
15358.4997372145
 20
13433.5198409236
 30
0.0
 40
6.500000000009788
100
AcDbArc
 50
240.0000000001
 51
60.0
  0
LINE
  5
2D2
330
1F
100
AcDbEntity
  8
0
  6
Continuous
 62
     7
 48
50.0
370
    25
100
AcDbLine
 10
15286.4055270853
 20
13482.6490060482
 30
0.0
 11
15361.7497372145
 21
13439.1490060482
 31
0.0
  0
ARC
  5
2D3
330
1F
100
AcDbEntity
  8
0
  6
Continuous
 62
     7
 48
2500.0
370
    25
100
AcDbCircle
 10
15639.9579934445
 20
13271.0198409236
 30
0.0
 40
6.499999999999783
100
AcDbArc
 50
239.9999999998
 51
60.0000000002
  0
LINE
  5
2D4
330
1F
100
AcDbEntity
  8
0
  6
Continuous
 62
     7
 48
50.0
370
    25
100
AcDbLine
 10
15611.1650535044
 20
13295.1490060482
 30
0.0
 11
15643.2079934444
 21
13276.6490060482
 31
0.0
  0
ARC
  5
2D5
330
1F
100
AcDbEntity
  8
0
  6
Continuous
 62
     7
 48
2500.0
370
    25
100
AcDbCircle
 10
15607.9150535044
 20
13289.5198409236
 30
0.0
 40
6.500000000021303
100
AcDbArc
 50
60.0000000001
 51
240.0
  0
LINE
  5
2D6
330
1F
100
AcDbEntity
  8
0
  6
Continuous
 62
     7
 48
50.0
370
    25
100
AcDbLine
 10
15636.7079934444
 20
13265.390675799
 30
0.0
 11
15604.6650535044
 21
13283.8906757989
 31
0.0
  0
CIRCLE
  5
2D7
330
1F
100
AcDbEntity
  8
0
  6
Continuous
 62
     7
 48
2500.0
370
    25
100
AcDbCircle
 10
14178.1644802112
 20
14086.119205829
 30
0.0
 40
6.499999999999427
  0
CIRCLE
  5
2D8
330
1F
100
AcDbEntity
  8
0
  6
Continuous
 62
     7
 48
2500.0
370
    25
100
AcDbCircle
 10
14203.1644802112
 20
14129.4204760182
 30
0.0
 40
6.499999999997186
  0
CIRCLE
  5
2D9
330
1F
100
AcDbEntity
  8
0
  6
Continuous
 62
     7
 48
2500.0
370
    25
100
AcDbCircle
 10
14333.0682907788
 20
14054.4204760182
 30
0.0
 40
6.499999999999427
  0
CIRCLE
  5
2DA
330
1F
100
AcDbEntity
  8
0
  6
Continuous
 62
     7
 48
2500.0
370
    25
100
AcDbCircle
 10
14308.0682907788
 20
14011.1192058289
 30
0.0
 40
6.499999999999427
  0
LINE
  5
2DB
330
1F
100
AcDbEntity
  8
0
  6
Continuous
 62
     7
 48
50.0
370
    25
100
AcDbLine
 10
15737.0390638529
 20
13276.1691873237
 30
0.0
 11
17278.5642825892
 21
12386.1691873236
 31
0.0
  0
LINE
  5
2DC
330
1F
100
AcDbEntity
  8
0
  6
Continuous
 62
     7
 48
50.0
370
    25
100
AcDbLine
 10
16086.1322380686
 20
13079.8163016407
 30
0.0
 11
17227.5537202564
 21
12420.8163016407
 31
0.0
  0
LINE
  5
2DD
330
1F
100
AcDbEntity
  8
0
  6
Continuous
 62
     7
 48
50.0
370
    25
100
AcDbLine
 10
17264.7928126192
 20
12399.3163016407
 30
0.0
 11
17280.8142825892
 21
12390.0663016407
 31
0.0
  0
LINE
  5
2DE
330
1F
100
AcDbEntity
  8
0
  6
Continuous
 62
     7
 48
50.0
370
    25
100
AcDbLine
 10
17280.8142825892
 20
12390.0663016407
 30
0.0
 11
17278.5642825892
 21
12386.1691873236
 31
0.0
  0
LINE
  5
2DF
330
1F
100
AcDbEntity
  8
0
  6
Continuous
 62
     7
 48
50.0
370
    25
100
AcDbLine
 10
15681.7890638529
 20
13180.4733802055
 30
0.0
 11
17223.3142825892
 21
12290.4733802055
 31
0.0
  0
LINE
  5
2E0
330
1F
100
AcDbEntity
  8
0
  6
Continuous
 62
     7
 48
50.0
370
    25
100
AcDbLine
 10
15684.0390638529
 20
13184.3704945225
 30
0.0
 11
17225.5642825892
 21
12294.3704945225
 31
0.0
  0
LINE
  5
2E1
330
1F
100
AcDbEntity
  8
0
  6
Continuous
 62
     7
 48
50.0
370
    25
100
AcDbLine
 10
17225.5642825892
 20
12294.3704945225
 30
0.0
 11
17223.3142825892
 21
12290.4733802055
 31
0.0
  0
LINE
  5
2E2
330
1F
100
AcDbEntity
  8
0
  6
Continuous
 62
     7
 48
50.0
370
    25
100
AcDbLine
 10
17233.3142825892
 20
12307.7938882812
 30
0.0
 11
17225.5642825892
 21
12294.3704945225
 31
0.0
  0
LINE
  5
2E3
330
1F
100
AcDbEntity
  8
0
  6
Continuous
 62
     7
 48
50.0
370
    25
100
AcDbLine
 10
15691.7890638529
 20
13197.7938882812
 30
0.0
 11
17233.3142825892
 21
12307.7938882812
 31
0.0
  0
LINE
  5
2E4
330
1F
100
AcDbEntity
  8
0
  6
Continuous
 62
     7
 48
50.0
370
    25
100
AcDbLine
 10
15729.2890638528
 20
13262.745793565
 30
0.0
 11
17270.8142825892
 21
12372.745793565
 31
0.0
  0
LINE
  5
2E5
330
1F
100
AcDbEntity
  8
0
  6
Continuous
 62
     7
 48
50.0
370
    25
100
AcDbLine
 10
17278.5642825892
 20
12386.1691873236
 30
0.0
 11
17270.8142825892
 21
12372.745793565
 31
0.0
  0
LINE
  5
2E6
330
1F
100
AcDbEntity
  8
0
  6
Continuous
 62
     7
 48
50.0
370
    25
100
AcDbLine
 10
17233.3142825892
 20
12307.7938882812
 30
0.0
 11
17270.8142825892
 21
12372.745793565
 31
0.0
  0
ARC
  5
2E7
330
1F
100
AcDbEntity
  8
0
  6
Continuous
 62
     7
 48
2500.0
370
    25
100
AcDbCircle
 10
16137.9226006205
 20
12983.5198409231
 30
0.0
 40
6.500000000012404
100
AcDbArc
 50
239.9999999998
 51
60.0000000002
  0
LINE
  5
2E8
330
1F
100
AcDbEntity
  8
0
  6
Continuous
 62
     7
 48
50.0
370
    25
100
AcDbLine
 10
16065.8283904912
 20
13032.6490060477
 30
0.0
 11
16141.1726006205
 21
12989.1490060477
 31
0.0
  0
ARC
  5
2E9
330
1F
100
AcDbEntity
  8
0
  6
Continuous
 62
     7
 48
2500.0
370
    25
100
AcDbCircle
 10
16062.5783904912
 20
13027.0198409231
 30
0.0
 40
6.500000000003421
100
AcDbArc
 50
60.0000000001
 51
240.0000000001
  0
LINE
  5
2EA
330
1F
100
AcDbEntity
  8
0
  6
Continuous
 62
     7
 48
50.0
370
    25
100
AcDbLine
 10
16134.6726006205
 20
12977.8906757985
 30
0.0
 11
16059.3283904912
 21
13021.3906757985
 31
0.0
  0
CIRCLE
  5
2EB
330
1F
100
AcDbEntity
  8
0
  6
Continuous
 62
     7
 48
2500.0
370
    25
100
AcDbCircle
 10
17242.9136474946
 20
12374.4204760177
 30
0.0
 40
6.499999999994944
  0
CIRCLE
  5
2EC
330
1F
100
AcDbEntity
  8
0
  6
Continuous
 62
     7
 48
2500.0
370
    25
100
AcDbCircle
 10
17217.9136474946
 20
12331.1192058285
 30
0.0
 40
6.499999999997186
  0
CIRCLE
  5
2ED
330
1F
100
AcDbEntity
  8
0
  6
Continuous
 62
     7
 48
2500.0
370
    25
100
AcDbCircle
 10
17113.0098369269
 20
12449.4204760177
 30
0.0
 40
6.500000000003487
  0
CIRCLE
  5
2EE
330
1F
100
AcDbEntity
  8
0
  6
Continuous
 62
     7
 48
2500.0
370
    25
100
AcDbCircle
 10
17088.0098369269
 20
12406.1192058285
 30
0.0
 40
6.500000000001246
  0
ARC
  5
2EF
330
1F
100
AcDbEntity
  8
0
  6
Continuous
 62
     7
 48
2500.0
370
    25
100
AcDbCircle
 10
16518.9737782856
 20
12763.5198409231
 30
0.0
 40
6.500000000001782
100
AcDbArc
 50
240.0000000003
 51
59.9999999999
  0
LINE
  5
2F0
330
1F
100
AcDbEntity
  8
0
  6
Continuous
 62
     7
 48
50.0
370
    25
100
AcDbLine
 10
16446.8795681564
 20
12812.6490060477
 30
0.0
 11
16522.2237782856
 21
12769.1490060477
 31
0.0
  0
ARC
  5
2F1
330
1F
100
AcDbEntity
  8
0
  6
Continuous
 62
     7
 48
2500.0
370
    25
100
AcDbCircle
 10
16443.6295681564
 20
12807.0198409231
 30
0.0
 40
6.499999999996586
100
AcDbArc
 50
59.9999999999
 51
239.9999999998
  0
LINE
  5
2F2
330
1F
100
AcDbEntity
  8
0
  6
Continuous
 62
     7
 48
50.0
370
    25
100
AcDbLine
 10
16515.7237782857
 20
12757.8906757985
 30
0.0
 11
16440.3795681564
 21
12801.3906757985
 31
0.0
  0
ARC
  5
2F3
330
1F
100
AcDbEntity
  8
0
  6
Continuous
 62
     7
 48
2500.0
370
    25
100
AcDbCircle
 10
15781.1201342613
 20
13189.5198409231
 30
0.0
 40
6.500000000020506
100
AcDbArc
 50
60.0000000003
 51
239.9999999999
  0
LINE
  5
2F4
330
1F
100
AcDbEntity
  8
0
  6
Continuous
 62
     7
 48
50.0
370
    25
100
AcDbLine
 10
15809.9130742013
 20
13165.3906757985
 30
0.0
 11
15777.8701342613
 21
13183.8906757985
 31
0.0
  0
ARC
  5
2F5
330
1F
100
AcDbEntity
  8
0
  6
Continuous
 62
     7
 48
2500.0
370
    25
100
AcDbCircle
 10
15813.1630742013
 20
13171.0198409231
 30
0.0
 40
6.500000000006882
100
AcDbArc
 50
240.0
 51
60.0
  0
LINE
  5
2F6
330
1F
100
AcDbEntity
  8
0
  6
Continuous
 62
     7
 48
50.0
370
    25
100
AcDbLine
 10
15784.3701342613
 20
13195.1490060477
 30
0.0
 11
15816.4130742013
 21
13176.6490060477
 31
0.0
  0
ARC
  5
2F7
330
1F
100
AcDbEntity
  8
0
  6
Continuous
 62
     7
 48
2500.0
370
    25
100
AcDbCircle
 10
16824.6807458216
 20
12587.0198409231
 30
0.0
 40
6.500000000023008
100
AcDbArc
 50
59.9999999998
 51
239.9999999999
  0
LINE
  5
2F8
330
1F
100
AcDbEntity
  8
0
  6
Continuous
 62
     7
 48
50.0
370
    25
100
AcDbLine
 10
16896.7749559508
 20
12537.8906757985
 30
0.0
 11
16821.4307458215
 21
12581.3906757985
 31
0.0
  0
ARC
  5
2F9
330
1F
100
AcDbEntity
  8
0
  6
Continuous
 62
     7
 48
2500.0
370
    25
100
AcDbCircle
 10
16900.0249559508
 20
12543.5198409231
 30
0.0
 40
6.500000000007969
100
AcDbArc
 50
240.0000000001
 51
60.0000000001
  0
LINE
  5
2FA
330
1F
100
AcDbEntity
  8
0
  6
Continuous
 62
     7
 48
50.0
370
    25
100
AcDbLine
 10
16827.9307458216
 20
12592.6490060477
 30
0.0
 11
16903.2749559508
 21
12549.1490060477
 31
0.0
  0
ARC
  5
2FB
330
1F
100
AcDbEntity
  8
0
  6
Continuous
 62
     7
 48
2500.0
370
    25
100
AcDbCircle
 10
17181.4832121808
 20
12381.0198409231
 30
0.0
 40
6.499999999999118
100
AcDbArc
 50
239.9999999998
 51
60.0000000002
  0
LINE
  5
2FC
330
1F
100
AcDbEntity
  8
0
  6
Continuous
 62
     7
 48
50.0
370
    25
100
AcDbLine
 10
17152.6902722407
 20
12405.1490060477
 30
0.0
 11
17184.7332121807
 21
12386.6490060477
 31
0.0
  0
ARC
  5
2FD
330
1F
100
AcDbEntity
  8
0
  6
Continuous
 62
     7
 48
2500.0
370
    25
100
AcDbCircle
 10
17149.4402722407
 20
12399.5198409231
 30
0.0
 40
6.500000000016577
100
AcDbArc
 50
60.0000000001
 51
240.0
  0
LINE
  5
2FE
330
1F
100
AcDbEntity
  8
0
  6
Continuous
 62
     7
 48
50.0
370
    25
100
AcDbLine
 10
17178.2332121807
 20
12375.3906757985
 30
0.0
 11
17146.1902722407
 21
12393.8906757985
 31
0.0
  0
CIRCLE
  5
2FF
330
1F
100
AcDbEntity
  8
0
  6
Continuous
 62
     7
 48
2500.0
370
    25
100
AcDbCircle
 10
15719.6896989475
 20
13196.1192058285
 30
0.0
 40
6.500000000001246
  0
CIRCLE
  5
300
330
1F
100
AcDbEntity
  8
0
  6
Continuous
 62
     7
 48
2500.0
370
    25
100
AcDbCircle
 10
15744.6896989475
 20
13239.4204760177
 30
0.0
 40
6.500000000001246
  0
CIRCLE
  5
301
330
1F
100
AcDbEntity
  8
0
  6
Continuous
 62
     7
 48
2500.0
370
    25
100
AcDbCircle
 10
15874.5935095151
 20
13164.4204760177
 30
0.0
 40
6.499999999998762
  0
CIRCLE
  5
302
330
1F
100
AcDbEntity
  8
0
  6
Continuous
 62
     7
 48
2500.0
370
    25
100
AcDbCircle
 10
15849.5935095152
 20
13121.1192058285
 30
0.0
 40
6.499999999999671
  0
LINE
  5
303
330
1F
100
AcDbEntity
  8
0
  6
Continuous
 62
     7
 48
50.0
370
    25
100
AcDbLine
 10
14616.8528508861
 20
13940.2698409155
 30
0.0
 11
14612.3528508861
 21
13940.2698409155
 31
0.0
  0
LINE
  5
304
330
1F
100
AcDbEntity
  8
0
  6
Continuous
 62
     7
 48
50.0
370
    25
100
AcDbLine
 10
14616.8528508861
 20
13940.2698409155
 30
0.0
 11
14616.8528508861
 21
13928.1051513457
 31
0.0
  0
LINE
  5
305
330
1F
100
AcDbEntity
  8
0
  6
Continuous
 62
     7
 48
50.0
370
    25
100
AcDbLine
 10
14616.8528508861
 20
13795.3145894321
 30
0.0
 11
14616.8528508861
 21
12610.2698409153
 31
0.0
  0
LINE
  5
306
330
1F
100
AcDbEntity
  8
0
  6
Continuous
 62
     7
 48
50.0
370
    25
100
AcDbLine
 10
14612.3528508861
 20
13940.2698409155
 30
0.0
 11
14595.782990493
 21
13940.2698409155
 31
0.0
  0
LINE
  5
307
330
1F
100
AcDbEntity
  8
0
  6
Continuous
 62
     7
 48
50.0
370
    25
100
AcDbLine
 10
14568.8528508861
 20
13896.9282368095
 30
0.0
 11
14568.8528508861
 21
13881.9171298105
 31
0.0
  0
LINE
  5
308
330
1F
100
AcDbEntity
  8
0
  6
Continuous
 62
     7
 48
50.0
370
    25
100
AcDbLine
 10
14555.8528508861
 20
13904.4337903089
 30
0.0
 11
14555.8528508861
 21
13889.42268331
 31
0.0
  0
ARC
  5
309
330
1F
100
AcDbEntity
  8
0
  6
Continuous
 62
     7
 48
2500.0
370
    25
100
AcDbCircle
 10
14562.3528508861
 20
12857.7698409155
 30
0.0
 40
6.500000000027285
100
AcDbArc
 50
180.0000000007
 51
0.0000000002
  0
LINE
  5
30A
330
1F
100
AcDbEntity
  8
0
  6
Continuous
 62
     7
 48
50.0
370
    25
100
AcDbLine
 10
14568.8528508861
 20
12862.7698409155
 30
0.0
 11
14568.8528508861
 21
12857.7698409155
 31
0.0
  0
ARC
  5
30B
330
1F
100
AcDbEntity
  8
0
  6
Continuous
 62
     7
 48
2500.0
370
    25
100
AcDbCircle
 10
14562.3528508861
 20
12862.7698409155
 30
0.0
 40
6.500000000041837
100
AcDbArc
 50
359.9999999917
 51
180.000000002
  0
LINE
  5
30C
330
1F
100
AcDbEntity
  8
0
  6
Continuous
 62
     7
 48
50.0
370
    25
100
AcDbLine
 10
14555.8528508861
 20
12862.7698409155
 30
0.0
 11
14555.8528508861
 21
12857.7698409155
 31
0.0
  0
ARC
  5
30D
330
1F
100
AcDbEntity
  8
0
  6
Continuous
 62
     7
 48
2500.0
370
    25
100
AcDbCircle
 10
14562.3528508861
 20
12932.7698409155
 30
0.0
 40
6.499999999996362
100
AcDbArc
 50
0.0000000038
 51
180.0000000039
  0
LINE
  5
30E
330
1F
100
AcDbEntity
  8
0
  6
Continuous
 62
     7
 48
50.0
370
    25
100
AcDbLine
 10
14555.8528508861
 20
12927.7698409155
 30
0.0
 11
14555.8528508861
 21
12932.7698409155
 31
0.0
  0
ARC
  5
30F
330
1F
100
AcDbEntity
  8
0
  6
Continuous
 62
     7
 48
2500.0
370
    25
100
AcDbCircle
 10
14562.3528508861
 20
12927.7698409155
 30
0.0
 40
6.500000000003638
100
AcDbArc
 50
180.0000000079
 51
0.0000000051
  0
LINE
  5
310
330
1F
100
AcDbEntity
  8
0
  6
Continuous
 62
     7
 48
50.0
370
    25
100
AcDbLine
 10
14568.8528508861
 20
12927.7698409155
 30
0.0
 11
14568.8528508861
 21
12932.7698409155
 31
0.0
  0
ARC
  5
311
330
1F
100
AcDbEntity
  8
0
  6
Continuous
 62
     7
 48
2500.0
370
    25
100
AcDbCircle
 10
14562.3528508861
 20
13002.7698409155
 30
0.0
 40
6.499999999992724
100
AcDbArc
 50
359.9999999922
 51
179.9999999945
  0
LINE
  5
312
330
1F
100
AcDbEntity
  8
0
  6
Continuous
 62
     7
 48
50.0
370
    25
100
AcDbLine
 10
14555.8528508861
 20
12997.7698409155
 30
0.0
 11
14555.8528508861
 21
13002.7698409155
 31
0.0
  0
ARC
  5
313
330
1F
100
AcDbEntity
  8
0
  6
Continuous
 62
     7
 48
2500.0
370
    25
100
AcDbCircle
 10
14562.3528508861
 20
12997.7698409155
 30
0.0
 40
6.500000000009095
100
AcDbArc
 50
180.0000000075
 51
0.0000000071
  0
LINE
  5
314
330
1F
100
AcDbEntity
  8
0
  6
Continuous
 62
     7
 48
50.0
370
    25
100
AcDbLine
 10
14568.8528508861
 20
12997.7698409155
 30
0.0
 11
14568.8528508861
 21
13002.7698409155
 31
0.0
  0
ARC
  5
315
330
1F
100
AcDbEntity
  8
0
  6
Continuous
 62
     7
 48
2500.0
370
    25
100
AcDbCircle
 10
14562.3528508861
 20
13767.7698409155
 30
0.0
 40
6.50000000001819
100
AcDbArc
 50
180.0000000009
 51
359.9999999981
  0
LINE
  5
316
330
1F
100
AcDbEntity
  8
0
  6
Continuous
 62
     7
 48
50.0
370
    25
100
AcDbLine
 10
14568.8528508861
 20
13772.7698409155
 30
0.0
 11
14568.8528508861
 21
13767.7698409155
 31
0.0
  0
ARC
  5
317
330
1F
100
AcDbEntity
  8
0
  6
Continuous
 62
     7
 48
2500.0
370
    25
100
AcDbCircle
 10
14562.3528508861
 20
13772.7698409155
 30
0.0
 40
6.499999999998181
100
AcDbArc
 50
0.000000004
 51
179.9999999952
  0
LINE
  5
318
330
1F
100
AcDbEntity
  8
0
  6
Continuous
 62
     7
 48
50.0
370
    25
100
AcDbLine
 10
14555.8528508861
 20
13772.7698409155
 30
0.0
 11
14555.8528508861
 21
13767.7698409155
 31
0.0
  0
ARC
  5
319
330
1F
100
AcDbEntity
  8
0
  6
Continuous
 62
     7
 48
2500.0
370
    25
100
AcDbCircle
 10
14562.3528508861
 20
13717.7698409155
 30
0.0
 40
6.500000000009095
100
AcDbArc
 50
179.9999999994
 51
0.0000000022
  0
LINE
  5
31A
330
1F
100
AcDbEntity
  8
0
  6
Continuous
 62
     7
 48
50.0
370
    25
100
AcDbLine
 10
14568.8528508861
 20
13722.7698409155
 30
0.0
 11
14568.8528508861
 21
13717.7698409155
 31
0.0
  0
ARC
  5
31B
330
1F
100
AcDbEntity
  8
0
  6
Continuous
 62
     7
 48
2500.0
370
    25
100
AcDbCircle
 10
14562.3528508861
 20
13722.7698409155
 30
0.0
 40
6.499999999985448
100
AcDbArc
 50
0.0000000045
 51
179.9999999981
  0
LINE
  5
31C
330
1F
100
AcDbEntity
  8
0
  6
Continuous
 62
     7
 48
50.0
370
    25
100
AcDbLine
 10
14555.8528508861
 20
13722.7698409155
 30
0.0
 11
14555.8528508861
 21
13717.7698409155
 31
0.0
  0
LINE
  5
31D
330
1F
100
AcDbEntity
  8
0
  6
Continuous
 62
     7
 48
50.0
370
    25
100
AcDbLine
 10
14507.8528508861
 20
13858.2457687737
 30
0.0
 11
14507.8528508861
 21
12610.2698409153
 31
0.0
  0
LINE
  5
31E
330
1F
100
AcDbEntity
  8
0
  6
Continuous
 62
     7
 48
50.0
370
    25
100
AcDbLine
 10
16915.3528508861
 20
12610.2698409153
 30
0.0
 11
16899.4105645591
 21
12610.2698409153
 31
0.0
  0
LINE
  5
31F
330
1F
100
AcDbEntity
  8
0
  6
Continuous
 62
     7
 48
50.0
370
    25
100
AcDbLine
 10
16915.3528508861
 20
10240.2698409154
 30
0.0
 11
16809.3528508862
 21
10240.2698409154
 31
0.0
  0
LINE
  5
320
330
1F
100
AcDbEntity
  8
0
  6
Continuous
 62
     7
 48
50.0
370
    25
100
AcDbLine
 10
16859.8528508862
 20
12473.7698409153
 30
0.0
 11
16864.8528508861
 21
12473.7698409153
 31
0.0
  0
ARC
  5
321
330
1F
100
AcDbEntity
  8
0
  6
Continuous
 62
     7
 48
2500.0
370
    25
100
AcDbCircle
 10
16864.8528508861
 20
12480.2698409153
 30
0.0
 40
6.500000000001819
100
AcDbArc
 50
270.0
 51
90.0000000001
  0
LINE
  5
322
330
1F
100
AcDbEntity
  8
0
  6
Continuous
 62
     7
 48
50.0
370
    25
100
AcDbLine
 10
16864.8528508861
 20
12486.7698409153
 30
0.0
 11
16859.8528508862
 21
12486.7698409153
 31
0.0
  0
ARC
  5
323
330
1F
100
AcDbEntity
  8
0
  6
Continuous
 62
     7
 48
2500.0
370
    25
100
AcDbCircle
 10
16859.8528508861
 20
12480.2698409153
 30
0.0
 40
6.500000000009095
100
AcDbArc
 50
89.9999999999
 51
270.0000000004
  0
LINE
  5
324
330
1F
100
AcDbEntity
  8
0
  6
Continuous
 62
     7
 48
50.0
370
    25
100
AcDbLine
 10
16864.8528508862
 20
11746.7698409153
 30
0.0
 11
16859.8528508861
 21
11746.7698409153
 31
0.0
  0
ARC
  5
325
330
1F
100
AcDbEntity
  8
0
  6
Continuous
 62
     7
 48
2500.0
370
    25
100
AcDbCircle
 10
16859.8528508861
 20
11740.2698409153
 30
0.0
 40
6.500000000016371
100
AcDbArc
 50
90.0000000001
 51
270.0000000002
  0
LINE
  5
326
330
1F
100
AcDbEntity
  8
0
  6
Continuous
 62
     7
 48
50.0
370
    25
100
AcDbLine
 10
16859.8528508862
 20
11733.7698409153
 30
0.0
 11
16864.8528508862
 21
11733.7698409153
 31
0.0
  0
ARC
  5
327
330
1F
100
AcDbEntity
  8
0
  6
Continuous
 62
     7
 48
2500.0
370
    25
100
AcDbCircle
 10
16864.8528508862
 20
11740.2698409153
 30
0.0
 40
6.499999999998181
100
AcDbArc
 50
270.0
 51
90.0000000002
  0
LINE
  5
328
330
1F
100
AcDbEntity
  8
0
  6
Continuous
 62
     7
 48
50.0
370
    25
100
AcDbLine
 10
16864.8528508862
 20
11886.7698409153
 30
0.0
 11
16859.8528508861
 21
11886.7698409153
 31
0.0
  0
ARC
  5
329
330
1F
100
AcDbEntity
  8
0
  6
Continuous
 62
     7
 48
2500.0
370
    25
100
AcDbCircle
 10
16859.8528508861
 20
11880.2698409153
 30
0.0
 40
6.5
100
AcDbArc
 50
89.9999999999
 51
269.9999999998
  0
LINE
  5
32A
330
1F
100
AcDbEntity
  8
0
  6
Continuous
 62
     7
 48
50.0
370
    25
100
AcDbLine
 10
16859.8528508861
 20
11873.7698409153
 30
0.0
 11
16864.8528508861
 21
11873.7698409153
 31
0.0
  0
ARC
  5
32B
330
1F
100
AcDbEntity
  8
0
  6
Continuous
 62
     7
 48
2500.0
370
    25
100
AcDbCircle
 10
16864.8528508861
 20
11880.2698409153
 30
0.0
 40
6.5
100
AcDbArc
 50
270.0
 51
89.9999999996
  0
LINE
  5
32C
330
1F
100
AcDbEntity
  8
0
  6
Continuous
 62
     7
 48
50.0
370
    25
100
AcDbLine
 10
16859.8528508862
 20
11803.7698409153
 30
0.0
 11
16864.8528508862
 21
11803.7698409153
 31
0.0
  0
ARC
  5
32D
330
1F
100
AcDbEntity
  8
0
  6
Continuous
 62
     7
 48
2500.0
370
    25
100
AcDbCircle
 10
16864.8528508861
 20
11810.2698409153
 30
0.0
 40
6.499999999998181
100
AcDbArc
 50
270.0000000004
 51
89.9999999995
  0
LINE
  5
32E
330
1F
100
AcDbEntity
  8
0
  6
Continuous
 62
     7
 48
50.0
370
    25
100
AcDbLine
 10
16864.8528508862
 20
11816.7698409153
 30
0.0
 11
16859.8528508861
 21
11816.7698409153
 31
0.0
  0
ARC
  5
32F
330
1F
100
AcDbEntity
  8
0
  6
Continuous
 62
     7
 48
2500.0
370
    25
100
AcDbCircle
 10
16859.8528508861
 20
11810.2698409153
 30
0.0
 40
6.500000000003638
100
AcDbArc
 50
90.0
 51
270.0000000002
  0
LINE
  5
330
330
1F
100
AcDbEntity
  8
0
  6
Continuous
 62
     7
 48
50.0
370
    25
100
AcDbLine
 10
16859.8528508861
 20
12423.7698409153
 30
0.0
 11
16864.8528508861
 21
12423.7698409153
 31
0.0
  0
ARC
  5
331
330
1F
100
AcDbEntity
  8
0
  6
Continuous
 62
     7
 48
2500.0
370
    25
100
AcDbCircle
 10
16864.8528508861
 20
12430.2698409153
 30
0.0
 40
6.500000000005457
100
AcDbArc
 50
269.9999999999
 51
90.0
  0
LINE
  5
332
330
1F
100
AcDbEntity
  8
0
  6
Continuous
 62
     7
 48
50.0
370
    25
100
AcDbLine
 10
16864.8528508861
 20
12436.7698409153
 30
0.0
 11
16859.8528508861
 21
12436.7698409153
 31
0.0
  0
ARC
  5
333
330
1F
100
AcDbEntity
  8
0
  6
Continuous
 62
     7
 48
2500.0
370
    25
100
AcDbCircle
 10
16859.8528508861
 20
12430.2698409153
 30
0.0
 40
6.500000000020009
100
AcDbArc
 50
90.0000000003
 51
269.9999999995
  0
LINE
  5
334
330
1F
100
AcDbEntity
  8
0
  6
Continuous
 62
     7
 48
50.0
370
    25
100
AcDbLine
 10
16855.8528508861
 20
12576.5281711723
 30
0.0
 11
16855.8528508861
 21
12561.5170641734
 31
0.0
  0
LINE
  5
335
330
1F
100
AcDbEntity
  8
0
  6
Continuous
 62
     7
 48
50.0
370
    25
100
AcDbLine
 10
16868.8528508861
 20
12554.0115106739
 30
0.0
 11
16868.8528508861
 21
12569.0226176729
 31
0.0
  0
LINE
  5
336
330
1F
100
AcDbEntity
  8
0
  6
Continuous
 62
     7
 48
50.0
370
    25
100
AcDbLine
 10
16919.8528508861
 20
12610.2698409153
 30
0.0
 11
16915.3528508861
 21
12610.2698409153
 31
0.0
  0
LINE
  5
337
330
1F
100
AcDbEntity
  8
0
  6
Continuous
 62
     7
 48
50.0
370
    25
100
AcDbLine
 10
16919.8528508861
 20
12610.2698409153
 30
0.0
 11
16919.8528508861
 21
12598.4674814015
 31
0.0
  0
LINE
  5
338
330
1F
100
AcDbEntity
  8
0
  6
Continuous
 62
     7
 48
50.0
370
    25
100
AcDbLine
 10
16919.8528508861
 20
12465.6769194879
 30
0.0
 11
16919.8528508861
 21
10240.2698409154
 31
0.0
  0
LINE
  5
339
330
1F
100
AcDbEntity
  8
0
  6
Continuous
 62
     7
 48
50.0
370
    25
100
AcDbLine
 10
16919.8528508861
 20
10240.2698409154
 30
0.0
 11
16915.3528508861
 21
10240.2698409154
 31
0.0
  0
LINE
  5
33A
330
1F
100
AcDbEntity
  8
0
  6
Continuous
 62
     7
 48
50.0
370
    25
100
AcDbLine
 10
16804.8528508862
 20
12532.0722004447
 30
0.0
 11
16804.8528508861
 21
10240.2698409154
 31
0.0
  0
LINE
  5
33B
330
1F
100
AcDbEntity
  8
0
  6
Continuous
 62
     7
 48
50.0
370
    25
100
AcDbLine
 10
16809.3528508862
 20
10240.2698409154
 30
0.0
 11
16804.8528508861
 21
10240.2698409154
 31
0.0
  0
LINE
  5
33C
330
1F
100
AcDbEntity
  8
0
  6
Continuous
 62
     7
 48
50.0
370
    25
100
AcDbLine
 10
14509.3528508862
 20
12610.2698409153
 30
0.0
 11
14509.3528508862
 21
10240.2698409154
 31
0.0
  0
LINE
  5
33D
330
1F
100
AcDbEntity
  8
0
  6
Continuous
 62
     7
 48
50.0
370
    25
100
AcDbLine
 10
14615.3528508861
 20
12610.2698409153
 30
0.0
 11
14509.3528508862
 21
12610.2698409153
 31
0.0
  0
LINE
  5
33E
330
1F
100
AcDbEntity
  8
0
  6
Continuous
 62
     7
 48
50.0
370
    25
100
AcDbLine
 10
14615.3528508861
 20
12610.2698409153
 30
0.0
 11
14615.3528508862
 21
10240.2698409154
 31
0.0
  0
LINE
  5
33F
330
1F
100
AcDbEntity
  8
0
  6
Continuous
 62
     7
 48
50.0
370
    25
100
AcDbLine
 10
14615.3528508862
 20
10240.2698409154
 30
0.0
 11
14509.3528508862
 21
10240.2698409154
 31
0.0
  0
LINE
  5
340
330
1F
100
AcDbEntity
  8
0
  6
Continuous
 62
     7
 48
50.0
370
    25
100
AcDbLine
 10
14559.8528508862
 20
12473.7698409153
 30
0.0
 11
14564.8528508861
 21
12473.7698409153
 31
0.0
  0
ARC
  5
341
330
1F
100
AcDbEntity
  8
0
  6
Continuous
 62
     7
 48
2500.0
370
    25
100
AcDbCircle
 10
14564.8528508861
 20
12480.2698409153
 30
0.0
 40
6.5
100
AcDbArc
 50
270.0
 51
90.0000000001
  0
LINE
  5
342
330
1F
100
AcDbEntity
  8
0
  6
Continuous
 62
     7
 48
50.0
370
    25
100
AcDbLine
 10
14564.8528508861
 20
12486.7698409153
 30
0.0
 11
14559.8528508861
 21
12486.7698409153
 31
0.0
  0
ARC
  5
343
330
1F
100
AcDbEntity
  8
0
  6
Continuous
 62
     7
 48
2500.0
370
    25
100
AcDbCircle
 10
14559.8528508861
 20
12480.2698409153
 30
0.0
 40
6.500000000007276
100
AcDbArc
 50
89.9999999999
 51
270.0000000004
  0
LINE
  5
344
330
1F
100
AcDbEntity
  8
0
  6
Continuous
 62
     7
 48
50.0
370
    25
100
AcDbLine
 10
14564.8528508862
 20
11746.7698409153
 30
0.0
 11
14559.8528508861
 21
11746.7698409153
 31
0.0
  0
ARC
  5
345
330
1F
100
AcDbEntity
  8
0
  6
Continuous
 62
     7
 48
2500.0
370
    25
100
AcDbCircle
 10
14559.8528508861
 20
11740.2698409153
 30
0.0
 40
6.50000000001819
100
AcDbArc
 50
90.0000000001
 51
270.0000000002
  0
LINE
  5
346
330
1F
100
AcDbEntity
  8
0
  6
Continuous
 62
     7
 48
50.0
370
    25
100
AcDbLine
 10
14559.8528508862
 20
11733.7698409153
 30
0.0
 11
14564.8528508862
 21
11733.7698409153
 31
0.0
  0
ARC
  5
347
330
1F
100
AcDbEntity
  8
0
  6
Continuous
 62
     7
 48
2500.0
370
    25
100
AcDbCircle
 10
14564.8528508862
 20
11740.2698409153
 30
0.0
 40
6.499999999998181
100
AcDbArc
 50
270.0
 51
90.0000000001
  0
LINE
  5
348
330
1F
100
AcDbEntity
  8
0
  6
Continuous
 62
     7
 48
50.0
370
    25
100
AcDbLine
 10
14564.8528508862
 20
11886.7698409153
 30
0.0
 11
14559.8528508861
 21
11886.7698409153
 31
0.0
  0
ARC
  5
349
330
1F
100
AcDbEntity
  8
0
  6
Continuous
 62
     7
 48
2500.0
370
    25
100
AcDbCircle
 10
14559.8528508861
 20
11880.2698409153
 30
0.0
 40
6.5
100
AcDbArc
 50
89.9999999999
 51
269.9999999999
  0
LINE
  5
34A
330
1F
100
AcDbEntity
  8
0
  6
Continuous
 62
     7
 48
50.0
370
    25
100
AcDbLine
 10
14559.8528508861
 20
11873.7698409153
 30
0.0
 11
14564.8528508861
 21
11873.7698409153
 31
0.0
  0
ARC
  5
34B
330
1F
100
AcDbEntity
  8
0
  6
Continuous
 62
     7
 48
2500.0
370
    25
100
AcDbCircle
 10
14564.8528508861
 20
11880.2698409153
 30
0.0
 40
6.5
100
AcDbArc
 50
270.0
 51
89.9999999996
  0
LINE
  5
34C
330
1F
100
AcDbEntity
  8
0
  6
Continuous
 62
     7
 48
50.0
370
    25
100
AcDbLine
 10
14559.8528508862
 20
11803.7698409153
 30
0.0
 11
14564.8528508862
 21
11803.7698409153
 31
0.0
  0
ARC
  5
34D
330
1F
100
AcDbEntity
  8
0
  6
Continuous
 62
     7
 48
2500.0
370
    25
100
AcDbCircle
 10
14564.8528508861
 20
11810.2698409153
 30
0.0
 40
6.5
100
AcDbArc
 50
270.0000000004
 51
89.9999999995
  0
LINE
  5
34E
330
1F
100
AcDbEntity
  8
0
  6
Continuous
 62
     7
 48
50.0
370
    25
100
AcDbLine
 10
14564.8528508862
 20
11816.7698409153
 30
0.0
 11
14559.8528508861
 21
11816.7698409153
 31
0.0
  0
ARC
  5
34F
330
1F
100
AcDbEntity
  8
0
  6
Continuous
 62
     7
 48
2500.0
370
    25
100
AcDbCircle
 10
14559.8528508861
 20
11810.2698409153
 30
0.0
 40
6.500000000003638
100
AcDbArc
 50
90.0
 51
270.0000000002
  0
LINE
  5
350
330
1F
100
AcDbEntity
  8
0
  6
Continuous
 62
     7
 48
50.0
370
    25
100
AcDbLine
 10
14559.8528508861
 20
12423.7698409153
 30
0.0
 11
14564.8528508861
 21
12423.7698409153
 31
0.0
  0
ARC
  5
351
330
1F
100
AcDbEntity
  8
0
  6
Continuous
 62
     7
 48
2500.0
370
    25
100
AcDbCircle
 10
14564.8528508861
 20
12430.2698409153
 30
0.0
 40
6.500000000005457
100
AcDbArc
 50
269.9999999999
 51
90.0000000001
  0
LINE
  5
352
330
1F
100
AcDbEntity
  8
0
  6
Continuous
 62
     7
 48
50.0
370
    25
100
AcDbLine
 10
14564.8528508861
 20
12436.7698409153
 30
0.0
 11
14559.8528508861
 21
12436.7698409153
 31
0.0
  0
ARC
  5
353
330
1F
100
AcDbEntity
  8
0
  6
Continuous
 62
     7
 48
2500.0
370
    25
100
AcDbCircle
 10
14559.8528508861
 20
12430.2698409153
 30
0.0
 40
6.500000000020009
100
AcDbArc
 50
90.0000000002
 51
269.9999999995
  0
LINE
  5
354
330
1F
100
AcDbEntity
  8
0
  6
Continuous
 62
     7
 48
50.0
370
    25
100
AcDbLine
 10
14555.8528508862
 20
12588.7698409153
 30
0.0
 11
14555.8528508861
 21
12541.7698409153
 31
0.0
  0
ARC
  5
355
330
1F
100
AcDbEntity
  8
0
  6
Continuous
 62
     7
 48
2500.0
370
    25
100
AcDbCircle
 10
14562.3528508861
 20
12541.7698409153
 30
0.0
 40
6.500000000014552
100
AcDbArc
 50
179.9999999945
 51
0.0000000055
  0
LINE
  5
356
330
1F
100
AcDbEntity
  8
0
  6
Continuous
 62
     7
 48
50.0
370
    25
100
AcDbLine
 10
14568.8528508861
 20
12541.7698409153
 30
0.0
 11
14568.8528508861
 21
12588.7698409153
 31
0.0
  0
ARC
  5
357
330
1F
100
AcDbEntity
  8
0
  6
Continuous
 62
     7
 48
2500.0
370
    25
100
AcDbCircle
 10
14562.3528508862
 20
12588.7698409153
 30
0.0
 40
6.500000000009095
100
AcDbArc
 50
0.0000000055
 51
179.9999999992
  0
LINE
  5
358
330
1F
100
AcDbEntity
  8
0
  6
Continuous
 62
     7
 48
50.0
370
    25
100
AcDbLine
 10
14619.8528508861
 20
12610.2698409153
 30
0.0
 11
14615.3528508861
 21
12610.2698409153
 31
0.0
  0
LINE
  5
359
330
1F
100
AcDbEntity
  8
0
  6
Continuous
 62
     7
 48
50.0
370
    25
100
AcDbLine
 10
14619.8528508861
 20
12610.2698409153
 30
0.0
 11
14619.8528508861
 21
10240.2698409154
 31
0.0
  0
LINE
  5
35A
330
1F
100
AcDbEntity
  8
0
  6
Continuous
 62
     7
 48
50.0
370
    25
100
AcDbLine
 10
14619.8528508861
 20
10240.2698409154
 30
0.0
 11
14615.3528508862
 21
10240.2698409154
 31
0.0
  0
LINE
  5
35B
330
1F
100
AcDbEntity
  8
0
  6
Continuous
 62
     7
 48
50.0
370
    25
100
AcDbLine
 10
14504.8528508862
 20
12610.2698409153
 30
0.0
 11
14504.8528508862
 21
10240.2698409154
 31
0.0
  0
LINE
  5
35C
330
1F
100
AcDbEntity
  8
0
  6
Continuous
 62
     7
 48
50.0
370
    25
100
AcDbLine
 10
14509.3528508862
 20
12610.2698409153
 30
0.0
 11
14504.8528508862
 21
12610.2698409153
 31
0.0
  0
LINE
  5
35D
330
1F
100
AcDbEntity
  8
0
  6
Continuous
 62
     7
 48
50.0
370
    25
100
AcDbLine
 10
14509.3528508862
 20
10240.2698409154
 30
0.0
 11
14504.8528508862
 21
10240.2698409154
 31
0.0
  0
LINE
  5
35E
330
1F
100
AcDbEntity
  8
0
  6
Continuous
 62
     8
 48
50.0
370
    25
100
AcDbLine
 10
14678.8848995602
 20
12317.6942716635
 30
0.0
 11
14687.6418542403
 21
12326.1410810136
 31
0.0
  0
LINE
  5
35F
330
1F
100
AcDbEntity
  8
0
  6
Continuous
 62
     8
 48
50.0
370
    25
100
AcDbLine
 10
14719.8528508861
 20
12357.2112598125
 30
0.0
 11
15613.9487930431
 21
13219.6409788199
 31
0.0
  0
LINE
  5
360
330
1F
100
AcDbEntity
  8
0
  6
Continuous
 62
     8
 48
50.0
370
    25
100
AcDbLine
 10
14688.1506646145
 20
12400.2698409155
 30
0.0
 11
15566.1918809883
 21
13247.2134448504
 31
0.0
  0
LINE
  5
361
330
1F
100
AcDbEntity
  8
0
  6
Continuous
 62
     8
 48
50.0
370
    25
100
AcDbLine
 10
15604.3900035975
 20
13284.0587033906
 30
0.0
 11
15614.1192701881
 21
13293.4433882506
 31
0.0
  0
LINE
  5
362
330
1F
100
AcDbEntity
  8
0
  6
Continuous
 62
     8
 48
50.0
370
    25
100
AcDbLine
 10
14612.3528508861
 20
13940.2698409155
 30
0.0
 11
14612.3528508861
 21
13930.7032275571
 31
0.0
  0
LINE
  5
363
330
1F
100
AcDbEntity
  8
0
  6
Continuous
 62
     8
 48
50.0
370
    25
100
AcDbLine
 10
14612.3528508861
 20
13797.9126656434
 30
0.0
 11
14612.3528508861
 21
12610.2698409153
 31
0.0
  0
LINE
  5
364
330
1F
100
AcDbEntity
  8
0
  6
Continuous
 62
     8
 48
50.0
370
    25
100
AcDbLine
 10
14512.3528508861
 20
13855.6476925624
 30
0.0
 11
14512.3528508861
 21
12610.2698409153
 31
0.0
  0
LINE
  5
365
330
1F
100
AcDbEntity
  8
0
  6
Continuous
 62
     8
 48
50.0
370
    25
100
AcDbLine
 10
16809.3528508862
 20
12529.4741242333
 30
0.0
 11
16809.3528508862
 21
10240.2698409154
 31
0.0
  0
LINE
  5
366
330
1F
100
AcDbEntity
  8
0
  6
Continuous
 62
     8
 48
50.0
370
    25
100
AcDbLine
 10
16915.3528508861
 20
12610.2698409153
 30
0.0
 11
16915.3528508861
 21
12601.0655576129
 31
0.0
  0
LINE
  5
367
330
1F
100
AcDbEntity
  8
0
  6
Continuous
 62
     8
 48
50.0
370
    25
100
AcDbLine
 10
16915.3528508861
 20
12468.2749956993
 30
0.0
 11
16915.3528508861
 21
10240.2698409154
 31
0.0
  0
LINE
  5
368
330
1F
100
AcDbEntity
  8
0
  6
Continuous
 62
     7
 48
50.0
370
    18
100
AcDbLine
 10
18160.5151312425
 20
11640.269840915
 30
0.0
 11
7684.6863403848
 21
11640.269840915
 31
0.0
  0
DIMENSION
  5
369
330
1F
100
AcDbEntity
  8
0
  6
Continuous
 62
     7
 48
50.0
370
    18
100
AcDbDimension
  2
_D_2
 10
18593.8258482754
 20
11640.269840915
 30
0.0
 11
18593.8258482754
 21
11926.4231853432
 31
0.0
 70
   160
  1
<>
 71
     2
 42
-1.0
  3
SLDDIMSTYLE1
100
AcDbAlignedDimension
 13
17732.6500699452
 23
12244.6688420197
 33
0.0
 14
18160.5151312426
 24
11640.269840915
 34
0.0
 50
90.0
100
AcDbRotatedDimension
  0
DIMENSION
  5
376
330
1F
100
AcDbEntity
  8
0
  6
Continuous
 62
     7
 48
50.0
370
    18
100
AcDbDimension
  2
_D_3
 10
18987.4451483591
 20
11640.269840915
 30
0.0
 11
18987.4451483591
 21
11989.2020326109
 31
0.0
 70
   160
  1
<>
 71
     2
 42
-1.0
  3
SLDDIMSTYLE1
100
AcDbAlignedDimension
 13
17314.7928126194
 23
12485.9188420195
 33
0.0
 14
18160.5151312426
 24
11640.269840915
 34
0.0
 50
90.0
100
AcDbRotatedDimension
  0
DIMENSION
  5
382
330
1F
100
AcDbEntity
  8
0
  6
Continuous
 62
     7
 48
50.0
370
    18
100
AcDbDimension
  2
_D_4
 10
13177.665132074
 20
11640.269840915
 30
0.0
 11
13177.665132074
 21
13117.059368649
 31
0.0
 70
   160
  1
<>
 71
     2
 42
-1.0
  3
SLDDIMSTYLE2
100
AcDbAlignedDimension
 13
13767.1197460163
 23
14534.1688420197
 33
0.0
 14
18160.5151312426
 24
11640.269840915
 34
0.0
 50
90.0
100
AcDbRotatedDimension
  0
DIMENSION
  5
38C
330
1F
100
AcDbEntity
  8
0
  6
Continuous
 62
     7
 48
50.0
370
    18
100
AcDbDimension
  2
_D_5
 10
18160.5151312426
 20
11640.269840915
 30
0.0
 11
15757.234869966
 21
12248.1624440278
 31
0.0
 70
   162
  1
<>
 71
     1
 42
-1.0
  3
SLDDIMSTYLE3
100
AcDb2LineAngularDimension
 13
15683.039063853
 23
13182.6384437149
 33
0.0
 14
17224.5642825892
 24
12292.6384437149
 34
0.0
 15
7684.6863403849
 25
11640.269840915
 35
0.0
 16
15777.9357011913
 26
12330.658123273
 36
0.0
  0
DIMENSION
  5
395
330
1F
100
AcDbEntity
  8
0
  6
Continuous
 62
     7
 48
50.0
370
    18
100
AcDbDimension
  2
_D_6
 10
17752.6500699452
 20
15370.2832025111
 30
0.0
 11
15748.6399967043
 21
15370.2832025111
 31
0.0
 70
   160
  1
<>
 71
     2
 42
-1.0
  3
SLDDIMSTYLE2
100
AcDbAlignedDimension
 13
13787.1197460162
 23
14568.8098581711
 33
0.0
 14
17752.6500699452
 24
12279.3098581711
 34
0.0
100
AcDbRotatedDimension
  0
DIMENSION
  5
39F
330
1F
100
AcDbEntity
  8
0
  6
Continuous
 62
     7
 48
50.0
370
    18
100
AcDbDimension
  2
_D_7
 10
15876.8447620449
 20
13628.3197597804
 30
0.0
 11
15097.8993028136
 21
14078.0441303519
 31
0.0
 70
   160
  1
<>
 71
     2
 42
-1.0
  3
SLDDIMSTYLE2
100
AcDbAlignedDimension
 13
13787.1197460162
 23
14568.8098581711
 33
0.0
 14
15761.6576666447
 24
13428.8098581711
 34
0.0
 50
-30.0
100
AcDbRotatedDimension
  0
DIMENSION
  5
3A9
330
1F
100
AcDbEntity
  8
0
  6
Continuous
 62
     7
 48
50.0
370
    18
100
AcDbDimension
  2
_D_8
 10
16864.8528508862
 20
9663.7513416623
 30
0.0
 11
15756.8641511855
 21
9663.7513416623
 31
0.0
 70
   160
  1
<>
 71
     2
 42
-1.0
  3
SLDDIMSTYLE2
100
AcDbAlignedDimension
 13
14564.8528508862
 23
11740.2698409153
 33
0.0
 14
16864.8528508862
 24
11740.2698409153
 34
0.0
 50
0.0
100
AcDbRotatedDimension
  0
DIMENSION
  5
3B3
330
1F
100
AcDbEntity
  8
0
  6
Continuous
 62
     7
 48
50.0
370
    18
100
AcDbDimension
  2
_D_9
 10
17280.8142825892
 20
14920.2686108347
 30
0.0
 11
15426.303710778
 21
14920.2686108347
 31
0.0
 70
   160
  1
<>
 71
     2
 42
-1.0
  3
SLDDIMSTYLE2
100
AcDbAlignedDimension
 13
14197.7638451166
 23
14170.0663016412
 33
0.0
 14
17280.8142825892
 24
12390.0663016407
 34
0.0
100
AcDbRotatedDimension
  0
LINE
  5
3BD
330
1F
100
AcDbEntity
  8
0
  6
Continuous
 62
     7
 48
50.0
370
    25
100
AcDbLine
 10
8332.0172746415
 20
8185.0087891022
 30
0.0
 11
8367.5173242325
 21
8185.0087891022
 31
0.0
  0
LINE
  5
3BE
330
1F
100
AcDbEntity
  8
0
  6
Continuous
 62
     7
 48
50.0
370
    25
100
AcDbLine
 10
9507.5172801251
 20
8185.0087891022
 30
0.0
 11
9526.5172739262
 21
8185.0087891022
 31
0.0
  0
LINE
  5
3BF
330
1F
100
AcDbEntity
  8
0
  6
Continuous
 62
     7
 48
50.0
370
    25
100
AcDbLine
 10
10666.5172894234
 20
8185.0087891022
 30
0.0
 11
10702.0172794098
 21
8185.0087891022
 31
0.0
  0
LINE
  5
3C0
330
1F
100
AcDbEntity
  8
0
  6
Continuous
 62
     7
 48
50.0
370
    25
100
AcDbLine
 10
10702.0172794098
 20
8275.747085611
 30
0.0
 11
10666.4172728295
 21
8275.747085611
 31
0.0
  0
LINE
  5
3C1
330
1F
100
AcDbEntity
  8
0
  6
Continuous
 62
     7
 48
50.0
370
    25
100
AcDbLine
 10
9526.6172905201
 20
8275.747085611
 30
0.0
 11
9507.4172933335
 21
8275.747085611
 31
0.0
  0
LINE
  5
3C2
330
1F
100
AcDbEntity
  8
0
  6
Continuous
 62
     7
 48
50.0
370
    25
100
AcDbLine
 10
8367.6172216172
 20
8275.747085611
 30
0.0
 11
8332.0172746415
 21
8275.747085611
 31
0.0
  0
LINE
  5
3C3
330
1F
100
AcDbEntity
  8
0
  6
Continuous
 62
     7
 48
50.0
370
    25
100
AcDbLine
 10
8332.0172746415
 20
7006.3474426667
 30
0.0
 11
8367.6172216172
 21
7006.3474426667
 31
0.0
  0
LINE
  5
3C4
330
1F
100
AcDbEntity
  8
0
  6
Continuous
 62
     7
 48
50.0
370
    25
100
AcDbLine
 10
9507.4172933335
 20
7006.3474426667
 30
0.0
 11
9526.6172905201
 21
7006.3474426667
 31
0.0
  0
LINE
  5
3C5
330
1F
100
AcDbEntity
  8
0
  6
Continuous
 62
     7
 48
50.0
370
    25
100
AcDbLine
 10
10666.4172728295
 20
7006.3474426667
 30
0.0
 11
10702.0172794098
 21
7006.3474426667
 31
0.0
  0
LINE
  5
3C6
330
1F
100
AcDbEntity
  8
0
  6
Continuous
 62
     7
 48
50.0
370
    25
100
AcDbLine
 10
10702.0172794098
 20
7097.0876465241
 30
0.0
 11
10666.4172728295
 21
7097.0876465241
 31
0.0
  0
LINE
  5
3C7
330
1F
100
AcDbEntity
  8
0
  6
Continuous
 62
     7
 48
50.0
370
    25
100
AcDbLine
 10
9526.6172905201
 20
7097.0876465241
 30
0.0
 11
9507.4172933335
 21
7097.0876465241
 31
0.0
  0
LINE
  5
3C8
330
1F
100
AcDbEntity
  8
0
  6
Continuous
 62
     7
 48
50.0
370
    25
100
AcDbLine
 10
8367.6172216172
 20
7097.0876465241
 30
0.0
 11
8332.0172746415
 21
7097.0876465241
 31
0.0
  0
LINE
  5
3C9
330
1F
100
AcDbEntity
  8
0
  6
Continuous
 62
     7
 48
50.0
370
    25
100
AcDbLine
 10
8332.0172746415
 20
5171.2396393219
 30
0.0
 11
8367.6172216172
 21
5171.2396393219
 31
0.0
  0
LINE
  5
3CA
330
1F
100
AcDbEntity
  8
0
  6
Continuous
 62
     7
 48
50.0
370
    25
100
AcDbLine
 10
9507.4172933335
 20
5171.2396393219
 30
0.0
 11
9526.6172905201
 21
5171.2396393219
 31
0.0
  0
LINE
  5
3CB
330
1F
100
AcDbEntity
  8
0
  6
Continuous
 62
     7
 48
50.0
370
    25
100
AcDbLine
 10
10666.4172728295
 20
5171.2396393219
 30
0.0
 11
10702.0172794098
 21
5171.2396393219
 31
0.0
  0
LINE
  5
3CC
330
1F
100
AcDbEntity
  8
0
  6
Continuous
 62
     7
 48
50.0
370
    25
100
AcDbLine
 10
10702.0172794098
 20
5261.9798431793
 30
0.0
 11
10666.5172894234
 21
5261.9798431793
 31
0.0
  0
LINE
  5
3CD
330
1F
100
AcDbEntity
  8
0
  6
Continuous
 62
     7
 48
50.0
370
    25
100
AcDbLine
 10
9526.5172739262
 20
5261.9798431793
 30
0.0
 11
9507.5172801251
 21
5261.9798431793
 31
0.0
  0
LINE
  5
3CE
330
1F
100
AcDbEntity
  8
0
  6
Continuous
 62
     7
 48
50.0
370
    25
100
AcDbLine
 10
8367.5173242325
 20
5261.9798431793
 30
0.0
 11
8332.0172746415
 21
5261.9798431793
 31
0.0
  0
LINE
  5
3CF
330
1F
100
AcDbEntity
  8
0
  6
Continuous
 62
     7
 48
50.0
370
    25
100
AcDbLine
 10
8332.0172746415
 20
6349.9009857575
 30
0.0
 11
8367.6172216172
 21
6349.9009857575
 31
0.0
  0
LINE
  5
3D0
330
1F
100
AcDbEntity
  8
0
  6
Continuous
 62
     7
 48
50.0
370
    25
100
AcDbLine
 10
9507.4172933335
 20
6349.9009857575
 30
0.0
 11
9526.6172905201
 21
6349.9009857575
 31
0.0
  0
LINE
  5
3D1
330
1F
100
AcDbEntity
  8
0
  6
Continuous
 62
     7
 48
50.0
370
    25
100
AcDbLine
 10
10666.4172728295
 20
6349.9009857575
 30
0.0
 11
10702.0172794098
 21
6349.9009857575
 31
0.0
  0
LINE
  5
3D2
330
1F
100
AcDbEntity
  8
0
  6
Continuous
 62
     7
 48
50.0
370
    25
100
AcDbLine
 10
10702.0172794098
 20
6440.6392822663
 30
0.0
 11
10666.4172728295
 21
6440.6392822663
 31
0.0
  0
LINE
  5
3D3
330
1F
100
AcDbEntity
  8
0
  6
Continuous
 62
     7
 48
50.0
370
    25
100
AcDbLine
 10
9526.6172905201
 20
6440.6392822663
 30
0.0
 11
9507.4172933335
 21
6440.6392822663
 31
0.0
  0
LINE
  5
3D4
330
1F
100
AcDbEntity
  8
0
  6
Continuous
 62
     7
 48
50.0
370
    25
100
AcDbLine
 10
8367.6172216172
 20
6440.6392822663
 30
0.0
 11
8332.0172746415
 21
6440.6392822663
 31
0.0
  0
LINE
  5
3D5
330
1F
100
AcDbEntity
  8
0
  6
Continuous
 62
     7
 48
50.0
370
    25
100
AcDbLine
 10
9526.5172739262
 20
4735.1339111725
 30
0.0
 11
10666.5172894234
 21
4735.1339111725
 31
0.0
  0
LINE
  5
3D6
330
1F
100
AcDbEntity
  8
0
  6
Continuous
 62
     7
 48
50.0
370
    25
100
AcDbLine
 10
9526.5172739262
 20
4981.9505463043
 30
0.0
 11
9526.5172739262
 21
4735.1339111725
 31
0.0
  0
LINE
  5
3D7
330
1F
100
AcDbEntity
  8
0
  6
Continuous
 62
     7
 48
50.0
370
    25
100
AcDbLine
 10
9526.6172905201
 20
4981.9505463043
 30
0.0
 11
9526.5172739262
 21
4981.9505463043
 31
0.0
  0
LINE
  5
3D8
330
1F
100
AcDbEntity
  8
0
  6
Continuous
 62
     7
 48
50.0
370
    25
100
AcDbLine
 10
9526.6172905201
 20
4981.9505463043
 30
0.0
 11
9526.6172905201
 21
5228.7671814362
 31
0.0
  0
LINE
  5
3D9
330
1F
100
AcDbEntity
  8
0
  6
Continuous
 62
     7
 48
50.0
370
    25
100
AcDbLine
 10
9526.6172905201
 20
5228.7671814362
 30
0.0
 11
9526.5172739262
 21
5228.7671814362
 31
0.0
  0
LINE
  5
3DA
330
1F
100
AcDbEntity
  8
0
  6
Continuous
 62
     7
 48
50.0
370
    25
100
AcDbLine
 10
9526.5172739262
 20
6216.0375366608
 30
0.0
 11
9526.5172739262
 21
5228.7671814362
 31
0.0
  0
LINE
  5
3DB
330
1F
100
AcDbEntity
  8
0
  6
Continuous
 62
     7
 48
50.0
370
    25
100
AcDbLine
 10
9526.6172905201
 20
6216.0375366608
 30
0.0
 11
9526.5172739262
 21
6216.0375366608
 31
0.0
  0
LINE
  5
3DC
330
1F
100
AcDbEntity
  8
0
  6
Continuous
 62
     7
 48
50.0
370
    25
100
AcDbLine
 10
9526.6172905201
 20
6216.0375366608
 30
0.0
 11
9526.6172905201
 21
6462.8541717926
 31
0.0
  0
LINE
  5
3DD
330
1F
100
AcDbEntity
  8
0
  6
Continuous
 62
     7
 48
50.0
370
    25
100
AcDbLine
 10
9526.6172905201
 20
6462.8541717926
 30
0.0
 11
9526.5172739262
 21
6462.8541717926
 31
0.0
  0
LINE
  5
3DE
330
1F
100
AcDbEntity
  8
0
  6
Continuous
 62
     7
 48
50.0
370
    25
100
AcDbLine
 10
9526.5172739262
 20
6709.6708069245
 30
0.0
 11
9526.5172739262
 21
6462.8541717926
 31
0.0
  0
LINE
  5
3DF
330
1F
100
AcDbEntity
  8
0
  6
Continuous
 62
     7
 48
50.0
370
    25
100
AcDbLine
 10
10666.5172894234
 20
6709.6708069245
 30
0.0
 11
9526.5172739262
 21
6709.6708069245
 31
0.0
  0
LINE
  5
3E0
330
1F
100
AcDbEntity
  8
0
  6
Continuous
 62
     7
 48
50.0
370
    25
100
AcDbLine
 10
10666.5172894234
 20
6462.8541717926
 30
0.0
 11
10666.5172894234
 21
6709.6708069245
 31
0.0
  0
LINE
  5
3E1
330
1F
100
AcDbEntity
  8
0
  6
Continuous
 62
     7
 48
50.0
370
    25
100
AcDbLine
 10
10666.4172728295
 20
6462.8541717926
 30
0.0
 11
10666.5172894234
 21
6462.8541717926
 31
0.0
  0
LINE
  5
3E2
330
1F
100
AcDbEntity
  8
0
  6
Continuous
 62
     7
 48
50.0
370
    25
100
AcDbLine
 10
10666.4172728295
 20
6216.0375366608
 30
0.0
 11
10666.4172728295
 21
6462.8541717926
 31
0.0
  0
LINE
  5
3E3
330
1F
100
AcDbEntity
  8
0
  6
Continuous
 62
     7
 48
50.0
370
    25
100
AcDbLine
 10
10666.4172728295
 20
6216.0375366608
 30
0.0
 11
10666.5172894234
 21
6216.0375366608
 31
0.0
  0
LINE
  5
3E4
330
1F
100
AcDbEntity
  8
0
  6
Continuous
 62
     7
 48
50.0
370
    25
100
AcDbLine
 10
10666.5172894234
 20
5228.7671814362
 30
0.0
 11
10666.5172894234
 21
6216.0375366608
 31
0.0
  0
LINE
  5
3E5
330
1F
100
AcDbEntity
  8
0
  6
Continuous
 62
     7
 48
50.0
370
    25
100
AcDbLine
 10
10666.4172728295
 20
5228.7671814362
 30
0.0
 11
10666.5172894234
 21
5228.7671814362
 31
0.0
  0
LINE
  5
3E6
330
1F
100
AcDbEntity
  8
0
  6
Continuous
 62
     7
 48
50.0
370
    25
100
AcDbLine
 10
10666.4172728295
 20
4981.9505463043
 30
0.0
 11
10666.4172728295
 21
5228.7671814362
 31
0.0
  0
LINE
  5
3E7
330
1F
100
AcDbEntity
  8
0
  6
Continuous
 62
     7
 48
50.0
370
    25
100
AcDbLine
 10
10666.4172728295
 20
4981.9505463043
 30
0.0
 11
10666.5172894234
 21
4981.9505463043
 31
0.0
  0
LINE
  5
3E8
330
1F
100
AcDbEntity
  8
0
  6
Continuous
 62
     7
 48
50.0
370
    25
100
AcDbLine
 10
10666.5172894234
 20
4735.1339111725
 30
0.0
 11
10666.5172894234
 21
4981.9505463043
 31
0.0
  0
LINE
  5
3E9
330
1F
100
AcDbEntity
  8
0
  6
Continuous
 62
     7
 48
50.0
370
    25
100
AcDbLine
 10
9535.5172772641
 20
6701.8773804108
 30
0.0
 11
10657.5172860855
 21
6701.8773804108
 31
0.0
  0
LINE
  5
3EA
330
1F
100
AcDbEntity
  8
0
  6
Continuous
 62
     7
 48
50.0
370
    25
100
AcDbLine
 10
9535.5172772641
 20
4742.9273376862
 30
0.0
 11
9535.5172772641
 21
6701.8773804108
 31
0.0
  0
LINE
  5
3EB
330
1F
100
AcDbEntity
  8
0
  6
Continuous
 62
     7
 48
50.0
370
    25
100
AcDbLine
 10
10657.5172860855
 20
4742.9273376862
 30
0.0
 11
9535.5172772641
 21
4742.9273376862
 31
0.0
  0
LINE
  5
3EC
330
1F
100
AcDbEntity
  8
0
  6
Continuous
 62
     7
 48
50.0
370
    25
100
AcDbLine
 10
10657.5172860855
 20
6701.8773804108
 30
0.0
 11
10657.5172860855
 21
4742.9273376862
 31
0.0
  0
LINE
  5
3ED
330
1F
100
AcDbEntity
  8
0
  6
Continuous
 62
     7
 48
50.0
370
    25
100
AcDbLine
 10
10666.5172894234
 20
6726.1255035797
 30
0.0
 11
10666.5172894234
 21
6709.6708069245
 31
0.0
  0
LINE
  5
3EE
330
1F
100
AcDbEntity
  8
0
  6
Continuous
 62
     7
 48
50.0
370
    25
100
AcDbLine
 10
9526.5172739262
 20
6726.1255035797
 30
0.0
 11
9526.5172739262
 21
6709.6708069245
 31
0.0
  0
LINE
  5
3EF
330
1F
100
AcDbEntity
  8
0
  6
Continuous
 62
     7
 48
50.0
370
    25
100
AcDbLine
 10
10657.5172860855
 20
4742.9273376862
 30
0.0
 11
10656.5172989601
 21
4744.081283609
 31
0.0
  0
LINE
  5
3F0
330
1F
100
AcDbEntity
  8
0
  6
Continuous
 62
     7
 48
50.0
370
    25
100
AcDbLine
 10
10656.5172989601
 20
4744.081283609
 30
0.0
 11
10656.5172989601
 21
6701.2994537751
 31
0.0
  0
LINE
  5
3F1
330
1F
100
AcDbEntity
  8
0
  6
Continuous
 62
     7
 48
50.0
370
    25
100
AcDbLine
 10
10657.5172860855
 20
6701.8773804108
 30
0.0
 11
10656.5172989601
 21
6701.2994537751
 31
0.0
  0
LINE
  5
3F2
330
1F
100
AcDbEntity
  8
0
  6
Continuous
 62
     7
 48
50.0
370
    25
100
AcDbLine
 10
10656.5172989601
 20
6701.2994537751
 30
0.0
 11
9536.5172941918
 21
6701.2994537751
 31
0.0
  0
LINE
  5
3F3
330
1F
100
AcDbEntity
  8
0
  6
Continuous
 62
     7
 48
50.0
370
    25
100
AcDbLine
 10
9536.5172941918
 20
6701.2994537751
 30
0.0
 11
9535.5172772641
 21
6701.8773804108
 31
0.0
  0
LINE
  5
3F4
330
1F
100
AcDbEntity
  8
0
  6
Continuous
 62
     7
 48
50.0
370
    25
100
AcDbLine
 10
9536.5172941918
 20
6701.2994537751
 30
0.0
 11
9536.5172941918
 21
4744.081283609
 31
0.0
  0
LINE
  5
3F5
330
1F
100
AcDbEntity
  8
0
  6
Continuous
 62
     7
 48
50.0
370
    25
100
AcDbLine
 10
9536.5172941918
 20
4744.081283609
 30
0.0
 11
9535.5172772641
 21
4742.9273376862
 31
0.0
  0
LINE
  5
3F6
330
1F
100
AcDbEntity
  8
0
  6
Continuous
 62
     7
 48
50.0
370
    25
100
AcDbLine
 10
9536.5172941918
 20
4744.5428619782
 30
0.0
 11
10656.5172989601
 21
4744.5428619782
 31
0.0
  0
LINE
  5
3F7
330
1F
100
AcDbEntity
  8
0
  6
Continuous
 62
     7
 48
50.0
370
    25
100
AcDbLine
 10
9526.5172739262
 20
6236.0360870758
 30
0.0
 11
9526.5172739262
 21
6216.0375366608
 31
0.0
  0
LINE
  5
3F8
330
1F
100
AcDbEntity
  8
0
  6
Continuous
 62
     7
 48
50.0
370
    25
100
AcDbLine
 10
9526.6172905201
 20
6236.0360870758
 30
0.0
 11
9526.5172739262
 21
6236.0360870758
 31
0.0
  0
LINE
  5
3F9
330
1F
100
AcDbEntity
  8
0
  6
Continuous
 62
     7
 48
50.0
370
    25
100
AcDbLine
 10
10666.5172894234
 20
6236.0360870758
 30
0.0
 11
10666.5172894234
 21
6216.0375366608
 31
0.0
  0
LINE
  5
3FA
330
1F
100
AcDbEntity
  8
0
  6
Continuous
 62
     7
 48
50.0
370
    25
100
AcDbLine
 10
10666.4172728295
 20
6236.0360870758
 30
0.0
 11
10666.5172894234
 21
6236.0360870758
 31
0.0
  0
LINE
  5
3FB
330
1F
100
AcDbEntity
  8
0
  6
Continuous
 62
     7
 48
50.0
370
    25
100
AcDbLine
 10
9526.5172739262
 20
5001.951004068
 30
0.0
 11
9526.5172739262
 21
4981.9505463043
 31
0.0
  0
LINE
  5
3FC
330
1F
100
AcDbEntity
  8
0
  6
Continuous
 62
     7
 48
50.0
370
    25
100
AcDbLine
 10
9526.6172905201
 20
5001.951004068
 30
0.0
 11
9526.5172739262
 21
5001.951004068
 31
0.0
  0
LINE
  5
3FD
330
1F
100
AcDbEntity
  8
0
  6
Continuous
 62
     7
 48
50.0
370
    25
100
AcDbLine
 10
10666.5172894234
 20
5001.951004068
 30
0.0
 11
10666.5172894234
 21
4981.9505463043
 31
0.0
  0
LINE
  5
3FE
330
1F
100
AcDbEntity
  8
0
  6
Continuous
 62
     7
 48
50.0
370
    25
100
AcDbLine
 10
10666.4172728295
 20
5001.951004068
 30
0.0
 11
10666.5172894234
 21
5001.951004068
 31
0.0
  0
LINE
  5
3FF
330
1F
100
AcDbEntity
  8
0
  6
Continuous
 62
     7
 48
50.0
370
    25
100
AcDbLine
 10
9536.5172941918
 20
4744.081283609
 30
0.0
 11
10656.5172989601
 21
4744.081283609
 31
0.0
  0
LINE
  5
400
330
1F
100
AcDbEntity
  8
0
  6
Continuous
 62
     7
 48
50.0
370
    25
100
AcDbLine
 10
9526.5172739262
 20
6726.1255035797
 30
0.0
 11
10666.5172894234
 21
6726.1255035797
 31
0.0
  0
LINE
  5
401
330
1F
100
AcDbEntity
  8
0
  6
Continuous
 62
     7
 48
50.0
370
    25
100
AcDbLine
 10
9526.5172739262
 20
6972.9421387116
 30
0.0
 11
9526.5172739262
 21
6726.1255035797
 31
0.0
  0
LINE
  5
402
330
1F
100
AcDbEntity
  8
0
  6
Continuous
 62
     7
 48
50.0
370
    25
100
AcDbLine
 10
9526.6172905201
 20
6972.9421387116
 30
0.0
 11
9526.5172739262
 21
6972.9421387116
 31
0.0
  0
LINE
  5
403
330
1F
100
AcDbEntity
  8
0
  6
Continuous
 62
     7
 48
50.0
370
    25
100
AcDbLine
 10
9526.6172905201
 20
6972.9421387116
 30
0.0
 11
9526.6172905201
 21
7219.760681192
 31
0.0
  0
LINE
  5
404
330
1F
100
AcDbEntity
  8
0
  6
Continuous
 62
     7
 48
50.0
370
    25
100
AcDbLine
 10
9526.6172905201
 20
7219.760681192
 30
0.0
 11
9526.5172739262
 21
7219.760681192
 31
0.0
  0
LINE
  5
405
330
1F
100
AcDbEntity
  8
0
  6
Continuous
 62
     7
 48
50.0
370
    25
100
AcDbLine
 10
9526.5172739262
 20
8207.029129068
 30
0.0
 11
9526.5172739262
 21
7219.760681192
 31
0.0
  0
LINE
  5
406
330
1F
100
AcDbEntity
  8
0
  6
Continuous
 62
     7
 48
50.0
370
    25
100
AcDbLine
 10
9526.6172905201
 20
8207.029129068
 30
0.0
 11
9526.5172739262
 21
8207.029129068
 31
0.0
  0
LINE
  5
407
330
1F
100
AcDbEntity
  8
0
  6
Continuous
 62
     7
 48
50.0
370
    25
100
AcDbLine
 10
9526.6172905201
 20
8207.029129068
 30
0.0
 11
9526.6172905201
 21
8453.8457641999
 31
0.0
  0
LINE
  5
408
330
1F
100
AcDbEntity
  8
0
  6
Continuous
 62
     7
 48
50.0
370
    25
100
AcDbLine
 10
9526.6172905201
 20
8453.8457641999
 30
0.0
 11
9526.5172739262
 21
8453.8457641999
 31
0.0
  0
LINE
  5
409
330
1F
100
AcDbEntity
  8
0
  6
Continuous
 62
     7
 48
50.0
370
    25
100
AcDbLine
 10
9526.5172739262
 20
8700.6643066803
 30
0.0
 11
9526.5172739262
 21
8453.8457641999
 31
0.0
  0
LINE
  5
40A
330
1F
100
AcDbEntity
  8
0
  6
Continuous
 62
     7
 48
50.0
370
    25
100
AcDbLine
 10
10666.5172894234
 20
8700.6643066803
 30
0.0
 11
9526.5172739262
 21
8700.6643066803
 31
0.0
  0
LINE
  5
40B
330
1F
100
AcDbEntity
  8
0
  6
Continuous
 62
     7
 48
50.0
370
    25
100
AcDbLine
 10
10666.5172894234
 20
8453.8457641999
 30
0.0
 11
10666.5172894234
 21
8700.6643066803
 31
0.0
  0
LINE
  5
40C
330
1F
100
AcDbEntity
  8
0
  6
Continuous
 62
     7
 48
50.0
370
    25
100
AcDbLine
 10
10666.4172728295
 20
8453.8457641999
 30
0.0
 11
10666.5172894234
 21
8453.8457641999
 31
0.0
  0
LINE
  5
40D
330
1F
100
AcDbEntity
  8
0
  6
Continuous
 62
     7
 48
50.0
370
    25
100
AcDbLine
 10
10666.4172728295
 20
8207.029129068
 30
0.0
 11
10666.4172728295
 21
8453.8457641999
 31
0.0
  0
LINE
  5
40E
330
1F
100
AcDbEntity
  8
0
  6
Continuous
 62
     7
 48
50.0
370
    25
100
AcDbLine
 10
10666.4172728295
 20
8207.029129068
 30
0.0
 11
10666.5172894234
 21
8207.029129068
 31
0.0
  0
LINE
  5
40F
330
1F
100
AcDbEntity
  8
0
  6
Continuous
 62
     7
 48
50.0
370
    25
100
AcDbLine
 10
10666.5172894234
 20
7219.760681192
 30
0.0
 11
10666.5172894234
 21
8207.029129068
 31
0.0
  0
LINE
  5
410
330
1F
100
AcDbEntity
  8
0
  6
Continuous
 62
     7
 48
50.0
370
    25
100
AcDbLine
 10
10666.4172728295
 20
7219.760681192
 30
0.0
 11
10666.5172894234
 21
7219.760681192
 31
0.0
  0
LINE
  5
411
330
1F
100
AcDbEntity
  8
0
  6
Continuous
 62
     7
 48
50.0
370
    25
100
AcDbLine
 10
10666.4172728295
 20
6972.9421387116
 30
0.0
 11
10666.4172728295
 21
7219.760681192
 31
0.0
  0
LINE
  5
412
330
1F
100
AcDbEntity
  8
0
  6
Continuous
 62
     7
 48
50.0
370
    25
100
AcDbLine
 10
10666.4172728295
 20
6972.9421387116
 30
0.0
 11
10666.5172894234
 21
6972.9421387116
 31
0.0
  0
LINE
  5
413
330
1F
100
AcDbEntity
  8
0
  6
Continuous
 62
     7
 48
50.0
370
    25
100
AcDbLine
 10
10666.5172894234
 20
6726.1255035797
 30
0.0
 11
10666.5172894234
 21
6972.9421387116
 31
0.0
  0
LINE
  5
414
330
1F
100
AcDbEntity
  8
0
  6
Continuous
 62
     7
 48
50.0
370
    25
100
AcDbLine
 10
9535.5172772641
 20
8692.868972818
 30
0.0
 11
10657.5172860855
 21
8692.868972818
 31
0.0
  0
LINE
  5
415
330
1F
100
AcDbEntity
  8
0
  6
Continuous
 62
     7
 48
50.0
370
    25
100
AcDbLine
 10
9535.5172772641
 20
6733.9189300934
 30
0.0
 11
9535.5172772641
 21
8692.868972818
 31
0.0
  0
LINE
  5
416
330
1F
100
AcDbEntity
  8
0
  6
Continuous
 62
     7
 48
50.0
370
    25
100
AcDbLine
 10
10657.5172860855
 20
6733.9189300934
 30
0.0
 11
9535.5172772641
 21
6733.9189300934
 31
0.0
  0
LINE
  5
417
330
1F
100
AcDbEntity
  8
0
  6
Continuous
 62
     7
 48
50.0
370
    25
100
AcDbLine
 10
10657.5172860855
 20
8692.868972818
 30
0.0
 11
10657.5172860855
 21
6733.9189300934
 31
0.0
  0
LINE
  5
418
330
1F
100
AcDbEntity
  8
0
  6
Continuous
 62
     7
 48
50.0
370
    25
100
AcDbLine
 10
10666.5172894234
 20
8720.6628570954
 30
0.0
 11
9526.5172739262
 21
8720.6628570954
 31
0.0
  0
LINE
  5
419
330
1F
100
AcDbEntity
  8
0
  6
Continuous
 62
     7
 48
50.0
370
    25
100
AcDbLine
 10
10666.5172894234
 20
8720.6628570954
 30
0.0
 11
10666.5172894234
 21
8700.6643066803
 31
0.0
  0
LINE
  5
41A
330
1F
100
AcDbEntity
  8
0
  6
Continuous
 62
     7
 48
50.0
370
    25
100
AcDbLine
 10
9526.5172739262
 20
8720.6628570954
 30
0.0
 11
9526.5172739262
 21
8700.6643066803
 31
0.0
  0
LINE
  5
41B
330
1F
100
AcDbEntity
  8
0
  6
Continuous
 62
     7
 48
50.0
370
    25
100
AcDbLine
 10
10657.5172860855
 20
6733.9189300934
 30
0.0
 11
10656.5172989601
 21
6735.0747833649
 31
0.0
  0
LINE
  5
41C
330
1F
100
AcDbEntity
  8
0
  6
Continuous
 62
     7
 48
50.0
370
    25
100
AcDbLine
 10
10656.5172989601
 20
6735.0747833649
 30
0.0
 11
10656.5172989601
 21
8692.2910461823
 31
0.0
  0
LINE
  5
41D
330
1F
100
AcDbEntity
  8
0
  6
Continuous
 62
     7
 48
50.0
370
    25
100
AcDbLine
 10
10657.5172860855
 20
8692.868972818
 30
0.0
 11
10656.5172989601
 21
8692.2910461823
 31
0.0
  0
LINE
  5
41E
330
1F
100
AcDbEntity
  8
0
  6
Continuous
 62
     7
 48
50.0
370
    25
100
AcDbLine
 10
10656.5172989601
 20
8692.2910461823
 30
0.0
 11
9536.5172941918
 21
8692.2910461823
 31
0.0
  0
LINE
  5
41F
330
1F
100
AcDbEntity
  8
0
  6
Continuous
 62
     7
 48
50.0
370
    25
100
AcDbLine
 10
9536.5172941918
 20
8692.2910461823
 30
0.0
 11
9535.5172772641
 21
8692.868972818
 31
0.0
  0
LINE
  5
420
330
1F
100
AcDbEntity
  8
0
  6
Continuous
 62
     7
 48
50.0
370
    25
100
AcDbLine
 10
9536.5172941918
 20
8692.2910461823
 30
0.0
 11
9536.5172941918
 21
6735.0747833649
 31
0.0
  0
LINE
  5
421
330
1F
100
AcDbEntity
  8
0
  6
Continuous
 62
     7
 48
50.0
370
    25
100
AcDbLine
 10
9536.5172941918
 20
6735.0747833649
 30
0.0
 11
9535.5172772641
 21
6733.9189300934
 31
0.0
  0
LINE
  5
422
330
1F
100
AcDbEntity
  8
0
  6
Continuous
 62
     7
 48
50.0
370
    25
100
AcDbLine
 10
9536.5172941918
 20
6735.536361734
 30
0.0
 11
10656.5172989601
 21
6735.536361734
 31
0.0
  0
LINE
  5
423
330
1F
100
AcDbEntity
  8
0
  6
Continuous
 62
     7
 48
50.0
370
    25
100
AcDbLine
 10
9526.5172739262
 20
8227.0295868317
 30
0.0
 11
9526.5172739262
 21
8207.029129068
 31
0.0
  0
LINE
  5
424
330
1F
100
AcDbEntity
  8
0
  6
Continuous
 62
     7
 48
50.0
370
    25
100
AcDbLine
 10
9526.6172905201
 20
8227.0295868317
 30
0.0
 11
9526.5172739262
 21
8227.0295868317
 31
0.0
  0
LINE
  5
425
330
1F
100
AcDbEntity
  8
0
  6
Continuous
 62
     7
 48
50.0
370
    25
100
AcDbLine
 10
10666.5172894234
 20
8227.0295868317
 30
0.0
 11
10666.5172894234
 21
8207.029129068
 31
0.0
  0
LINE
  5
426
330
1F
100
AcDbEntity
  8
0
  6
Continuous
 62
     7
 48
50.0
370
    25
100
AcDbLine
 10
10666.4172728295
 20
8227.0295868317
 30
0.0
 11
10666.5172894234
 21
8227.0295868317
 31
0.0
  0
LINE
  5
427
330
1F
100
AcDbEntity
  8
0
  6
Continuous
 62
     7
 48
50.0
370
    25
100
AcDbLine
 10
9526.5172739262
 20
6992.9425964752
 30
0.0
 11
9526.5172739262
 21
6972.9421387116
 31
0.0
  0
LINE
  5
428
330
1F
100
AcDbEntity
  8
0
  6
Continuous
 62
     7
 48
50.0
370
    25
100
AcDbLine
 10
9526.6172905201
 20
6992.9425964752
 30
0.0
 11
9526.5172739262
 21
6992.9425964752
 31
0.0
  0
LINE
  5
429
330
1F
100
AcDbEntity
  8
0
  6
Continuous
 62
     7
 48
50.0
370
    25
100
AcDbLine
 10
10666.5172894234
 20
6992.9425964752
 30
0.0
 11
10666.5172894234
 21
6972.9421387116
 31
0.0
  0
LINE
  5
42A
330
1F
100
AcDbEntity
  8
0
  6
Continuous
 62
     7
 48
50.0
370
    25
100
AcDbLine
 10
10666.4172728295
 20
6992.9425964752
 30
0.0
 11
10666.5172894234
 21
6992.9425964752
 31
0.0
  0
LINE
  5
42B
330
1F
100
AcDbEntity
  8
0
  6
Continuous
 62
     7
 48
50.0
370
    25
100
AcDbLine
 10
9536.5172941918
 20
6735.0747833649
 30
0.0
 11
10656.5172989601
 21
6735.0747833649
 31
0.0
  0
LINE
  5
42C
330
1F
100
AcDbEntity
  8
0
  6
Continuous
 62
     7
 48
50.0
370
    25
100
AcDbLine
 10
8367.5173242325
 20
4735.1339111725
 30
0.0
 11
9507.5172801251
 21
4735.1339111725
 31
0.0
  0
LINE
  5
42D
330
1F
100
AcDbEntity
  8
0
  6
Continuous
 62
     7
 48
50.0
370
    25
100
AcDbLine
 10
8367.5173242325
 20
4981.9505463043
 30
0.0
 11
8367.5173242325
 21
4735.1339111725
 31
0.0
  0
LINE
  5
42E
330
1F
100
AcDbEntity
  8
0
  6
Continuous
 62
     7
 48
50.0
370
    25
100
AcDbLine
 10
8367.6172216172
 20
4981.9505463043
 30
0.0
 11
8367.5173242325
 21
4981.9505463043
 31
0.0
  0
LINE
  5
42F
330
1F
100
AcDbEntity
  8
0
  6
Continuous
 62
     7
 48
50.0
370
    25
100
AcDbLine
 10
8367.6172216172
 20
4981.9505463043
 30
0.0
 11
8367.6172216172
 21
5228.7671814362
 31
0.0
  0
LINE
  5
430
330
1F
100
AcDbEntity
  8
0
  6
Continuous
 62
     7
 48
50.0
370
    25
100
AcDbLine
 10
8367.6172216172
 20
5228.7671814362
 30
0.0
 11
8367.5173242325
 21
5228.7671814362
 31
0.0
  0
LINE
  5
431
330
1F
100
AcDbEntity
  8
0
  6
Continuous
 62
     7
 48
50.0
370
    25
100
AcDbLine
 10
8367.5173242325
 20
6216.0375366608
 30
0.0
 11
8367.5173242325
 21
5228.7671814362
 31
0.0
  0
LINE
  5
432
330
1F
100
AcDbEntity
  8
0
  6
Continuous
 62
     7
 48
50.0
370
    25
100
AcDbLine
 10
8367.6172216172
 20
6216.0375366608
 30
0.0
 11
8367.5173242325
 21
6216.0375366608
 31
0.0
  0
LINE
  5
433
330
1F
100
AcDbEntity
  8
0
  6
Continuous
 62
     7
 48
50.0
370
    25
100
AcDbLine
 10
8367.6172216172
 20
6216.0375366608
 30
0.0
 11
8367.6172216172
 21
6462.8541717926
 31
0.0
  0
LINE
  5
434
330
1F
100
AcDbEntity
  8
0
  6
Continuous
 62
     7
 48
50.0
370
    25
100
AcDbLine
 10
8367.6172216172
 20
6462.8541717926
 30
0.0
 11
8367.5173242325
 21
6462.8541717926
 31
0.0
  0
LINE
  5
435
330
1F
100
AcDbEntity
  8
0
  6
Continuous
 62
     7
 48
50.0
370
    25
100
AcDbLine
 10
8367.5173242325
 20
6709.6708069245
 30
0.0
 11
8367.5173242325
 21
6462.8541717926
 31
0.0
  0
LINE
  5
436
330
1F
100
AcDbEntity
  8
0
  6
Continuous
 62
     7
 48
50.0
370
    25
100
AcDbLine
 10
9507.5172801251
 20
6709.6708069245
 30
0.0
 11
8367.5173242325
 21
6709.6708069245
 31
0.0
  0
LINE
  5
437
330
1F
100
AcDbEntity
  8
0
  6
Continuous
 62
     7
 48
50.0
370
    25
100
AcDbLine
 10
9507.5172801251
 20
6462.8541717926
 30
0.0
 11
9507.5172801251
 21
6709.6708069245
 31
0.0
  0
LINE
  5
438
330
1F
100
AcDbEntity
  8
0
  6
Continuous
 62
     7
 48
50.0
370
    25
100
AcDbLine
 10
9507.4172933335
 20
6462.8541717926
 30
0.0
 11
9507.5172801251
 21
6462.8541717926
 31
0.0
  0
LINE
  5
439
330
1F
100
AcDbEntity
  8
0
  6
Continuous
 62
     7
 48
50.0
370
    25
100
AcDbLine
 10
9507.4172933335
 20
6216.0375366608
 30
0.0
 11
9507.4172933335
 21
6462.8541717926
 31
0.0
  0
LINE
  5
43A
330
1F
100
AcDbEntity
  8
0
  6
Continuous
 62
     7
 48
50.0
370
    25
100
AcDbLine
 10
9507.4172933335
 20
6216.0375366608
 30
0.0
 11
9507.5172801251
 21
6216.0375366608
 31
0.0
  0
LINE
  5
43B
330
1F
100
AcDbEntity
  8
0
  6
Continuous
 62
     7
 48
50.0
370
    25
100
AcDbLine
 10
9507.5172801251
 20
5228.7671814362
 30
0.0
 11
9507.5172801251
 21
6216.0375366608
 31
0.0
  0
LINE
  5
43C
330
1F
100
AcDbEntity
  8
0
  6
Continuous
 62
     7
 48
50.0
370
    25
100
AcDbLine
 10
9507.4172933335
 20
5228.7671814362
 30
0.0
 11
9507.5172801251
 21
5228.7671814362
 31
0.0
  0
LINE
  5
43D
330
1F
100
AcDbEntity
  8
0
  6
Continuous
 62
     7
 48
50.0
370
    25
100
AcDbLine
 10
9507.4172933335
 20
4981.9505463043
 30
0.0
 11
9507.4172933335
 21
5228.7671814362
 31
0.0
  0
LINE
  5
43E
330
1F
100
AcDbEntity
  8
0
  6
Continuous
 62
     7
 48
50.0
370
    25
100
AcDbLine
 10
9507.4172933335
 20
4981.9505463043
 30
0.0
 11
9507.5172801251
 21
4981.9505463043
 31
0.0
  0
LINE
  5
43F
330
1F
100
AcDbEntity
  8
0
  6
Continuous
 62
     7
 48
50.0
370
    25
100
AcDbLine
 10
9507.5172801251
 20
4735.1339111725
 30
0.0
 11
9507.5172801251
 21
4981.9505463043
 31
0.0
  0
LINE
  5
440
330
1F
100
AcDbEntity
  8
0
  6
Continuous
 62
     7
 48
50.0
370
    25
100
AcDbLine
 10
8376.5172679657
 20
6701.8773804108
 30
0.0
 11
9498.5172767872
 21
6701.8773804108
 31
0.0
  0
LINE
  5
441
330
1F
100
AcDbEntity
  8
0
  6
Continuous
 62
     7
 48
50.0
370
    25
100
AcDbLine
 10
8376.5172679657
 20
4742.9273376862
 30
0.0
 11
8376.5172679657
 21
6701.8773804108
 31
0.0
  0
LINE
  5
442
330
1F
100
AcDbEntity
  8
0
  6
Continuous
 62
     7
 48
50.0
370
    25
100
AcDbLine
 10
9498.5172767872
 20
4742.9273376862
 30
0.0
 11
8376.5172679657
 21
4742.9273376862
 31
0.0
  0
LINE
  5
443
330
1F
100
AcDbEntity
  8
0
  6
Continuous
 62
     7
 48
50.0
370
    25
100
AcDbLine
 10
9498.5172767872
 20
6701.8773804108
 30
0.0
 11
9498.5172767872
 21
4742.9273376862
 31
0.0
  0
LINE
  5
444
330
1F
100
AcDbEntity
  8
0
  6
Continuous
 62
     7
 48
50.0
370
    25
100
AcDbLine
 10
9507.5172801251
 20
6726.1255035797
 30
0.0
 11
9507.5172801251
 21
6709.6708069245
 31
0.0
  0
LINE
  5
445
330
1F
100
AcDbEntity
  8
0
  6
Continuous
 62
     7
 48
50.0
370
    25
100
AcDbLine
 10
8367.5173242325
 20
6726.1255035797
 30
0.0
 11
8367.5173242325
 21
6709.6708069245
 31
0.0
  0
LINE
  5
446
330
1F
100
AcDbEntity
  8
0
  6
Continuous
 62
     7
 48
50.0
370
    25
100
AcDbLine
 10
9498.5172767872
 20
4742.9273376862
 30
0.0
 11
9497.5172896618
 21
4744.081283609
 31
0.0
  0
LINE
  5
447
330
1F
100
AcDbEntity
  8
0
  6
Continuous
 62
     7
 48
50.0
370
    25
100
AcDbLine
 10
9497.5172896618
 20
4744.081283609
 30
0.0
 11
9497.5172896618
 21
6701.2994537751
 31
0.0
  0
LINE
  5
448
330
1F
100
AcDbEntity
  8
0
  6
Continuous
 62
     7
 48
50.0
370
    25
100
AcDbLine
 10
9498.5172767872
 20
6701.8773804108
 30
0.0
 11
9497.5172896618
 21
6701.2994537751
 31
0.0
  0
LINE
  5
449
330
1F
100
AcDbEntity
  8
0
  6
Continuous
 62
     7
 48
50.0
370
    25
100
AcDbLine
 10
9497.5172896618
 20
6701.2994537751
 30
0.0
 11
8377.5173146958
 21
6701.2994537751
 31
0.0
  0
LINE
  5
44A
330
1F
100
AcDbEntity
  8
0
  6
Continuous
 62
     7
 48
50.0
370
    25
100
AcDbLine
 10
8377.5173146958
 20
6701.2994537751
 30
0.0
 11
8376.5172679657
 21
6701.8773804108
 31
0.0
  0
LINE
  5
44B
330
1F
100
AcDbEntity
  8
0
  6
Continuous
 62
     7
 48
50.0
370
    25
100
AcDbLine
 10
8377.5173146958
 20
6701.2994537751
 30
0.0
 11
8377.5173146958
 21
4744.081283609
 31
0.0
  0
LINE
  5
44C
330
1F
100
AcDbEntity
  8
0
  6
Continuous
 62
     7
 48
50.0
370
    25
100
AcDbLine
 10
8377.5173146958
 20
4744.081283609
 30
0.0
 11
8376.5172679657
 21
4742.9273376862
 31
0.0
  0
LINE
  5
44D
330
1F
100
AcDbEntity
  8
0
  6
Continuous
 62
     7
 48
50.0
370
    25
100
AcDbLine
 10
8377.5173146958
 20
4744.5428619782
 30
0.0
 11
9497.5172896618
 21
4744.5428619782
 31
0.0
  0
LINE
  5
44E
330
1F
100
AcDbEntity
  8
0
  6
Continuous
 62
     7
 48
50.0
370
    25
100
AcDbLine
 10
8367.5173242325
 20
6236.0360870758
 30
0.0
 11
8367.5173242325
 21
6216.0375366608
 31
0.0
  0
LINE
  5
44F
330
1F
100
AcDbEntity
  8
0
  6
Continuous
 62
     7
 48
50.0
370
    25
100
AcDbLine
 10
8367.6172216172
 20
6236.0360870758
 30
0.0
 11
8367.5173242325
 21
6236.0360870758
 31
0.0
  0
LINE
  5
450
330
1F
100
AcDbEntity
  8
0
  6
Continuous
 62
     7
 48
50.0
370
    25
100
AcDbLine
 10
9507.5172801251
 20
6236.0360870758
 30
0.0
 11
9507.5172801251
 21
6216.0375366608
 31
0.0
  0
LINE
  5
451
330
1F
100
AcDbEntity
  8
0
  6
Continuous
 62
     7
 48
50.0
370
    25
100
AcDbLine
 10
9507.4172933335
 20
6236.0360870758
 30
0.0
 11
9507.5172801251
 21
6236.0360870758
 31
0.0
  0
LINE
  5
452
330
1F
100
AcDbEntity
  8
0
  6
Continuous
 62
     7
 48
50.0
370
    25
100
AcDbLine
 10
8367.5173242325
 20
5001.951004068
 30
0.0
 11
8367.5173242325
 21
4981.9505463043
 31
0.0
  0
LINE
  5
453
330
1F
100
AcDbEntity
  8
0
  6
Continuous
 62
     7
 48
50.0
370
    25
100
AcDbLine
 10
8367.6172216172
 20
5001.951004068
 30
0.0
 11
8367.5173242325
 21
5001.951004068
 31
0.0
  0
LINE
  5
454
330
1F
100
AcDbEntity
  8
0
  6
Continuous
 62
     7
 48
50.0
370
    25
100
AcDbLine
 10
9507.5172801251
 20
5001.951004068
 30
0.0
 11
9507.5172801251
 21
4981.9505463043
 31
0.0
  0
LINE
  5
455
330
1F
100
AcDbEntity
  8
0
  6
Continuous
 62
     7
 48
50.0
370
    25
100
AcDbLine
 10
9507.4172933335
 20
5001.951004068
 30
0.0
 11
9507.5172801251
 21
5001.951004068
 31
0.0
  0
LINE
  5
456
330
1F
100
AcDbEntity
  8
0
  6
Continuous
 62
     7
 48
50.0
370
    25
100
AcDbLine
 10
8377.5173146958
 20
4744.081283609
 30
0.0
 11
9497.5172896618
 21
4744.081283609
 31
0.0
  0
LINE
  5
457
330
1F
100
AcDbEntity
  8
0
  6
Continuous
 62
     7
 48
50.0
370
    25
100
AcDbLine
 10
8367.5173242325
 20
6726.1255035797
 30
0.0
 11
9507.5172801251
 21
6726.1255035797
 31
0.0
  0
LINE
  5
458
330
1F
100
AcDbEntity
  8
0
  6
Continuous
 62
     7
 48
50.0
370
    25
100
AcDbLine
 10
8367.5173242325
 20
6972.9421387116
 30
0.0
 11
8367.5173242325
 21
6726.1255035797
 31
0.0
  0
LINE
  5
459
330
1F
100
AcDbEntity
  8
0
  6
Continuous
 62
     7
 48
50.0
370
    25
100
AcDbLine
 10
8367.6172216172
 20
6972.9421387116
 30
0.0
 11
8367.5173242325
 21
6972.9421387116
 31
0.0
  0
LINE
  5
45A
330
1F
100
AcDbEntity
  8
0
  6
Continuous
 62
     7
 48
50.0
370
    25
100
AcDbLine
 10
8367.6172216172
 20
6972.9421387116
 30
0.0
 11
8367.6172216172
 21
7219.760681192
 31
0.0
  0
LINE
  5
45B
330
1F
100
AcDbEntity
  8
0
  6
Continuous
 62
     7
 48
50.0
370
    25
100
AcDbLine
 10
8367.6172216172
 20
7219.760681192
 30
0.0
 11
8367.5173242325
 21
7219.760681192
 31
0.0
  0
LINE
  5
45C
330
1F
100
AcDbEntity
  8
0
  6
Continuous
 62
     7
 48
50.0
370
    25
100
AcDbLine
 10
8367.5173242325
 20
8207.029129068
 30
0.0
 11
8367.5173242325
 21
7219.760681192
 31
0.0
  0
LINE
  5
45D
330
1F
100
AcDbEntity
  8
0
  6
Continuous
 62
     7
 48
50.0
370
    25
100
AcDbLine
 10
8367.6172216172
 20
8207.029129068
 30
0.0
 11
8367.5173242325
 21
8207.029129068
 31
0.0
  0
LINE
  5
45E
330
1F
100
AcDbEntity
  8
0
  6
Continuous
 62
     7
 48
50.0
370
    25
100
AcDbLine
 10
8367.6172216172
 20
8207.029129068
 30
0.0
 11
8367.6172216172
 21
8453.8457641999
 31
0.0
  0
LINE
  5
45F
330
1F
100
AcDbEntity
  8
0
  6
Continuous
 62
     7
 48
50.0
370
    25
100
AcDbLine
 10
8367.6172216172
 20
8453.8457641999
 30
0.0
 11
8367.5173242325
 21
8453.8457641999
 31
0.0
  0
LINE
  5
460
330
1F
100
AcDbEntity
  8
0
  6
Continuous
 62
     7
 48
50.0
370
    25
100
AcDbLine
 10
8367.5173242325
 20
8700.6643066803
 30
0.0
 11
8367.5173242325
 21
8453.8457641999
 31
0.0
  0
LINE
  5
461
330
1F
100
AcDbEntity
  8
0
  6
Continuous
 62
     7
 48
50.0
370
    25
100
AcDbLine
 10
9507.5172801251
 20
8700.6643066803
 30
0.0
 11
8367.5173242325
 21
8700.6643066803
 31
0.0
  0
LINE
  5
462
330
1F
100
AcDbEntity
  8
0
  6
Continuous
 62
     7
 48
50.0
370
    25
100
AcDbLine
 10
9507.5172801251
 20
8453.8457641999
 30
0.0
 11
9507.5172801251
 21
8700.6643066803
 31
0.0
  0
LINE
  5
463
330
1F
100
AcDbEntity
  8
0
  6
Continuous
 62
     7
 48
50.0
370
    25
100
AcDbLine
 10
9507.4172933335
 20
8453.8457641999
 30
0.0
 11
9507.5172801251
 21
8453.8457641999
 31
0.0
  0
LINE
  5
464
330
1F
100
AcDbEntity
  8
0
  6
Continuous
 62
     7
 48
50.0
370
    25
100
AcDbLine
 10
9507.4172933335
 20
8207.029129068
 30
0.0
 11
9507.4172933335
 21
8453.8457641999
 31
0.0
  0
LINE
  5
465
330
1F
100
AcDbEntity
  8
0
  6
Continuous
 62
     7
 48
50.0
370
    25
100
AcDbLine
 10
9507.4172933335
 20
8207.029129068
 30
0.0
 11
9507.5172801251
 21
8207.029129068
 31
0.0
  0
LINE
  5
466
330
1F
100
AcDbEntity
  8
0
  6
Continuous
 62
     7
 48
50.0
370
    25
100
AcDbLine
 10
9507.5172801251
 20
7219.760681192
 30
0.0
 11
9507.5172801251
 21
8207.029129068
 31
0.0
  0
LINE
  5
467
330
1F
100
AcDbEntity
  8
0
  6
Continuous
 62
     7
 48
50.0
370
    25
100
AcDbLine
 10
9507.4172933335
 20
7219.760681192
 30
0.0
 11
9507.5172801251
 21
7219.760681192
 31
0.0
  0
LINE
  5
468
330
1F
100
AcDbEntity
  8
0
  6
Continuous
 62
     7
 48
50.0
370
    25
100
AcDbLine
 10
9507.4172933335
 20
6972.9421387116
 30
0.0
 11
9507.4172933335
 21
7219.760681192
 31
0.0
  0
LINE
  5
469
330
1F
100
AcDbEntity
  8
0
  6
Continuous
 62
     7
 48
50.0
370
    25
100
AcDbLine
 10
9507.4172933335
 20
6972.9421387116
 30
0.0
 11
9507.5172801251
 21
6972.9421387116
 31
0.0
  0
LINE
  5
46A
330
1F
100
AcDbEntity
  8
0
  6
Continuous
 62
     7
 48
50.0
370
    25
100
AcDbLine
 10
9507.5172801251
 20
6726.1255035797
 30
0.0
 11
9507.5172801251
 21
6972.9421387116
 31
0.0
  0
LINE
  5
46B
330
1F
100
AcDbEntity
  8
0
  6
Continuous
 62
     7
 48
50.0
370
    25
100
AcDbLine
 10
8376.5172679657
 20
8692.868972818
 30
0.0
 11
9498.5172767872
 21
8692.868972818
 31
0.0
  0
LINE
  5
46C
330
1F
100
AcDbEntity
  8
0
  6
Continuous
 62
     7
 48
50.0
370
    25
100
AcDbLine
 10
8376.5172679657
 20
6733.9189300934
 30
0.0
 11
8376.5172679657
 21
8692.868972818
 31
0.0
  0
LINE
  5
46D
330
1F
100
AcDbEntity
  8
0
  6
Continuous
 62
     7
 48
50.0
370
    25
100
AcDbLine
 10
9498.5172767872
 20
6733.9189300934
 30
0.0
 11
8376.5172679657
 21
6733.9189300934
 31
0.0
  0
LINE
  5
46E
330
1F
100
AcDbEntity
  8
0
  6
Continuous
 62
     7
 48
50.0
370
    25
100
AcDbLine
 10
9498.5172767872
 20
8692.868972818
 30
0.0
 11
9498.5172767872
 21
6733.9189300934
 31
0.0
  0
LINE
  5
46F
330
1F
100
AcDbEntity
  8
0
  6
Continuous
 62
     7
 48
50.0
370
    25
100
AcDbLine
 10
9507.5172801251
 20
8720.6628570954
 30
0.0
 11
8367.5173242325
 21
8720.6628570954
 31
0.0
  0
LINE
  5
470
330
1F
100
AcDbEntity
  8
0
  6
Continuous
 62
     7
 48
50.0
370
    25
100
AcDbLine
 10
9507.5172801251
 20
8720.6628570954
 30
0.0
 11
9507.5172801251
 21
8700.6643066803
 31
0.0
  0
LINE
  5
471
330
1F
100
AcDbEntity
  8
0
  6
Continuous
 62
     7
 48
50.0
370
    25
100
AcDbLine
 10
8367.5173242325
 20
8720.6628570954
 30
0.0
 11
8367.5173242325
 21
8700.6643066803
 31
0.0
  0
LINE
  5
472
330
1F
100
AcDbEntity
  8
0
  6
Continuous
 62
     7
 48
50.0
370
    25
100
AcDbLine
 10
9498.5172767872
 20
6733.9189300934
 30
0.0
 11
9497.5172896618
 21
6735.0747833649
 31
0.0
  0
LINE
  5
473
330
1F
100
AcDbEntity
  8
0
  6
Continuous
 62
     7
 48
50.0
370
    25
100
AcDbLine
 10
9497.5172896618
 20
6735.0747833649
 30
0.0
 11
9497.5172896618
 21
8692.2910461823
 31
0.0
  0
LINE
  5
474
330
1F
100
AcDbEntity
  8
0
  6
Continuous
 62
     7
 48
50.0
370
    25
100
AcDbLine
 10
9498.5172767872
 20
8692.868972818
 30
0.0
 11
9497.5172896618
 21
8692.2910461823
 31
0.0
  0
LINE
  5
475
330
1F
100
AcDbEntity
  8
0
  6
Continuous
 62
     7
 48
50.0
370
    25
100
AcDbLine
 10
9497.5172896618
 20
8692.2910461823
 30
0.0
 11
8377.5173146958
 21
8692.2910461823
 31
0.0
  0
LINE
  5
476
330
1F
100
AcDbEntity
  8
0
  6
Continuous
 62
     7
 48
50.0
370
    25
100
AcDbLine
 10
8377.5173146958
 20
8692.2910461823
 30
0.0
 11
8376.5172679657
 21
8692.868972818
 31
0.0
  0
LINE
  5
477
330
1F
100
AcDbEntity
  8
0
  6
Continuous
 62
     7
 48
50.0
370
    25
100
AcDbLine
 10
8377.5173146958
 20
8692.2910461823
 30
0.0
 11
8377.5173146958
 21
6735.0747833649
 31
0.0
  0
LINE
  5
478
330
1F
100
AcDbEntity
  8
0
  6
Continuous
 62
     7
 48
50.0
370
    25
100
AcDbLine
 10
8377.5173146958
 20
6735.0747833649
 30
0.0
 11
8376.5172679657
 21
6733.9189300934
 31
0.0
  0
LINE
  5
479
330
1F
100
AcDbEntity
  8
0
  6
Continuous
 62
     7
 48
50.0
370
    25
100
AcDbLine
 10
8377.5173146958
 20
6735.536361734
 30
0.0
 11
9497.5172896618
 21
6735.536361734
 31
0.0
  0
LINE
  5
47A
330
1F
100
AcDbEntity
  8
0
  6
Continuous
 62
     7
 48
50.0
370
    25
100
AcDbLine
 10
8367.5173242325
 20
8227.0295868317
 30
0.0
 11
8367.5173242325
 21
8207.029129068
 31
0.0
  0
LINE
  5
47B
330
1F
100
AcDbEntity
  8
0
  6
Continuous
 62
     7
 48
50.0
370
    25
100
AcDbLine
 10
8367.6172216172
 20
8227.0295868317
 30
0.0
 11
8367.5173242325
 21
8227.0295868317
 31
0.0
  0
LINE
  5
47C
330
1F
100
AcDbEntity
  8
0
  6
Continuous
 62
     7
 48
50.0
370
    25
100
AcDbLine
 10
9507.5172801251
 20
8227.0295868317
 30
0.0
 11
9507.5172801251
 21
8207.029129068
 31
0.0
  0
LINE
  5
47D
330
1F
100
AcDbEntity
  8
0
  6
Continuous
 62
     7
 48
50.0
370
    25
100
AcDbLine
 10
9507.4172933335
 20
8227.0295868317
 30
0.0
 11
9507.5172801251
 21
8227.0295868317
 31
0.0
  0
LINE
  5
47E
330
1F
100
AcDbEntity
  8
0
  6
Continuous
 62
     7
 48
50.0
370
    25
100
AcDbLine
 10
8367.5173242325
 20
6992.9425964752
 30
0.0
 11
8367.5173242325
 21
6972.9421387116
 31
0.0
  0
LINE
  5
47F
330
1F
100
AcDbEntity
  8
0
  6
Continuous
 62
     7
 48
50.0
370
    25
100
AcDbLine
 10
8367.6172216172
 20
6992.9425964752
 30
0.0
 11
8367.5173242325
 21
6992.9425964752
 31
0.0
  0
LINE
  5
480
330
1F
100
AcDbEntity
  8
0
  6
Continuous
 62
     7
 48
50.0
370
    25
100
AcDbLine
 10
9507.5172801251
 20
6992.9425964752
 30
0.0
 11
9507.5172801251
 21
6972.9421387116
 31
0.0
  0
LINE
  5
481
330
1F
100
AcDbEntity
  8
0
  6
Continuous
 62
     7
 48
50.0
370
    25
100
AcDbLine
 10
9507.4172933335
 20
6992.9425964752
 30
0.0
 11
9507.5172801251
 21
6992.9425964752
 31
0.0
  0
LINE
  5
482
330
1F
100
AcDbEntity
  8
0
  6
Continuous
 62
     7
 48
50.0
370
    25
100
AcDbLine
 10
8377.5173146958
 20
6735.0747833649
 30
0.0
 11
9497.5172896618
 21
6735.0747833649
 31
0.0
  0
LINE
  5
483
330
1F
100
AcDbEntity
  8
0
  6
Continuous
 62
     7
 48
50.0
370
    25
100
AcDbLine
 10
8332.0172746415
 20
8228.778625528
 30
0.0
 11
8332.0172746415
 21
8223.9988098542
 31
0.0
  0
LINE
  5
484
330
1F
100
AcDbEntity
  8
0
  6
Continuous
 62
     7
 48
50.0
370
    25
100
AcDbLine
 10
10702.0172794098
 20
8228.778625528
 30
0.0
 11
10702.0172794098
 21
8223.9988098542
 31
0.0
  0
LINE
  5
485
330
1F
100
AcDbEntity
  8
0
  6
Continuous
 62
     7
 48
50.0
370
    25
100
AcDbLine
 10
8332.0172746415
 20
8223.9988098542
 30
0.0
 11
8332.0172746415
 21
8186.7597351471
 31
0.0
  0
LINE
  5
486
330
1F
100
AcDbEntity
  8
0
  6
Continuous
 62
     7
 48
50.0
370
    25
100
AcDbLine
 10
10702.0172794098
 20
8223.9988098542
 30
0.0
 11
10702.0172794098
 21
8186.7597351471
 31
0.0
  0
LINE
  5
487
330
1F
100
AcDbEntity
  8
0
  6
Continuous
 62
     7
 48
50.0
370
    25
100
AcDbLine
 10
9526.5172739262
 20
8211.0078583161
 30
0.0
 11
9507.5172801251
 21
8211.0078583161
 31
0.0
  0
LINE
  5
488
330
1F
100
AcDbEntity
  8
0
  6
Continuous
 62
     7
 48
50.0
370
    25
100
AcDbLine
 10
9507.5172801251
 20
8199.7487793366
 30
0.0
 11
9526.5172739262
 21
8199.7487793366
 31
0.0
  0
LINE
  5
489
330
1F
100
AcDbEntity
  8
0
  6
Continuous
 62
     7
 48
50.0
370
    25
100
AcDbLine
 10
8332.0172746415
 20
8237.0298157135
 30
0.0
 11
8332.0172746415
 21
8228.778625528
 31
0.0
  0
LINE
  5
48A
330
1F
100
AcDbEntity
  8
0
  6
Continuous
 62
     7
 48
50.0
370
    25
100
AcDbLine
 10
8332.0172746415
 20
8237.0298157135
 30
0.0
 11
8367.6172216172
 21
8237.0298157135
 31
0.0
  0
LINE
  5
48B
330
1F
100
AcDbEntity
  8
0
  6
Continuous
 62
     7
 48
50.0
370
    25
100
AcDbLine
 10
9507.4172933335
 20
8237.0298157135
 30
0.0
 11
9526.6172905201
 21
8237.0298157135
 31
0.0
  0
LINE
  5
48C
330
1F
100
AcDbEntity
  8
0
  6
Continuous
 62
     7
 48
50.0
370
    25
100
AcDbLine
 10
10666.4172728295
 20
8237.0298157135
 30
0.0
 11
10702.0172794098
 21
8237.0298157135
 31
0.0
  0
LINE
  5
48D
330
1F
100
AcDbEntity
  8
0
  6
Continuous
 62
     7
 48
50.0
370
    25
100
AcDbLine
 10
10702.0172794098
 20
8237.0298157135
 30
0.0
 11
10702.0172794098
 21
8228.778625528
 31
0.0
  0
LINE
  5
48E
330
1F
100
AcDbEntity
  8
0
  6
Continuous
 62
     7
 48
50.0
370
    25
100
AcDbLine
 10
9507.5172801251
 20
8200.4983673493
 30
0.0
 11
9526.5172739262
 21
8200.4983673493
 31
0.0
  0
LINE
  5
48F
330
1F
100
AcDbEntity
  8
0
  6
Continuous
 62
     7
 48
50.0
370
    25
100
AcDbLine
 10
8332.0172746415
 20
8185.0087891022
 30
0.0
 11
8332.0172746415
 21
8186.7597351471
 31
0.0
  0
LINE
  5
490
330
1F
100
AcDbEntity
  8
0
  6
Continuous
 62
     7
 48
50.0
370
    25
100
AcDbLine
 10
10702.0172794098
 20
8186.7597351471
 30
0.0
 11
10702.0172794098
 21
8185.0087891022
 31
0.0
  0
LINE
  5
491
330
1F
100
AcDbEntity
  8
0
  6
Continuous
 62
     7
 48
50.0
370
    25
100
AcDbLine
 10
8332.0172746415
 20
8265.7296905915
 30
0.0
 11
8367.6172216172
 21
8265.7296905915
 31
0.0
  0
LINE
  5
492
330
1F
100
AcDbEntity
  8
0
  6
Continuous
 62
     7
 48
50.0
370
    25
100
AcDbLine
 10
9507.4172933335
 20
8265.7296905915
 30
0.0
 11
9526.6172905201
 21
8265.7296905915
 31
0.0
  0
LINE
  5
493
330
1F
100
AcDbEntity
  8
0
  6
Continuous
 62
     7
 48
50.0
370
    25
100
AcDbLine
 10
10666.4172728295
 20
8265.7296905915
 30
0.0
 11
10702.0172794098
 21
8265.7296905915
 31
0.0
  0
LINE
  5
494
330
1F
100
AcDbEntity
  8
0
  6
Continuous
 62
     7
 48
50.0
370
    25
100
AcDbLine
 10
8332.0172746415
 20
8265.7296905915
 30
0.0
 11
8332.0172746415
 21
8267.0285950104
 31
0.0
  0
LINE
  5
495
330
1F
100
AcDbEntity
  8
0
  6
Continuous
 62
     7
 48
50.0
370
    25
100
AcDbLine
 10
8332.0172746415
 20
8267.0285950104
 30
0.0
 11
8367.6172216172
 21
8267.0285950104
 31
0.0
  0
LINE
  5
496
330
1F
100
AcDbEntity
  8
0
  6
Continuous
 62
     7
 48
50.0
370
    25
100
AcDbLine
 10
9507.4172933335
 20
8267.0285950104
 30
0.0
 11
9526.6172905201
 21
8267.0285950104
 31
0.0
  0
LINE
  5
497
330
1F
100
AcDbEntity
  8
0
  6
Continuous
 62
     7
 48
50.0
370
    25
100
AcDbLine
 10
10666.4172728295
 20
8267.0285950104
 30
0.0
 11
10702.0172794098
 21
8267.0285950104
 31
0.0
  0
LINE
  5
498
330
1F
100
AcDbEntity
  8
0
  6
Continuous
 62
     7
 48
50.0
370
    25
100
AcDbLine
 10
10702.0172794098
 20
8265.7296905915
 30
0.0
 11
10702.0172794098
 21
8267.0285950104
 31
0.0
  0
LINE
  5
499
330
1F
100
AcDbEntity
  8
0
  6
Continuous
 62
     7
 48
50.0
370
    25
100
AcDbLine
 10
8332.0172746415
 20
8275.279785196
 30
0.0
 11
8332.0172746415
 21
8267.0285950104
 31
0.0
  0
LINE
  5
49A
330
1F
100
AcDbEntity
  8
0
  6
Continuous
 62
     7
 48
50.0
370
    25
100
AcDbLine
 10
10702.0172794098
 20
8275.279785196
 30
0.0
 11
10702.0172794098
 21
8267.0285950104
 31
0.0
  0
LINE
  5
49B
330
1F
100
AcDbEntity
  8
0
  6
Continuous
 62
     7
 48
50.0
370
    25
100
AcDbLine
 10
8332.0172746415
 20
8275.747085611
 30
0.0
 11
8332.0172746415
 21
8275.279785196
 31
0.0
  0
LINE
  5
49C
330
1F
100
AcDbEntity
  8
0
  6
Continuous
 62
     7
 48
50.0
370
    25
100
AcDbLine
 10
10702.0172794098
 20
8275.747085611
 30
0.0
 11
10702.0172794098
 21
8275.279785196
 31
0.0
  0
LINE
  5
49D
330
1F
100
AcDbEntity
  8
0
  6
Continuous
 62
     7
 48
50.0
370
    25
100
AcDbLine
 10
8332.0172746415
 20
8237.0298157135
 30
0.0
 11
8332.0172746415
 21
8265.7296905915
 31
0.0
  0
LINE
  5
49E
330
1F
100
AcDbEntity
  8
0
  6
Continuous
 62
     7
 48
50.0
370
    25
100
AcDbLine
 10
10702.0172794098
 20
8237.0298157135
 30
0.0
 11
10702.0172794098
 21
8265.7296905915
 31
0.0
  0
LINE
  5
49F
330
1F
100
AcDbEntity
  8
0
  6
Continuous
 62
     7
 48
50.0
370
    25
100
AcDbLine
 10
9526.6172905201
 20
8248.9984283844
 30
0.0
 11
9507.4172933335
 21
8248.9984283844
 31
0.0
  0
LINE
  5
4A0
330
1F
100
AcDbEntity
  8
0
  6
Continuous
 62
     7
 48
50.0
370
    25
100
AcDbLine
 10
9507.4172933335
 20
8260.2575073639
 30
0.0
 11
9526.6172905201
 21
8260.2575073639
 31
0.0
  0
LINE
  5
4A1
330
1F
100
AcDbEntity
  8
0
  6
Continuous
 62
     7
 48
50.0
370
    25
100
AcDbLine
 10
9526.6172905201
 20
8249.7499237458
 30
0.0
 11
9507.4172933335
 21
8249.7499237458
 31
0.0
  0
LINE
  5
4A2
330
1F
100
AcDbEntity
  8
0
  6
Continuous
 62
     7
 48
50.0
370
    25
100
AcDbLine
 10
8332.0172746415
 20
7050.1191864411
 30
0.0
 11
8332.0172746415
 21
7045.3374634186
 31
0.0
  0
LINE
  5
4A3
330
1F
100
AcDbEntity
  8
0
  6
Continuous
 62
     7
 48
50.0
370
    25
100
AcDbLine
 10
10702.0172794098
 20
7050.1191864411
 30
0.0
 11
10702.0172794098
 21
7045.3374634186
 31
0.0
  0
LINE
  5
4A4
330
1F
100
AcDbEntity
  8
0
  6
Continuous
 62
     7
 48
50.0
370
    25
100
AcDbLine
 10
8332.0172746415
 20
7045.3374634186
 30
0.0
 11
8332.0172746415
 21
7008.0983887116
 31
0.0
  0
LINE
  5
4A5
330
1F
100
AcDbEntity
  8
0
  6
Continuous
 62
     7
 48
50.0
370
    25
100
AcDbLine
 10
10702.0172794098
 20
7045.3374634186
 30
0.0
 11
10702.0172794098
 21
7008.0983887116
 31
0.0
  0
LINE
  5
4A6
330
1F
100
AcDbEntity
  8
0
  6
Continuous
 62
     7
 48
50.0
370
    25
100
AcDbLine
 10
9526.6172905201
 20
7032.3465118805
 30
0.0
 11
9507.4172933335
 21
7032.3465118805
 31
0.0
  0
LINE
  5
4A7
330
1F
100
AcDbEntity
  8
0
  6
Continuous
 62
     7
 48
50.0
370
    25
100
AcDbLine
 10
9507.4172933335
 20
7021.0893402497
 30
0.0
 11
9526.6172905201
 21
7021.0893402497
 31
0.0
  0
LINE
  5
4A8
330
1F
100
AcDbEntity
  8
0
  6
Continuous
 62
     7
 48
50.0
370
    25
100
AcDbLine
 10
8332.0172746415
 20
7058.368469278
 30
0.0
 11
8332.0172746415
 21
7050.1191864411
 31
0.0
  0
LINE
  5
4A9
330
1F
100
AcDbEntity
  8
0
  6
Continuous
 62
     7
 48
50.0
370
    25
100
AcDbLine
 10
8332.0172746415
 20
7058.368469278
 30
0.0
 11
8367.6172216172
 21
7058.368469278
 31
0.0
  0
LINE
  5
4AA
330
1F
100
AcDbEntity
  8
0
  6
Continuous
 62
     7
 48
50.0
370
    25
100
AcDbLine
 10
9507.4172933335
 20
7058.368469278
 30
0.0
 11
9526.6172905201
 21
7058.368469278
 31
0.0
  0
LINE
  5
4AB
330
1F
100
AcDbEntity
  8
0
  6
Continuous
 62
     7
 48
50.0
370
    25
100
AcDbLine
 10
10666.4172728295
 20
7058.368469278
 30
0.0
 11
10702.0172794098
 21
7058.368469278
 31
0.0
  0
LINE
  5
4AC
330
1F
100
AcDbEntity
  8
0
  6
Continuous
 62
     7
 48
50.0
370
    25
100
AcDbLine
 10
10702.0172794098
 20
7058.368469278
 30
0.0
 11
10702.0172794098
 21
7050.1191864411
 31
0.0
  0
LINE
  5
4AD
330
1F
100
AcDbEntity
  8
0
  6
Continuous
 62
     7
 48
50.0
370
    25
100
AcDbLine
 10
9507.4172933335
 20
7021.8389282624
 30
0.0
 11
9526.6172905201
 21
7021.8389282624
 31
0.0
  0
LINE
  5
4AE
330
1F
100
AcDbEntity
  8
0
  6
Continuous
 62
     7
 48
50.0
370
    25
100
AcDbLine
 10
8332.0172746415
 20
7006.3474426667
 30
0.0
 11
8332.0172746415
 21
7008.0983887116
 31
0.0
  0
LINE
  5
4AF
330
1F
100
AcDbEntity
  8
0
  6
Continuous
 62
     7
 48
50.0
370
    25
100
AcDbLine
 10
10702.0172794098
 20
7008.0983887116
 30
0.0
 11
10702.0172794098
 21
7006.3474426667
 31
0.0
  0
LINE
  5
4B0
330
1F
100
AcDbEntity
  8
0
  6
Continuous
 62
     7
 48
50.0
370
    25
100
AcDbLine
 10
8332.0172746415
 20
7087.0702515045
 30
0.0
 11
8367.6172216172
 21
7087.0702515045
 31
0.0
  0
LINE
  5
4B1
330
1F
100
AcDbEntity
  8
0
  6
Continuous
 62
     7
 48
50.0
370
    25
100
AcDbLine
 10
9507.4172933335
 20
7087.0702515045
 30
0.0
 11
9526.6172905201
 21
7087.0702515045
 31
0.0
  0
LINE
  5
4B2
330
1F
100
AcDbEntity
  8
0
  6
Continuous
 62
     7
 48
50.0
370
    25
100
AcDbLine
 10
10666.4172728295
 20
7087.0702515045
 30
0.0
 11
10702.0172794098
 21
7087.0702515045
 31
0.0
  0
LINE
  5
4B3
330
1F
100
AcDbEntity
  8
0
  6
Continuous
 62
     7
 48
50.0
370
    25
100
AcDbLine
 10
8332.0172746415
 20
7087.0702515045
 30
0.0
 11
8332.0172746415
 21
7088.3691559235
 31
0.0
  0
LINE
  5
4B4
330
1F
100
AcDbEntity
  8
0
  6
Continuous
 62
     7
 48
50.0
370
    25
100
AcDbLine
 10
8332.0172746415
 20
7088.3691559235
 30
0.0
 11
8367.6172216172
 21
7088.3691559235
 31
0.0
  0
LINE
  5
4B5
330
1F
100
AcDbEntity
  8
0
  6
Continuous
 62
     7
 48
50.0
370
    25
100
AcDbLine
 10
9507.4172933335
 20
7088.3691559235
 30
0.0
 11
9526.6172905201
 21
7088.3691559235
 31
0.0
  0
LINE
  5
4B6
330
1F
100
AcDbEntity
  8
0
  6
Continuous
 62
     7
 48
50.0
370
    25
100
AcDbLine
 10
10666.4172728295
 20
7088.3691559235
 30
0.0
 11
10702.0172794098
 21
7088.3691559235
 31
0.0
  0
LINE
  5
4B7
330
1F
100
AcDbEntity
  8
0
  6
Continuous
 62
     7
 48
50.0
370
    25
100
AcDbLine
 10
10702.0172794098
 20
7087.0702515045
 30
0.0
 11
10702.0172794098
 21
7088.3691559235
 31
0.0
  0
LINE
  5
4B8
330
1F
100
AcDbEntity
  8
0
  6
Continuous
 62
     7
 48
50.0
370
    25
100
AcDbLine
 10
8332.0172746415
 20
7096.6184387604
 30
0.0
 11
8332.0172746415
 21
7088.3691559235
 31
0.0
  0
LINE
  5
4B9
330
1F
100
AcDbEntity
  8
0
  6
Continuous
 62
     7
 48
50.0
370
    25
100
AcDbLine
 10
10702.0172794098
 20
7096.6184387604
 30
0.0
 11
10702.0172794098
 21
7088.3691559235
 31
0.0
  0
LINE
  5
4BA
330
1F
100
AcDbEntity
  8
0
  6
Continuous
 62
     7
 48
50.0
370
    25
100
AcDbLine
 10
8332.0172746415
 20
7097.0876465241
 30
0.0
 11
8332.0172746415
 21
7096.6184387604
 31
0.0
  0
LINE
  5
4BB
330
1F
100
AcDbEntity
  8
0
  6
Continuous
 62
     7
 48
50.0
370
    25
100
AcDbLine
 10
10702.0172794098
 20
7097.0876465241
 30
0.0
 11
10702.0172794098
 21
7096.6184387604
 31
0.0
  0
LINE
  5
4BC
330
1F
100
AcDbEntity
  8
0
  6
Continuous
 62
     7
 48
50.0
370
    25
100
AcDbLine
 10
8332.0172746415
 20
7058.368469278
 30
0.0
 11
8332.0172746415
 21
7087.0702515045
 31
0.0
  0
LINE
  5
4BD
330
1F
100
AcDbEntity
  8
0
  6
Continuous
 62
     7
 48
50.0
370
    25
100
AcDbLine
 10
10702.0172794098
 20
7058.368469278
 30
0.0
 11
10702.0172794098
 21
7087.0702515045
 31
0.0
  0
LINE
  5
4BE
330
1F
100
AcDbEntity
  8
0
  6
Continuous
 62
     7
 48
50.0
370
    25
100
AcDbLine
 10
9526.6172905201
 20
7070.3389892975
 30
0.0
 11
9507.4172933335
 21
7070.3389892975
 31
0.0
  0
LINE
  5
4BF
330
1F
100
AcDbEntity
  8
0
  6
Continuous
 62
     7
 48
50.0
370
    25
100
AcDbLine
 10
9507.4172933335
 20
7081.5961609284
 30
0.0
 11
9526.6172905201
 21
7081.5961609284
 31
0.0
  0
LINE
  5
4C0
330
1F
100
AcDbEntity
  8
0
  6
Continuous
 62
     7
 48
50.0
370
    25
100
AcDbLine
 10
9526.6172905201
 20
7071.0885773102
 30
0.0
 11
9507.4172933335
 21
7071.0885773102
 31
0.0
  0
LINE
  5
4C1
330
1F
100
AcDbEntity
  8
0
  6
Continuous
 62
     7
 48
50.0
370
    25
100
AcDbLine
 10
8332.0172746415
 20
5215.0113830963
 30
0.0
 11
8332.0172746415
 21
5210.2296600739
 31
0.0
  0
LINE
  5
4C2
330
1F
100
AcDbEntity
  8
0
  6
Continuous
 62
     7
 48
50.0
370
    25
100
AcDbLine
 10
10702.0172794098
 20
5215.0113830963
 30
0.0
 11
10702.0172794098
 21
5210.2296600739
 31
0.0
  0
LINE
  5
4C3
330
1F
100
AcDbEntity
  8
0
  6
Continuous
 62
     7
 48
50.0
370
    25
100
AcDbLine
 10
8332.0172746415
 20
5210.2296600739
 30
0.0
 11
8332.0172746415
 21
5172.9905853668
 31
0.0
  0
LINE
  5
4C4
330
1F
100
AcDbEntity
  8
0
  6
Continuous
 62
     7
 48
50.0
370
    25
100
AcDbLine
 10
10702.0172794098
 20
5210.2296600739
 30
0.0
 11
10702.0172794098
 21
5172.9905853668
 31
0.0
  0
LINE
  5
4C5
330
1F
100
AcDbEntity
  8
0
  6
Continuous
 62
     7
 48
50.0
370
    25
100
AcDbLine
 10
9526.6172905201
 20
5197.2387085358
 30
0.0
 11
9507.4172933335
 21
5197.2387085358
 31
0.0
  0
LINE
  5
4C6
330
1F
100
AcDbEntity
  8
0
  6
Continuous
 62
     7
 48
50.0
370
    25
100
AcDbLine
 10
9507.4172933335
 20
5185.9815369049
 30
0.0
 11
9526.6172905201
 21
5185.9815369049
 31
0.0
  0
LINE
  5
4C7
330
1F
100
AcDbEntity
  8
0
  6
Continuous
 62
     7
 48
50.0
370
    25
100
AcDbLine
 10
8332.0172746415
 20
5223.2606659333
 30
0.0
 11
8332.0172746415
 21
5215.0113830963
 31
0.0
  0
LINE
  5
4C8
330
1F
100
AcDbEntity
  8
0
  6
Continuous
 62
     7
 48
50.0
370
    25
100
AcDbLine
 10
8332.0172746415
 20
5223.2606659333
 30
0.0
 11
8367.6172216172
 21
5223.2606659333
 31
0.0
  0
LINE
  5
4C9
330
1F
100
AcDbEntity
  8
0
  6
Continuous
 62
     7
 48
50.0
370
    25
100
AcDbLine
 10
9507.4172933335
 20
5223.2606659333
 30
0.0
 11
9526.6172905201
 21
5223.2606659333
 31
0.0
  0
LINE
  5
4CA
330
1F
100
AcDbEntity
  8
0
  6
Continuous
 62
     7
 48
50.0
370
    25
100
AcDbLine
 10
10666.4172728295
 20
5223.2606659333
 30
0.0
 11
10702.0172794098
 21
5223.2606659333
 31
0.0
  0
LINE
  5
4CB
330
1F
100
AcDbEntity
  8
0
  6
Continuous
 62
     7
 48
50.0
370
    25
100
AcDbLine
 10
10702.0172794098
 20
5223.2606659333
 30
0.0
 11
10702.0172794098
 21
5215.0113830963
 31
0.0
  0
LINE
  5
4CC
330
1F
100
AcDbEntity
  8
0
  6
Continuous
 62
     7
 48
50.0
370
    25
100
AcDbLine
 10
9507.4172933335
 20
5186.7311249176
 30
0.0
 11
9526.6172905201
 21
5186.7311249176
 31
0.0
  0
LINE
  5
4CD
330
1F
100
AcDbEntity
  8
0
  6
Continuous
 62
     7
 48
50.0
370
    25
100
AcDbLine
 10
8332.0172746415
 20
5171.2396393219
 30
0.0
 11
8332.0172746415
 21
5172.9905853668
 31
0.0
  0
LINE
  5
4CE
330
1F
100
AcDbEntity
  8
0
  6
Continuous
 62
     7
 48
50.0
370
    25
100
AcDbLine
 10
10702.0172794098
 20
5172.9905853668
 30
0.0
 11
10702.0172794098
 21
5171.2396393219
 31
0.0
  0
LINE
  5
4CF
330
1F
100
AcDbEntity
  8
0
  6
Continuous
 62
     7
 48
50.0
370
    25
100
AcDbLine
 10
8332.0172746415
 20
5253.2613525788
 30
0.0
 11
8367.5173242325
 21
5253.2613525788
 31
0.0
  0
LINE
  5
4D0
330
1F
100
AcDbEntity
  8
0
  6
Continuous
 62
     7
 48
50.0
370
    25
100
AcDbLine
 10
9507.5172801251
 20
5253.2613525788
 30
0.0
 11
9526.5172739262
 21
5253.2613525788
 31
0.0
  0
LINE
  5
4D1
330
1F
100
AcDbEntity
  8
0
  6
Continuous
 62
     7
 48
50.0
370
    25
100
AcDbLine
 10
10666.5172894234
 20
5253.2613525788
 30
0.0
 11
10702.0172794098
 21
5253.2613525788
 31
0.0
  0
LINE
  5
4D2
330
1F
100
AcDbEntity
  8
0
  6
Continuous
 62
     7
 48
50.0
370
    25
100
AcDbLine
 10
8332.0172746415
 20
5261.5106354157
 30
0.0
 11
8332.0172746415
 21
5253.2613525788
 31
0.0
  0
LINE
  5
4D3
330
1F
100
AcDbEntity
  8
0
  6
Continuous
 62
     7
 48
50.0
370
    25
100
AcDbLine
 10
10702.0172794098
 20
5261.5106354157
 30
0.0
 11
10702.0172794098
 21
5253.2613525788
 31
0.0
  0
LINE
  5
4D4
330
1F
100
AcDbEntity
  8
0
  6
Continuous
 62
     7
 48
50.0
370
    25
100
AcDbLine
 10
8332.0172746415
 20
5251.9624481598
 30
0.0
 11
8367.5173242325
 21
5251.9624481598
 31
0.0
  0
LINE
  5
4D5
330
1F
100
AcDbEntity
  8
0
  6
Continuous
 62
     7
 48
50.0
370
    25
100
AcDbLine
 10
9507.5172801251
 20
5251.9624481598
 30
0.0
 11
9526.5172739262
 21
5251.9624481598
 31
0.0
  0
LINE
  5
4D6
330
1F
100
AcDbEntity
  8
0
  6
Continuous
 62
     7
 48
50.0
370
    25
100
AcDbLine
 10
10666.5172894234
 20
5251.9624481598
 30
0.0
 11
10702.0172794098
 21
5251.9624481598
 31
0.0
  0
LINE
  5
4D7
330
1F
100
AcDbEntity
  8
0
  6
Continuous
 62
     7
 48
50.0
370
    25
100
AcDbLine
 10
8332.0172746415
 20
5251.9624481598
 30
0.0
 11
8332.0172746415
 21
5253.2613525788
 31
0.0
  0
LINE
  5
4D8
330
1F
100
AcDbEntity
  8
0
  6
Continuous
 62
     7
 48
50.0
370
    25
100
AcDbLine
 10
10702.0172794098
 20
5251.9624481598
 30
0.0
 11
10702.0172794098
 21
5253.2613525788
 31
0.0
  0
LINE
  5
4D9
330
1F
100
AcDbEntity
  8
0
  6
Continuous
 62
     7
 48
50.0
370
    25
100
AcDbLine
 10
8332.0172746415
 20
5261.9798431793
 30
0.0
 11
8332.0172746415
 21
5261.5106354157
 31
0.0
  0
LINE
  5
4DA
330
1F
100
AcDbEntity
  8
0
  6
Continuous
 62
     7
 48
50.0
370
    25
100
AcDbLine
 10
10702.0172794098
 20
5261.9798431793
 30
0.0
 11
10702.0172794098
 21
5261.5106354157
 31
0.0
  0
LINE
  5
4DB
330
1F
100
AcDbEntity
  8
0
  6
Continuous
 62
     7
 48
50.0
370
    25
100
AcDbLine
 10
8332.0172746415
 20
5223.2606659333
 30
0.0
 11
8332.0172746415
 21
5251.9624481598
 31
0.0
  0
LINE
  5
4DC
330
1F
100
AcDbEntity
  8
0
  6
Continuous
 62
     7
 48
50.0
370
    25
100
AcDbLine
 10
10702.0172794098
 20
5223.2606659333
 30
0.0
 11
10702.0172794098
 21
5251.9624481598
 31
0.0
  0
LINE
  5
4DD
330
1F
100
AcDbEntity
  8
0
  6
Continuous
 62
     7
 48
50.0
370
    25
100
AcDbLine
 10
9526.5172739262
 20
5235.2311859528
 30
0.0
 11
9507.5172801251
 21
5235.2311859528
 31
0.0
  0
LINE
  5
4DE
330
1F
100
AcDbEntity
  8
0
  6
Continuous
 62
     7
 48
50.0
370
    25
100
AcDbLine
 10
9507.5172801251
 20
5246.4883575836
 30
0.0
 11
9526.5172739262
 21
5246.4883575836
 31
0.0
  0
LINE
  5
4DF
330
1F
100
AcDbEntity
  8
0
  6
Continuous
 62
     7
 48
50.0
370
    25
100
AcDbLine
 10
9526.5172739262
 20
5235.9807739655
 30
0.0
 11
9507.5172801251
 21
5235.9807739655
 31
0.0
  0
LINE
  5
4E0
330
1F
100
AcDbEntity
  8
0
  6
Continuous
 62
     7
 48
50.0
370
    25
100
AcDbLine
 10
8332.0172746415
 20
6393.6708221833
 30
0.0
 11
8332.0172746415
 21
6388.8910065094
 31
0.0
  0
LINE
  5
4E1
330
1F
100
AcDbEntity
  8
0
  6
Continuous
 62
     7
 48
50.0
370
    25
100
AcDbLine
 10
10702.0172794098
 20
6393.6708221833
 30
0.0
 11
10702.0172794098
 21
6388.8910065094
 31
0.0
  0
LINE
  5
4E2
330
1F
100
AcDbEntity
  8
0
  6
Continuous
 62
     7
 48
50.0
370
    25
100
AcDbLine
 10
8332.0172746415
 20
6388.8910065094
 30
0.0
 11
8332.0172746415
 21
6351.6519318024
 31
0.0
  0
LINE
  5
4E3
330
1F
100
AcDbEntity
  8
0
  6
Continuous
 62
     7
 48
50.0
370
    25
100
AcDbLine
 10
10702.0172794098
 20
6388.8910065094
 30
0.0
 11
10702.0172794098
 21
6351.6519318024
 31
0.0
  0
LINE
  5
4E4
330
1F
100
AcDbEntity
  8
0
  6
Continuous
 62
     7
 48
50.0
370
    25
100
AcDbLine
 10
9526.6172905201
 20
6375.9000549713
 30
0.0
 11
9507.4172933335
 21
6375.9000549713
 31
0.0
  0
LINE
  5
4E5
330
1F
100
AcDbEntity
  8
0
  6
Continuous
 62
     7
 48
50.0
370
    25
100
AcDbLine
 10
9507.4172933335
 20
6364.6409759918
 30
0.0
 11
9526.6172905201
 21
6364.6409759918
 31
0.0
  0
LINE
  5
4E6
330
1F
100
AcDbEntity
  8
0
  6
Continuous
 62
     7
 48
50.0
370
    25
100
AcDbLine
 10
8332.0172746415
 20
6401.9220123688
 30
0.0
 11
8332.0172746415
 21
6393.6708221833
 31
0.0
  0
LINE
  5
4E7
330
1F
100
AcDbEntity
  8
0
  6
Continuous
 62
     7
 48
50.0
370
    25
100
AcDbLine
 10
8332.0172746415
 20
6401.9220123688
 30
0.0
 11
8367.6172216172
 21
6401.9220123688
 31
0.0
  0
LINE
  5
4E8
330
1F
100
AcDbEntity
  8
0
  6
Continuous
 62
     7
 48
50.0
370
    25
100
AcDbLine
 10
9507.4172933335
 20
6401.9220123688
 30
0.0
 11
9526.6172905201
 21
6401.9220123688
 31
0.0
  0
LINE
  5
4E9
330
1F
100
AcDbEntity
  8
0
  6
Continuous
 62
     7
 48
50.0
370
    25
100
AcDbLine
 10
10666.4172728295
 20
6401.9220123688
 30
0.0
 11
10702.0172794098
 21
6401.9220123688
 31
0.0
  0
LINE
  5
4EA
330
1F
100
AcDbEntity
  8
0
  6
Continuous
 62
     7
 48
50.0
370
    25
100
AcDbLine
 10
10702.0172794098
 20
6401.9220123688
 30
0.0
 11
10702.0172794098
 21
6393.6708221833
 31
0.0
  0
LINE
  5
4EB
330
1F
100
AcDbEntity
  8
0
  6
Continuous
 62
     7
 48
50.0
370
    25
100
AcDbLine
 10
9507.4172933335
 20
6365.3905640045
 30
0.0
 11
9526.6172905201
 21
6365.3905640045
 31
0.0
  0
LINE
  5
4EC
330
1F
100
AcDbEntity
  8
0
  6
Continuous
 62
     7
 48
50.0
370
    25
100
AcDbLine
 10
8332.0172746415
 20
6349.9009857575
 30
0.0
 11
8332.0172746415
 21
6351.6519318024
 31
0.0
  0
LINE
  5
4ED
330
1F
100
AcDbEntity
  8
0
  6
Continuous
 62
     7
 48
50.0
370
    25
100
AcDbLine
 10
10702.0172794098
 20
6351.6519318024
 30
0.0
 11
10702.0172794098
 21
6349.9009857575
 31
0.0
  0
LINE
  5
4EE
330
1F
100
AcDbEntity
  8
0
  6
Continuous
 62
     7
 48
50.0
370
    25
100
AcDbLine
 10
8332.0172746415
 20
6430.6218872467
 30
0.0
 11
8367.6172216172
 21
6430.6218872467
 31
0.0
  0
LINE
  5
4EF
330
1F
100
AcDbEntity
  8
0
  6
Continuous
 62
     7
 48
50.0
370
    25
100
AcDbLine
 10
9507.4172933335
 20
6430.6218872467
 30
0.0
 11
9526.6172905201
 21
6430.6218872467
 31
0.0
  0
LINE
  5
4F0
330
1F
100
AcDbEntity
  8
0
  6
Continuous
 62
     7
 48
50.0
370
    25
100
AcDbLine
 10
10666.4172728295
 20
6430.6218872467
 30
0.0
 11
10702.0172794098
 21
6430.6218872467
 31
0.0
  0
LINE
  5
4F1
330
1F
100
AcDbEntity
  8
0
  6
Continuous
 62
     7
 48
50.0
370
    25
100
AcDbLine
 10
8332.0172746415
 20
6430.6218872467
 30
0.0
 11
8332.0172746415
 21
6431.9207916657
 31
0.0
  0
LINE
  5
4F2
330
1F
100
AcDbEntity
  8
0
  6
Continuous
 62
     7
 48
50.0
370
    25
100
AcDbLine
 10
8332.0172746415
 20
6431.9207916657
 30
0.0
 11
8367.6172216172
 21
6431.9207916657
 31
0.0
  0
LINE
  5
4F3
330
1F
100
AcDbEntity
  8
0
  6
Continuous
 62
     7
 48
50.0
370
    25
100
AcDbLine
 10
9507.4172933335
 20
6431.9207916657
 30
0.0
 11
9526.6172905201
 21
6431.9207916657
 31
0.0
  0
LINE
  5
4F4
330
1F
100
AcDbEntity
  8
0
  6
Continuous
 62
     7
 48
50.0
370
    25
100
AcDbLine
 10
10666.4172728295
 20
6431.9207916657
 30
0.0
 11
10702.0172794098
 21
6431.9207916657
 31
0.0
  0
LINE
  5
4F5
330
1F
100
AcDbEntity
  8
0
  6
Continuous
 62
     7
 48
50.0
370
    25
100
AcDbLine
 10
10702.0172794098
 20
6430.6218872467
 30
0.0
 11
10702.0172794098
 21
6431.9207916657
 31
0.0
  0
LINE
  5
4F6
330
1F
100
AcDbEntity
  8
0
  6
Continuous
 62
     7
 48
50.0
370
    25
100
AcDbLine
 10
8332.0172746415
 20
6440.1719818512
 30
0.0
 11
8332.0172746415
 21
6431.9207916657
 31
0.0
  0
LINE
  5
4F7
330
1F
100
AcDbEntity
  8
0
  6
Continuous
 62
     7
 48
50.0
370
    25
100
AcDbLine
 10
10702.0172794098
 20
6440.1719818512
 30
0.0
 11
10702.0172794098
 21
6431.9207916657
 31
0.0
  0
LINE
  5
4F8
330
1F
100
AcDbEntity
  8
0
  6
Continuous
 62
     7
 48
50.0
370
    25
100
AcDbLine
 10
8332.0172746415
 20
6440.6392822663
 30
0.0
 11
8332.0172746415
 21
6440.1719818512
 31
0.0
  0
LINE
  5
4F9
330
1F
100
AcDbEntity
  8
0
  6
Continuous
 62
     7
 48
50.0
370
    25
100
AcDbLine
 10
10702.0172794098
 20
6440.6392822663
 30
0.0
 11
10702.0172794098
 21
6440.1719818512
 31
0.0
  0
LINE
  5
4FA
330
1F
100
AcDbEntity
  8
0
  6
Continuous
 62
     7
 48
50.0
370
    25
100
AcDbLine
 10
8332.0172746415
 20
6401.9220123688
 30
0.0
 11
8332.0172746415
 21
6430.6218872467
 31
0.0
  0
LINE
  5
4FB
330
1F
100
AcDbEntity
  8
0
  6
Continuous
 62
     7
 48
50.0
370
    25
100
AcDbLine
 10
10702.0172794098
 20
6401.9220123688
 30
0.0
 11
10702.0172794098
 21
6430.6218872467
 31
0.0
  0
LINE
  5
4FC
330
1F
100
AcDbEntity
  8
0
  6
Continuous
 62
     7
 48
50.0
370
    25
100
AcDbLine
 10
9526.6172905201
 20
6413.8906250397
 30
0.0
 11
9507.4172933335
 21
6413.8906250397
 31
0.0
  0
LINE
  5
4FD
330
1F
100
AcDbEntity
  8
0
  6
Continuous
 62
     7
 48
50.0
370
    25
100
AcDbLine
 10
9507.4172933335
 20
6425.1497040192
 30
0.0
 11
9526.6172905201
 21
6425.1497040192
 31
0.0
  0
LINE
  5
4FE
330
1F
100
AcDbEntity
  8
0
  6
Continuous
 62
     7
 48
50.0
370
    25
100
AcDbLine
 10
9526.6172905201
 20
6414.642120401
 30
0.0
 11
9507.4172933335
 21
6414.642120401
 31
0.0
  0
LINE
  5
4FF
330
1F
100
AcDbEntity
  8
0
  6
Continuous
 62
     8
 48
50.0
370
    25
100
AcDbLine
 10
8332.0172746415
 20
8223.9988098542
 30
0.0
 11
8367.5173242325
 21
8223.9988098542
 31
0.0
  0
LINE
  5
500
330
1F
100
AcDbEntity
  8
0
  6
Continuous
 62
     8
 48
50.0
370
    25
100
AcDbLine
 10
9507.5172801251
 20
8223.9988098542
 30
0.0
 11
9526.5172739262
 21
8223.9988098542
 31
0.0
  0
LINE
  5
501
330
1F
100
AcDbEntity
  8
0
  6
Continuous
 62
     8
 48
50.0
370
    25
100
AcDbLine
 10
10666.5172894234
 20
8223.9988098542
 30
0.0
 11
10702.0172794098
 21
8223.9988098542
 31
0.0
  0
LINE
  5
502
330
1F
100
AcDbEntity
  8
0
  6
Continuous
 62
     8
 48
50.0
370
    25
100
AcDbLine
 10
8332.0172746415
 20
8228.778625528
 30
0.0
 11
8367.6172216172
 21
8228.778625528
 31
0.0
  0
LINE
  5
503
330
1F
100
AcDbEntity
  8
0
  6
Continuous
 62
     8
 48
50.0
370
    25
100
AcDbLine
 10
9507.4172933335
 20
8228.778625528
 30
0.0
 11
9526.6172905201
 21
8228.778625528
 31
0.0
  0
LINE
  5
504
330
1F
100
AcDbEntity
  8
0
  6
Continuous
 62
     8
 48
50.0
370
    25
100
AcDbLine
 10
10666.4172728295
 20
8228.778625528
 30
0.0
 11
10702.0172794098
 21
8228.778625528
 31
0.0
  0
LINE
  5
505
330
1F
100
AcDbEntity
  8
0
  6
Continuous
 62
     8
 48
50.0
370
    25
100
AcDbLine
 10
9507.5172801251
 20
8186.7597351471
 30
0.0
 11
9526.5172739262
 21
8186.7597351471
 31
0.0
  0
LINE
  5
506
330
1F
100
AcDbEntity
  8
0
  6
Continuous
 62
     8
 48
50.0
370
    25
100
AcDbLine
 10
8332.0172746415
 20
8186.7597351471
 30
0.0
 11
8367.5173242325
 21
8186.7597351471
 31
0.0
  0
LINE
  5
507
330
1F
100
AcDbEntity
  8
0
  6
Continuous
 62
     8
 48
50.0
370
    25
100
AcDbLine
 10
10666.5172894234
 20
8186.7597351471
 30
0.0
 11
10702.0172794098
 21
8186.7597351471
 31
0.0
  0
LINE
  5
508
330
1F
100
AcDbEntity
  8
0
  6
Continuous
 62
     8
 48
50.0
370
    25
100
AcDbLine
 10
8332.0172746415
 20
8275.279785196
 30
0.0
 11
8367.6172216172
 21
8275.279785196
 31
0.0
  0
LINE
  5
509
330
1F
100
AcDbEntity
  8
0
  6
Continuous
 62
     8
 48
50.0
370
    25
100
AcDbLine
 10
9507.4172933335
 20
8275.279785196
 30
0.0
 11
9526.6172905201
 21
8275.279785196
 31
0.0
  0
LINE
  5
50A
330
1F
100
AcDbEntity
  8
0
  6
Continuous
 62
     8
 48
50.0
370
    25
100
AcDbLine
 10
10666.4172728295
 20
8275.279785196
 30
0.0
 11
10702.0172794098
 21
8275.279785196
 31
0.0
  0
LINE
  5
50B
330
1F
100
AcDbEntity
  8
0
  6
Continuous
 62
     8
 48
50.0
370
    25
100
AcDbLine
 10
8332.0172746415
 20
7045.3374634186
 30
0.0
 11
8367.6172216172
 21
7045.3374634186
 31
0.0
  0
LINE
  5
50C
330
1F
100
AcDbEntity
  8
0
  6
Continuous
 62
     8
 48
50.0
370
    25
100
AcDbLine
 10
9507.4172933335
 20
7045.3374634186
 30
0.0
 11
9526.6172905201
 21
7045.3374634186
 31
0.0
  0
LINE
  5
50D
330
1F
100
AcDbEntity
  8
0
  6
Continuous
 62
     8
 48
50.0
370
    25
100
AcDbLine
 10
10666.4172728295
 20
7045.3374634186
 30
0.0
 11
10702.0172794098
 21
7045.3374634186
 31
0.0
  0
LINE
  5
50E
330
1F
100
AcDbEntity
  8
0
  6
Continuous
 62
     8
 48
50.0
370
    25
100
AcDbLine
 10
8332.0172746415
 20
7050.1191864411
 30
0.0
 11
8367.6172216172
 21
7050.1191864411
 31
0.0
  0
LINE
  5
50F
330
1F
100
AcDbEntity
  8
0
  6
Continuous
 62
     8
 48
50.0
370
    25
100
AcDbLine
 10
9507.4172933335
 20
7050.1191864411
 30
0.0
 11
9526.6172905201
 21
7050.1191864411
 31
0.0
  0
LINE
  5
510
330
1F
100
AcDbEntity
  8
0
  6
Continuous
 62
     8
 48
50.0
370
    25
100
AcDbLine
 10
10666.4172728295
 20
7050.1191864411
 30
0.0
 11
10702.0172794098
 21
7050.1191864411
 31
0.0
  0
LINE
  5
511
330
1F
100
AcDbEntity
  8
0
  6
Continuous
 62
     8
 48
50.0
370
    25
100
AcDbLine
 10
9507.4172933335
 20
7008.0983887116
 30
0.0
 11
9526.6172905201
 21
7008.0983887116
 31
0.0
  0
LINE
  5
512
330
1F
100
AcDbEntity
  8
0
  6
Continuous
 62
     8
 48
50.0
370
    25
100
AcDbLine
 10
8332.0172746415
 20
7008.0983887116
 30
0.0
 11
8367.6172216172
 21
7008.0983887116
 31
0.0
  0
LINE
  5
513
330
1F
100
AcDbEntity
  8
0
  6
Continuous
 62
     8
 48
50.0
370
    25
100
AcDbLine
 10
10666.4172728295
 20
7008.0983887116
 30
0.0
 11
10702.0172794098
 21
7008.0983887116
 31
0.0
  0
LINE
  5
514
330
1F
100
AcDbEntity
  8
0
  6
Continuous
 62
     8
 48
50.0
370
    25
100
AcDbLine
 10
8332.0172746415
 20
7096.6184387604
 30
0.0
 11
8367.6172216172
 21
7096.6184387604
 31
0.0
  0
LINE
  5
515
330
1F
100
AcDbEntity
  8
0
  6
Continuous
 62
     8
 48
50.0
370
    25
100
AcDbLine
 10
9507.4172933335
 20
7096.6184387604
 30
0.0
 11
9526.6172905201
 21
7096.6184387604
 31
0.0
  0
LINE
  5
516
330
1F
100
AcDbEntity
  8
0
  6
Continuous
 62
     8
 48
50.0
370
    25
100
AcDbLine
 10
10666.4172728295
 20
7096.6184387604
 30
0.0
 11
10702.0172794098
 21
7096.6184387604
 31
0.0
  0
LINE
  5
517
330
1F
100
AcDbEntity
  8
0
  6
Continuous
 62
     8
 48
50.0
370
    25
100
AcDbLine
 10
8332.0172746415
 20
5210.2296600739
 30
0.0
 11
8367.6172216172
 21
5210.2296600739
 31
0.0
  0
LINE
  5
518
330
1F
100
AcDbEntity
  8
0
  6
Continuous
 62
     8
 48
50.0
370
    25
100
AcDbLine
 10
9507.4172933335
 20
5210.2296600739
 30
0.0
 11
9526.6172905201
 21
5210.2296600739
 31
0.0
  0
LINE
  5
519
330
1F
100
AcDbEntity
  8
0
  6
Continuous
 62
     8
 48
50.0
370
    25
100
AcDbLine
 10
10666.4172728295
 20
5210.2296600739
 30
0.0
 11
10702.0172794098
 21
5210.2296600739
 31
0.0
  0
LINE
  5
51A
330
1F
100
AcDbEntity
  8
0
  6
Continuous
 62
     8
 48
50.0
370
    25
100
AcDbLine
 10
8332.0172746415
 20
5215.0113830963
 30
0.0
 11
8367.6172216172
 21
5215.0113830963
 31
0.0
  0
LINE
  5
51B
330
1F
100
AcDbEntity
  8
0
  6
Continuous
 62
     8
 48
50.0
370
    25
100
AcDbLine
 10
9507.4172933335
 20
5215.0113830963
 30
0.0
 11
9526.6172905201
 21
5215.0113830963
 31
0.0
  0
LINE
  5
51C
330
1F
100
AcDbEntity
  8
0
  6
Continuous
 62
     8
 48
50.0
370
    25
100
AcDbLine
 10
10666.4172728295
 20
5215.0113830963
 30
0.0
 11
10702.0172794098
 21
5215.0113830963
 31
0.0
  0
LINE
  5
51D
330
1F
100
AcDbEntity
  8
0
  6
Continuous
 62
     8
 48
50.0
370
    25
100
AcDbLine
 10
9507.4172933335
 20
5172.9905853668
 30
0.0
 11
9526.6172905201
 21
5172.9905853668
 31
0.0
  0
LINE
  5
51E
330
1F
100
AcDbEntity
  8
0
  6
Continuous
 62
     8
 48
50.0
370
    25
100
AcDbLine
 10
8332.0172746415
 20
5172.9905853668
 30
0.0
 11
8367.6172216172
 21
5172.9905853668
 31
0.0
  0
LINE
  5
51F
330
1F
100
AcDbEntity
  8
0
  6
Continuous
 62
     8
 48
50.0
370
    25
100
AcDbLine
 10
10666.4172728295
 20
5172.9905853668
 30
0.0
 11
10702.0172794098
 21
5172.9905853668
 31
0.0
  0
LINE
  5
520
330
1F
100
AcDbEntity
  8
0
  6
Continuous
 62
     8
 48
50.0
370
    25
100
AcDbLine
 10
8332.0172746415
 20
5261.5106354157
 30
0.0
 11
8367.5173242325
 21
5261.5106354157
 31
0.0
  0
LINE
  5
521
330
1F
100
AcDbEntity
  8
0
  6
Continuous
 62
     8
 48
50.0
370
    25
100
AcDbLine
 10
9507.5172801251
 20
5261.5106354157
 30
0.0
 11
9526.5172739262
 21
5261.5106354157
 31
0.0
  0
LINE
  5
522
330
1F
100
AcDbEntity
  8
0
  6
Continuous
 62
     8
 48
50.0
370
    25
100
AcDbLine
 10
10666.5172894234
 20
5261.5106354157
 30
0.0
 11
10702.0172794098
 21
5261.5106354157
 31
0.0
  0
LINE
  5
523
330
1F
100
AcDbEntity
  8
0
  6
Continuous
 62
     8
 48
50.0
370
    25
100
AcDbLine
 10
8332.0172746415
 20
6388.8910065094
 30
0.0
 11
8367.6172216172
 21
6388.8910065094
 31
0.0
  0
LINE
  5
524
330
1F
100
AcDbEntity
  8
0
  6
Continuous
 62
     8
 48
50.0
370
    25
100
AcDbLine
 10
9507.4172933335
 20
6388.8910065094
 30
0.0
 11
9526.6172905201
 21
6388.8910065094
 31
0.0
  0
LINE
  5
525
330
1F
100
AcDbEntity
  8
0
  6
Continuous
 62
     8
 48
50.0
370
    25
100
AcDbLine
 10
10666.4172728295
 20
6388.8910065094
 30
0.0
 11
10702.0172794098
 21
6388.8910065094
 31
0.0
  0
LINE
  5
526
330
1F
100
AcDbEntity
  8
0
  6
Continuous
 62
     8
 48
50.0
370
    25
100
AcDbLine
 10
8332.0172746415
 20
6393.6708221833
 30
0.0
 11
8367.6172216172
 21
6393.6708221833
 31
0.0
  0
LINE
  5
527
330
1F
100
AcDbEntity
  8
0
  6
Continuous
 62
     8
 48
50.0
370
    25
100
AcDbLine
 10
9507.4172933335
 20
6393.6708221833
 30
0.0
 11
9526.6172905201
 21
6393.6708221833
 31
0.0
  0
LINE
  5
528
330
1F
100
AcDbEntity
  8
0
  6
Continuous
 62
     8
 48
50.0
370
    25
100
AcDbLine
 10
10666.4172728295
 20
6393.6708221833
 30
0.0
 11
10702.0172794098
 21
6393.6708221833
 31
0.0
  0
LINE
  5
529
330
1F
100
AcDbEntity
  8
0
  6
Continuous
 62
     8
 48
50.0
370
    25
100
AcDbLine
 10
9507.4172933335
 20
6351.6519318024
 30
0.0
 11
9526.6172905201
 21
6351.6519318024
 31
0.0
  0
LINE
  5
52A
330
1F
100
AcDbEntity
  8
0
  6
Continuous
 62
     8
 48
50.0
370
    25
100
AcDbLine
 10
8332.0172746415
 20
6351.6519318024
 30
0.0
 11
8367.6172216172
 21
6351.6519318024
 31
0.0
  0
LINE
  5
52B
330
1F
100
AcDbEntity
  8
0
  6
Continuous
 62
     8
 48
50.0
370
    25
100
AcDbLine
 10
10666.4172728295
 20
6351.6519318024
 30
0.0
 11
10702.0172794098
 21
6351.6519318024
 31
0.0
  0
LINE
  5
52C
330
1F
100
AcDbEntity
  8
0
  6
Continuous
 62
     8
 48
50.0
370
    25
100
AcDbLine
 10
8332.0172746415
 20
6440.1719818512
 30
0.0
 11
8367.6172216172
 21
6440.1719818512
 31
0.0
  0
LINE
  5
52D
330
1F
100
AcDbEntity
  8
0
  6
Continuous
 62
     8
 48
50.0
370
    25
100
AcDbLine
 10
9507.4172933335
 20
6440.1719818512
 30
0.0
 11
9526.6172905201
 21
6440.1719818512
 31
0.0
  0
LINE
  5
52E
330
1F
100
AcDbEntity
  8
0
  6
Continuous
 62
     8
 48
50.0
370
    25
100
AcDbLine
 10
10666.4172728295
 20
6440.1719818512
 30
0.0
 11
10702.0172794098
 21
6440.1719818512
 31
0.0
  0
DIMENSION
  5
52F
330
1F
100
AcDbEntity
  8
0
  6
Continuous
 62
     7
 48
50.0
370
    18
100
AcDbDimension
  2
_D_10
 10
10702.0172794127
 20
9047.8753837283
 30
0.0
 11
9567.6026239358
 21
9047.8753837286
 31
0.0
 70
   160
  1
<>
 71
     2
 42
-1.0
  3
SLDDIMSTYLE0
100
AcDbAlignedDimension
 13
8332.0172794124
 23
8223.9980015375
 33
0.0
 14
10702.0172794124
 24
8223.9980015375
 34
0.0
 50
0.0
100
AcDbRotatedDimension
  0
ENDSEC
  0
SECTION
  2
OBJECTS
  0
DICTIONARY
  5
C
330
0
100
AcDbDictionary
281
     1
  3
ACAD_GROUP
350
D
  3
ACAD_LAYOUT
350
1A
  3
ACAD_MLINESTYLE
350
17
  3
ACAD_PLOTSETTINGS
350
19
  3
ACAD_PLOTSTYLENAME
350
E
  3
ACAD_SCALELIST
350
47
  0
DICTIONARY
  5
D
102
{ACAD_REACTORS
330
C
102
}
330
C
100
AcDbDictionary
281
     1
  0
DICTIONARY
  5
1A
102
{ACAD_REACTORS
330
C
102
}
330
C
100
AcDbDictionary
281
     1
  3
Arkusz2
350
1E
  3
Model
350
22
  0
DICTIONARY
  5
17
102
{ACAD_REACTORS
330
C
102
}
330
C
100
AcDbDictionary
281
     1
  3
Standard
350
18
  0
DICTIONARY
  5
19
102
{ACAD_REACTORS
330
C
102
}
330
C
100
AcDbDictionary
281
     1
  0
ACDBDICTIONARYWDFLT
  5
E
102
{ACAD_REACTORS
330
C
102
}
330
C
100
AcDbDictionary
281
     1
  3
Normal
350
F
100
AcDbDictionaryWithDefault
340
F
  0
DICTIONARY
  5
47
102
{ACAD_REACTORS
330
C
102
}
330
C
100
AcDbDictionary
281
     1
  3
A0
350
48
  3
A1
350
49
  3
A2
350
4A
  3
A3
350
4B
  3
A4
350
4C
  3
A5
350
4D
  3
A6
350
4E
  3
A7
350
4F
  3
A8
350
50
  3
A9
350
51
  3
B0
350
52
  3
B1
350
53
  3
B2
350
54
  3
B3
350
55
  3
B4
350
56
  3
B5
350
57
  3
B6
350
58
  3
B7
350
59
  3
B8
350
5A
  3
B9
350
5B
  3
C0
350
5C
  3
C1
350
5D
  3
C2
350
5E
  3
C3
350
5F
  3
C4
350
60
  3
C5
350
61
  3
C6
350
62
  3
C7
350
63
  3
C8
350
64
  3
C9
350
65
  3
D0
350
66
  3
D1
350
67
  3
D2
350
68
  0
LAYOUT
  5
1E
102
{ACAD_REACTORS
330
1A
102
}
330
1A
100
AcDbPlotSettings
  1

  2
none_device
  4
ISO_A2_(594.00_x_420.00_MM)
  6

 40
7.5
 41
20.0
 42
7.5
 43
20.0
 44
594.0
 45
420.0
 46
0.0
 47
0.0
 48
0.0
 49
0.0
140
0.0
141
0.0
142
1.0
143
1.0
 70
  4832
 72
     1
 73
     0
 74
     1
  7

 75
     0
147
1.0
148
0.0
149
0.0
100
AcDbLayout
  1
Arkusz2
 70
     1
 71
     1
 10
0.0
 20
0.0
 11
29700.0
 21
21000.0
 12
0.0
 22
0.0
 32
0.0
 14
0.0
 24
0.0
 34
0.0
 15
29700.0
 25
21000.0
 35
0.0
146
0.0
 13
0.0
 23
0.0
 33
0.0
 16
1.0
 26
0.0
 36
0.0
 17
0.0
 27
1.0
 37
0.0
 76
     0
330
1B
  0
LAYOUT
  5
22
102
{ACAD_REACTORS
330
1A
102
}
330
1A
100
AcDbPlotSettings
  1

  2
none_device
  4
Letter_(8.50_x_11.00_Inches)
  6

 40
6.35
 41
6.35
 42
6.35000508
 43
6.35000508
 44
215.9
 45
279.4
 46
0.0
 47
0.0
 48
0.0
 49
0.0
140
0.0
141
0.0
142
1.0
143
1.0
 70
  1712
 72
     1
 73
     0
 74
     0
  7

 75
     0
147
1.0
148
0.0
149
0.0
100
AcDbLayout
  1
Model
 70
     1
 71
     0
 10
0.0
 20
0.0
 11
29700.0
 21
21000.0
 12
0.0
 22
0.0
 32
0.0
 14
0.0
 24
0.0
 34
0.0
 15
29700.0
 25
21000.0
 35
0.0
146
0.0
 13
0.0
 23
0.0
 33
0.0
 16
1.0
 26
0.0
 36
0.0
 17
0.0
 27
1.0
 37
0.0
 76
     0
330
1F
331
29
  0
MLINESTYLE
  5
18
102
{ACAD_REACTORS
330
17
102
}
330
17
100
AcDbMlineStyle
  2
Standard
 70
     0
  3

 62
   256
 51
90.0
 52
90.0
 71
     2
 49
0.5
 62
   256
  6
BYLAYER
 49
-0.5
 62
   256
  6
BYLAYER
  0
ACDBPLACEHOLDER
  5
F
102
{ACAD_REACTORS
330
E
102
}
330
E
  0
SCALE
  5
48
102
{ACAD_REACTORS
330
47
102
}
330
47
100
AcDbScale
 70
     0
300
1:1
140
1.0
141
1.0
290
     1
  0
SCALE
  5
49
102
{ACAD_REACTORS
330
47
102
}
330
47
100
AcDbScale
 70
     0
300
1:2
140
1.0
141
2.0
290
     0
  0
SCALE
  5
4A
102
{ACAD_REACTORS
330
47
102
}
330
47
100
AcDbScale
 70
     0
300
1:4
140
1.0
141
4.0
290
     0
  0
SCALE
  5
4B
102
{ACAD_REACTORS
330
47
102
}
330
47
100
AcDbScale
 70
     0
300
1:5
140
1.0
141
5.0
290
     0
  0
SCALE
  5
4C
102
{ACAD_REACTORS
330
47
102
}
330
47
100
AcDbScale
 70
     0
300
1:8
140
1.0
141
8.0
290
     0
  0
SCALE
  5
4D
102
{ACAD_REACTORS
330
47
102
}
330
47
100
AcDbScale
 70
     0
300
1:10
140
1.0
141
10.0
290
     0
  0
SCALE
  5
4E
102
{ACAD_REACTORS
330
47
102
}
330
47
100
AcDbScale
 70
     0
300
1:16
140
1.0
141
16.0
290
     0
  0
SCALE
  5
4F
102
{ACAD_REACTORS
330
47
102
}
330
47
100
AcDbScale
 70
     0
300
1:20
140
1.0
141
20.0
290
     0
  0
SCALE
  5
50
102
{ACAD_REACTORS
330
47
102
}
330
47
100
AcDbScale
 70
     0
300
1:30
140
1.0
141
30.0
290
     0
  0
SCALE
  5
51
102
{ACAD_REACTORS
330
47
102
}
330
47
100
AcDbScale
 70
     0
300
1:40
140
1.0
141
40.0
290
     0
  0
SCALE
  5
52
102
{ACAD_REACTORS
330
47
102
}
330
47
100
AcDbScale
 70
     0
300
1:50
140
1.0
141
50.0
290
     0
  0
SCALE
  5
53
102
{ACAD_REACTORS
330
47
102
}
330
47
100
AcDbScale
 70
     0
300
1:100
140
1.0
141
100.0
290
     0
  0
SCALE
  5
54
102
{ACAD_REACTORS
330
47
102
}
330
47
100
AcDbScale
 70
     0
300
2:1
140
2.0
141
1.0
290
     0
  0
SCALE
  5
55
102
{ACAD_REACTORS
330
47
102
}
330
47
100
AcDbScale
 70
     0
300
4:1
140
4.0
141
1.0
290
     0
  0
SCALE
  5
56
102
{ACAD_REACTORS
330
47
102
}
330
47
100
AcDbScale
 70
     0
300
8:1
140
8.0
141
1.0
290
     0
  0
SCALE
  5
57
102
{ACAD_REACTORS
330
47
102
}
330
47
100
AcDbScale
 70
     0
300
10:1
140
10.0
141
1.0
290
     0
  0
SCALE
  5
58
102
{ACAD_REACTORS
330
47
102
}
330
47
100
AcDbScale
 70
     0
300
100:1
140
100.0
141
1.0
290
     0
  0
SCALE
  5
59
102
{ACAD_REACTORS
330
47
102
}
330
47
100
AcDbScale
 70
     0
300
1/128" = 1'-0"
140
0.0078125
141
12.0
290
     0
  0
SCALE
  5
5A
102
{ACAD_REACTORS
330
47
102
}
330
47
100
AcDbScale
 70
     0
300
1/64" = 1'-0"
140
0.015625
141
12.0
290
     0
  0
SCALE
  5
5B
102
{ACAD_REACTORS
330
47
102
}
330
47
100
AcDbScale
 70
     0
300
1/32" = 1'-0"
140
0.03125
141
12.0
290
     0
  0
SCALE
  5
5C
102
{ACAD_REACTORS
330
47
102
}
330
47
100
AcDbScale
 70
     0
300
1/16" = 1'-0"
140
0.0625
141
12.0
290
     0
  0
SCALE
  5
5D
102
{ACAD_REACTORS
330
47
102
}
330
47
100
AcDbScale
 70
     0
300
3/32" = 1'-0"
140
0.09375
141
12.0
290
     0
  0
SCALE
  5
5E
102
{ACAD_REACTORS
330
47
102
}
330
47
100
AcDbScale
 70
     0
300
1/8" = 1'-0"
140
0.125
141
12.0
290
     0
  0
SCALE
  5
5F
102
{ACAD_REACTORS
330
47
102
}
330
47
100
AcDbScale
 70
     0
300
3/16" = 1'-0"
140
0.1875
141
12.0
290
     0
  0
SCALE
  5
60
102
{ACAD_REACTORS
330
47
102
}
330
47
100
AcDbScale
 70
     0
300
1/4" = 1'-0"
140
0.25
141
12.0
290
     0
  0
SCALE
  5
61
102
{ACAD_REACTORS
330
47
102
}
330
47
100
AcDbScale
 70
     0
300
3/8" = 1'-0"
140
0.375
141
12.0
290
     0
  0
SCALE
  5
62
102
{ACAD_REACTORS
330
47
102
}
330
47
100
AcDbScale
 70
     0
300
1/2" = 1'-0"
140
0.5
141
12.0
290
     0
  0
SCALE
  5
63
102
{ACAD_REACTORS
330
47
102
}
330
47
100
AcDbScale
 70
     0
300
3/4" = 1'-0"
140
0.75
141
12.0
290
     0
  0
SCALE
  5
64
102
{ACAD_REACTORS
330
47
102
}
330
47
100
AcDbScale
 70
     0
300
1" = 1'-0"
140
1.0
141
12.0
290
     0
  0
SCALE
  5
65
102
{ACAD_REACTORS
330
47
102
}
330
47
100
AcDbScale
 70
     0
300
1-1/2" = 1'-0"
140
1.5
141
12.0
290
     0
  0
SCALE
  5
66
102
{ACAD_REACTORS
330
47
102
}
330
47
100
AcDbScale
 70
     0
300
3" = 1'-0"
140
3.0
141
12.0
290
     0
  0
SCALE
  5
67
102
{ACAD_REACTORS
330
47
102
}
330
47
100
AcDbScale
 70
     0
300
6" = 1'-0"
140
6.0
141
12.0
290
     0
  0
SCALE
  5
68
102
{ACAD_REACTORS
330
47
102
}
330
47
100
AcDbScale
 70
     0
300
1'-0" = 1'-0"
140
12.0
141
12.0
290
     0
  0
ENDSEC
  0
EOF
