  0
SECTION
  2
HEADER
  9
$ACADVER
  1
AC1015
  9
$ACADMAINTVER
 70
     6
  9
$DWGCODEPAGE
  3
ANSI_1250
  9
$INSBASE
 10
0.0
 20
0.0
 30
0.0
  9
$EXTMIN
 10
0.0
 20
0.0
 30
0.0
  9
$EXTMAX
 10
29700.0
 20
21000.0
 30
0.0
  9
$LIMMIN
 10
0.0
 20
0.0
  9
$LIMMAX
 10
29700.0
 20
21000.0
  9
$ORTHOMODE
 70
     0
  9
$REGENMODE
 70
     1
  9
$FILLMODE
 70
     1
  9
$QTEXTMODE
 70
     0
  9
$MIRRTEXT
 70
     1
  9
$LTSCALE
 40
1.0
  9
$ATTMODE
 70
     1
  9
$TEXTSIZE
 40
175.0
  9
$TRACEWID
 40
1.0
  9
$TEXTSTYLE
  7
Standard
  9
$CLAYER
  8
0
  9
$CELTYPE
  6
ByLayer
  9
$CECOLOR
 62
   256
  9
$CELTSCALE
 40
1.0
  9
$DISPSILH
 70
     0
  9
$DIMSCALE
 40
1.0
  9
$DIMASZ
 40
165.1
  9
$DIMEXO
 40
50.0
  9
$DIMDLI
 40
3.75
  9
$DIMRND
 40
0.0
  9
$DIMDLE
 40
0.0
  9
$DIMEXE
 40
50.0
  9
$DIMTP
 40
0.0
  9
$DIMTM
 40
0.0
  9
$DIMTXT
 40
175.0
  9
$DIMCEN
 40
2.5
  9
$DIMTSZ
 40
0.0
  9
$DIMTOL
 70
     0
  9
$DIMLIM
 70
     0
  9
$DIMTIH
 70
     1
  9
$DIMTOH
 70
     1
  9
$DIMSE1
 70
     0
  9
$DIMSE2
 70
     0
  9
$DIMTAD
 70
     1
  9
$DIMZIN
 70
     1
  9
$DIMBLK
  1

  9
$DIMASO
 70
     1
  9
$DIMSHO
 70
     1
  9
$DIMPOST
  1

  9
$DIMAPOST
  1

  9
$DIMALT
 70
     0
  9
$DIMALTD
 70
     3
  9
$DIMALTF
 40
0.0393700787
  9
$DIMLFAC
 40
1.0
  9
$DIMTOFL
 70
     1
  9
$DIMTVP
 40
0.0
  9
$DIMTIX
 70
     0
  9
$DIMSOXD
 70
     0
  9
$DIMSAH
 70
     0
  9
$DIMBLK1
  1

  9
$DIMBLK2
  1

  9
$DIMSTYLE
  2
ISO-25
  9
$DIMCLRD
 70
     0
  9
$DIMCLRE
 70
     0
  9
$DIMCLRT
 70
     0
  9
$DIMTFAC
 40
1.0
  9
$DIMGAP
 40
76.2
  9
$DIMJUST
 70
     0
  9
$DIMSD1
 70
     0
  9
$DIMSD2
 70
     0
  9
$DIMTOLJ
 70
     0
  9
$DIMTZIN
 70
     1
  9
$DIMALTZ
 70
     0
  9
$DIMALTTZ
 70
     0
  9
$DIMUPT
 70
     0
  9
$DIMDEC
 70
     0
  9
$DIMTDEC
 70
     0
  9
$DIMALTU
 70
     2
  9
$DIMALTTD
 70
     3
  9
$DIMTXSTY
  7
Standard
  9
$DIMAUNIT
 70
     0
  9
$DIMADEC
 70
     2
  9
$DIMALTRND
 40
0.0
  9
$DIMAZIN
 70
     0
  9
$DIMDSEP
 70
    44
  9
$DIMATFIT
 70
     3
  9
$DIMFRAC
 70
     0
  9
$DIMLDRBLK
  1

  9
$DIMLUNIT
 70
     2
  9
$DIMLWD
 70
    -2
  9
$DIMLWE
 70
    -2
  9
$DIMTMOVE
 70
     0
  9
$LUNITS
 70
     2
  9
$LUPREC
 70
     2
  9
$SKETCHINC
 40
1.0
  9
$FILLETRAD
 40
10.0
  9
$AUNITS
 70
     0
  9
$AUPREC
 70
     2
  9
$MENU
  1
.
  9
$ELEVATION
 40
0.0
  9
$PELEVATION
 40
0.0
  9
$THICKNESS
 40
0.0
  9
$LIMCHECK
 70
     0
  9
$CHAMFERA
 40
0.0
  9
$CHAMFERB
 40
0.0
  9
$CHAMFERC
 40
0.0
  9
$CHAMFERD
 40
0.0
  9
$SKPOLY
 70
     0
  9
$TDCREATE
 40
2460695.825723727
  9
$TDUCREATE
 40
2460695.78405706
  9
$TDUPDATE
 40
2460695.82572772
  9
$TDUUPDATE
 40
2460695.784061053
  9
$TDINDWG
 40
0.0000000116
  9
$TDUSRTIMER
 40
0.0000000116
  9
$USRTIMER
 70
     1
  9
$ANGBASE
 50
0.0
  9
$ANGDIR
 70
     0
  9
$PDMODE
 70
     0
  9
$PDSIZE
 40
-1.0
  9
$PLINEWID
 40
0.0
  9
$SPLFRAME
 70
     0
  9
$SPLINETYPE
 70
     6
  9
$SPLINESEGS
 70
     8
  9
$HANDSEED
  5
546
  9
$SURFTAB1
 70
     6
  9
$SURFTAB2
 70
     6
  9
$SURFTYPE
 70
     6
  9
$SURFU
 70
     6
  9
$SURFV
 70
     6
  9
$UCSBASE
  2

  9
$UCSNAME
  2

  9
$UCSORG
 10
0.0
 20
0.0
 30
0.0
  9
$UCSXDIR
 10
1.0
 20
0.0
 30
0.0
  9
$UCSYDIR
 10
0.0
 20
1.0
 30
0.0
  9
$UCSORTHOREF
  2

  9
$UCSORTHOVIEW
 70
     0
  9
$UCSORGTOP
 10
0.0
 20
0.0
 30
0.0
  9
$UCSORGBOTTOM
 10
0.0
 20
0.0
 30
0.0
  9
$UCSORGLEFT
 10
0.0
 20
0.0
 30
0.0
  9
$UCSORGRIGHT
 10
0.0
 20
0.0
 30
0.0
  9
$UCSORGFRONT
 10
0.0
 20
0.0
 30
0.0
  9
$UCSORGBACK
 10
0.0
 20
0.0
 30
0.0
  9
$PUCSBASE
  2

  9
$PUCSNAME
  2

  9
$PUCSORG
 10
0.0
 20
0.0
 30
0.0
  9
$PUCSXDIR
 10
1.0
 20
0.0
 30
0.0
  9
$PUCSYDIR
 10
0.0
 20
1.0
 30
0.0
  9
$PUCSORTHOREF
  2

  9
$PUCSORTHOVIEW
 70
     0
  9
$PUCSORGTOP
 10
0.0
 20
0.0
 30
0.0
  9
$PUCSORGBOTTOM
 10
0.0
 20
0.0
 30
0.0
  9
$PUCSORGLEFT
 10
0.0
 20
0.0
 30
0.0
  9
$PUCSORGRIGHT
 10
0.0
 20
0.0
 30
0.0
  9
$PUCSORGFRONT
 10
0.0
 20
0.0
 30
0.0
  9
$PUCSORGBACK
 10
0.0
 20
0.0
 30
0.0
  9
$USERI1
 70
     0
  9
$USERI2
 70
     0
  9
$USERI3
 70
     0
  9
$USERI4
 70
     0
  9
$USERI5
 70
     0
  9
$USERR1
 40
0.0
  9
$USERR2
 40
0.0
  9
$USERR3
 40
0.0
  9
$USERR4
 40
0.0
  9
$USERR5
 40
0.0
  9
$WORLDVIEW
 70
     1
  9
$SHADEDGE
 70
     3
  9
$SHADEDIF
 70
    70
  9
$TILEMODE
 70
     1
  9
$MAXACTVP
 70
    64
  9
$PINSBASE
 10
0.0
 20
0.0
 30
0.0
  9
$PLIMCHECK
 70
     0
  9
$PEXTMIN
 10
0.0
 20
0.0
 30
0.0
  9
$PEXTMAX
 10
29700.0
 20
21000.0
 30
0.0
  9
$PLIMMIN
 10
0.0
 20
0.0
  9
$PLIMMAX
 10
29700.0
 20
21000.0
  9
$UNITMODE
 70
     0
  9
$VISRETAIN
 70
     1
  9
$PLINEGEN
 70
     0
  9
$PSLTSCALE
 70
     1
  9
$TREEDEPTH
 70
  3020
  9
$CMLSTYLE
  2
Standard
  9
$CMLJUST
 70
     0
  9
$CMLSCALE
 40
20.0
  9
$PROXYGRAPHICS
 70
     1
  9
$MEASUREMENT
 70
     1
  9
$CELWEIGHT
370
    -1
  9
$ENDCAPS
280
     0
  9
$JOINSTYLE
280
     0
  9
$LWDISPLAY
290
     1
  9
$INSUNITS
 70
     4
  9
$HYPERLINKBASE
  1

  9
$STYLESHEET
  1

  9
$XEDIT
290
     1
  9
$CEPSNTYPE
380
     0
  9
$PSTYLEMODE
290
     1
  9
$FINGERPRINTGUID
  2
{e5321533-8779-444d-a6f2-2df3e374da60}
  9
$VERSIONGUID
  2
{FAEB1C32-E019-11D5-929B-00C0DF256EC4}
  9
$EXTNAMES
290
     1
  9
$PSVPSCALE
 40
0.0
  9
$OLESTARTUP
290
     0
  0
ENDSEC
  0
SECTION
  2
CLASSES
  0
CLASS
  1
ACDBDICTIONARYWDFLT
  2
AcDbDictionaryWithDefault
  3
ObjectDBX Classes
 90
        0
280
     0
281
     0
  0
CLASS
  1
VISUALSTYLE
  2
AcDbVisualStyle
  3
ObjectDBX Classes
 90
     4095
280
     0
281
     0
  0
CLASS
  1
MATERIAL
  2
AcDbMaterial
  3
ObjectDBX Classes
 90
     1153
280
     0
281
     0
  0
CLASS
  1
SCALE
  2
AcDbScale
  3
ObjectDBX Classes
 90
     1153
280
     0
281
     0
  0
CLASS
  1
TABLESTYLE
  2
AcDbTableStyle
  3
ObjectDBX Classes
 90
     4095
280
     0
281
     0
  0
CLASS
  1
MLEADERSTYLE
  2
AcDbMLeaderStyle
  3
ACDB_MLEADERSTYLE_CLASS
 90
     4095
280
     0
281
     0
  0
CLASS
  1
SUN
  2
AcDbSun
  3
SCENEOE
 90
     1153
280
     0
281
     0
  0
CLASS
  1
ACDBPLACEHOLDER
  2
AcDbPlaceHolder
  3
ObjectDBX Classes
 90
        0
280
     0
281
     0
  0
CLASS
  1
LAYOUT
  2
AcDbLayout
  3
ObjectDBX Classes
 90
        0
280
     0
281
     0
  0
ENDSEC
  0
SECTION
  2
TABLES
  0
TABLE
  2
VPORT
  5
8
330
0
100
AcDbSymbolTable
 70
     1
  0
VPORT
  5
29
330
8
100
AcDbSymbolTableRecord
100
AcDbViewportTableRecord
  2
*Active
 70
     0
 10
0.0
 20
0.0
 11
1.0
 21
1.0
 12
14850.0
 22
10500.0
 13
0.0
 23
0.0
 14
10.0
 24
10.0
 15
10.0
 25
10.0
 16
0.0
 26
0.0
 36
1.0
 17
0.0
 27
0.0
 37
0.0
 40
21000.0
 41
1.4142857143
 42
50.0
 43
0.0
 44
0.0
 50
0.0
 51
0.0
 71
     0
 72
  2000
 73
     1
 74
     3
 75
     0
 76
     0
 77
     0
 78
     0
281
     0
 65
     1
110
0.0
120
0.0
130
0.0
111
1.0
121
0.0
131
0.0
112
0.0
122
1.0
132
0.0
 79
     0
146
0.0
  0
ENDTAB
  0
TABLE
  2
LTYPE
  5
5
330
0
100
AcDbSymbolTable
 70
     6
  0
LTYPE
  5
14
330
5
100
AcDbSymbolTableRecord
100
AcDbLinetypeTableRecord
  2
ByBlock
 70
     0
  3

 72
    65
 73
     0
 40
0.0
  0
LTYPE
  5
15
330
5
100
AcDbSymbolTableRecord
100
AcDbLinetypeTableRecord
  2
ByLayer
 70
     0
  3

 72
    65
 73
     0
 40
0.0
  0
LTYPE
  5
16
330
5
100
AcDbSymbolTableRecord
100
AcDbLinetypeTableRecord
  2
Continuous
 70
     0
  3
Solid line
 72
    65
 73
     0
 40
0.0
  0
LTYPE
  5
6E
330
5
100
AcDbSymbolTableRecord
100
AcDbLinetypeTableRecord
  2
HIDDEN
 70
     0
  3
Hidden __ __ __ __ __ __ __ __ __ __ __ __ __ __
 72
    65
 73
     2
 40
1.905
 49
1.27
 74
     0
 49
-0.635
 74
     0
  0
LTYPE
  5
6F
330
5
100
AcDbSymbolTableRecord
100
AcDbLinetypeTableRecord
  2
PHANTOM
 70
     0
  3
Phantom ______  __  __  ______  __  __  ______
 72
    65
 73
     6
 40
12.7
 49
6.35
 74
     0
 49
-1.27
 74
     0
 49
1.27
 74
     0
 49
-1.27
 74
     0
 49
1.27
 74
     0
 49
-1.27
 74
     0
  0
LTYPE
  5
70
330
5
100
AcDbSymbolTableRecord
100
AcDbLinetypeTableRecord
  2
CENTER
 70
     0
  3
Center ____ _ ____ _ ____ _ ____ _ ____ _ ____
 72
    65
 73
     4
 40
10.16
 49
6.35
 74
     0
 49
-1.27
 74
     0
 49
1.27
 74
     0
 49
-1.27
 74
     0
  0
LTYPE
  5
71
330
5
100
AcDbSymbolTableRecord
100
AcDbLinetypeTableRecord
  2
CENTERX2
 70
     0
  3
Center (2x) ________  __  ________  __  _____
 72
    65
 73
     4
 40
20.32
 49
12.7
 74
     0
 49
-2.54
 74
     0
 49
2.54
 74
     0
 49
-2.54
 74
     0
  0
LTYPE
  5
72
330
5
100
AcDbSymbolTableRecord
100
AcDbLinetypeTableRecord
  2
DOT2
 70
     0
  3
Dot (.5x) ........................................
 72
    65
 73
     2
 40
0.635
 49
0.0
 74
     0
 49
-0.635
 74
     0
  0
ENDTAB
  0
TABLE
  2
LAYER
  5
2
330
0
100
AcDbSymbolTable
 70
     2
  0
LAYER
  5
10
330
2
100
AcDbSymbolTableRecord
100
AcDbLayerTableRecord
  2
0
 70
     0
 62
     7
  6
Continuous
370
    -3
390
F
  0
LAYER
  5
73
330
2
100
AcDbSymbolTableRecord
100
AcDbLayerTableRecord
  2
FORMAT
 70
     0
 62
     7
  6
Continuous
370
    -3
390
F
  0
ENDTAB
  0
TABLE
  2
STYLE
  5
3
330
0
100
AcDbSymbolTable
 70
     2
  0
STYLE
  5
11
330
3
100
AcDbSymbolTableRecord
100
AcDbTextStyleTableRecord
  2
Standard
 70
     0
 40
0.0
 41
1.0
 50
0.0
 71
     0
 42
175.0
  3
txt
  4

  0
STYLE
  5
1D2
330
3
100
AcDbSymbolTableRecord
100
AcDbTextStyleTableRecord
  2
SLDTEXTSTYLE0
 70
     0
 40
0.0
 41
0.75
 50
0.0
 71
     0
 42
175.0
  3
TXT
  4

  0
ENDTAB
  0
TABLE
  2
VIEW
  5
6
330
0
100
AcDbSymbolTable
 70
     0
  0
ENDTAB
  0
TABLE
  2
UCS
  5
7
330
0
100
AcDbSymbolTable
 70
     0
  0
ENDTAB
  0
TABLE
  2
APPID
  5
9
330
0
100
AcDbSymbolTable
 70
     1
  0
APPID
  5
12
330
9
100
AcDbSymbolTableRecord
100
AcDbRegAppTableRecord
  2
ACAD
 70
     0
  0
ENDTAB
  0
TABLE
  2
DIMSTYLE
  5
A
330
0
100
AcDbSymbolTable
 70
     5
100
AcDbDimStyleTable
  0
DIMSTYLE
105
27
330
A
100
AcDbSymbolTableRecord
100
AcDbDimStyleTableRecord
  2
ISO-25
 70
     0
 41
2.5
 42
0.625
 43
3.75
 44
1.25
 73
     0
 74
     0
 77
     1
 78
     8
140
2.5
141
2.5
143
0.0393700787
147
0.625
171
     3
172
     1
178
     0
271
     2
272
     2
274
     3
278
    44
283
     0
284
     8
340
11
  0
DIMSTYLE
105
1D3
102
{ACAD_REACTORS
330
1D1
330
1DD
102
}
330
A
100
AcDbSymbolTableRecord
100
AcDbDimStyleTableRecord
  2
SLDDIMSTYLE0
 70
     0
 41
165.1
 44
0.0
 45
0.000000001
 73
     0
 74
     0
 77
     1
 78
    12
 79
     3
140
175.0
147
43.75
173
     1
178
     0
271
     0
272
     2
276
     2
284
    12
340
1D2
  0
DIMSTYLE
105
34F
102
{ACAD_REACTORS
330
34E
330
37A
330
384
330
38E
330
398
330
53C
102
}
330
A
100
AcDbSymbolTableRecord
100
AcDbDimStyleTableRecord
  2
SLDDIMSTYLE1
 70
     0
 41
165.1
 44
0.0
 45
0.000000001
 73
     0
 74
     0
 77
     1
 78
    12
 79
     3
140
175.0
147
43.75
173
     1
178
     0
271
     0
272
     0
276
     2
284
    12
340
1D2
  0
DIMSTYLE
105
359
102
{ACAD_REACTORS
330
358
330
365
102
}
330
A
100
AcDbSymbolTableRecord
100
AcDbDimStyleTableRecord
  2
SLDDIMSTYLE2
 70
     0
 41
165.1
 44
0.0
 45
0.000000001
 73
     0
 74
     0
 77
     1
 78
    12
 79
     3
140
175.0
147
43.75
172
     1
173
     1
178
     0
271
     0
272
     0
276
     2
284
    12
289
     0
340
1D2
  0
DIMSTYLE
105
372
102
{ACAD_REACTORS
330
371
102
}
330
A
100
AcDbSymbolTableRecord
100
AcDbDimStyleTableRecord
  2
SLDDIMSTYLE3
 70
     0
 41
165.1
 44
0.0
 73
     0
 74
     0
 77
     1
 78
    12
 79
     3
140
175.0
144
50.0
147
43.75
173
     1
178
     0
179
     2
272
     2
276
     2
284
    12
340
1D2
  0
ENDTAB
  0
TABLE
  2
BLOCK_RECORD
  5
1
330
0
100
AcDbSymbolTable
 70
    11
  0
BLOCK_RECORD
  5
1F
330
1
100
AcDbSymbolTableRecord
100
AcDbBlockTableRecord
  2
*Model_Space
340
22
  0
BLOCK_RECORD
  5
1B
330
1
100
AcDbSymbolTableRecord
100
AcDbBlockTableRecord
  2
*Paper_Space
340
1E
  0
BLOCK_RECORD
  5
1D4
330
1
100
AcDbSymbolTableRecord
100
AcDbBlockTableRecord
  2
_D
340
0
  0
BLOCK_RECORD
  5
1DE
330
1
100
AcDbSymbolTableRecord
100
AcDbBlockTableRecord
  2
_D_1
340
0
  0
BLOCK_RECORD
  5
350
330
1
100
AcDbSymbolTableRecord
100
AcDbBlockTableRecord
  2
_D_2
340
0
  0
BLOCK_RECORD
  5
35A
330
1
100
AcDbSymbolTableRecord
100
AcDbBlockTableRecord
  2
_D_3
340
0
  0
BLOCK_RECORD
  5
366
330
1
100
AcDbSymbolTableRecord
100
AcDbBlockTableRecord
  2
_D_4
340
0
  0
BLOCK_RECORD
  5
373
330
1
100
AcDbSymbolTableRecord
100
AcDbBlockTableRecord
  2
_D_5
340
0
  0
BLOCK_RECORD
  5
37B
330
1
100
AcDbSymbolTableRecord
100
AcDbBlockTableRecord
  2
_D_6
340
0
  0
BLOCK_RECORD
  5
385
330
1
100
AcDbSymbolTableRecord
100
AcDbBlockTableRecord
  2
_D_7
340
0
  0
BLOCK_RECORD
  5
38F
330
1
100
AcDbSymbolTableRecord
100
AcDbBlockTableRecord
  2
_D_8
340
0
  0
BLOCK_RECORD
  5
399
330
1
100
AcDbSymbolTableRecord
100
AcDbBlockTableRecord
  2
_D_9
340
0
  0
BLOCK_RECORD
  5
53D
330
1
100
AcDbSymbolTableRecord
100
AcDbBlockTableRecord
  2
_D_10
340
0
  0
ENDTAB
  0
ENDSEC
  0
SECTION
  2
BLOCKS
  0
BLOCK
  5
20
330
1F
100
AcDbEntity
  8
0
100
AcDbBlockBegin
  2
*Model_Space
 70
     0
 10
0.0
 20
0.0
 30
0.0
  3
*Model_Space
  1

  0
ENDBLK
  5
21
330
1F
100
AcDbEntity
  8
0
100
AcDbBlockEnd
  0
BLOCK
  5
1C
330
1B
100
AcDbEntity
 67
     1
  8
0
100
AcDbBlockBegin
  2
*Paper_Space
 70
     0
 10
0.0
 20
0.0
 30
0.0
  3
*Paper_Space
  1

  0
ENDBLK
  5
1D
330
1B
100
AcDbEntity
 67
     1
  8
0
100
AcDbBlockEnd
  0
BLOCK
  5
1D5
330
1D4
100
AcDbEntity
  8
0
100
AcDbBlockBegin
  2
_D
 70
     0
 10
0.0
 20
0.0
 30
0.0
  3
_D
  1

  0
SOLID
  5
1D7
330
1D4
100
AcDbEntity
  8
0
  6
Continuous
 62
     7
 48
50.0
370
    18
100
AcDbTrace
 10
8367.5172794007
 20
15178.1366656909
 30
0.0
 11
8532.6172794007
 21
15152.7366656909
 31
0.0
 12
8532.6172794007
 22
15203.5366656909
 32
0.0
 13
8532.6172794007
 23
15203.5366656909
 33
0.0
  0
SOLID
  5
1D8
330
1D4
100
AcDbEntity
  8
0
  6
Continuous
 62
     7
 48
50.0
370
    18
100
AcDbTrace
 10
9507.5172794007
 20
15178.1366656908
 30
0.0
 11
9342.4172794007
 21
15203.5366656908
 31
0.0
 12
9342.4172794007
 22
15152.7366656908
 32
0.0
 13
9342.4172794007
 23
15152.7366656908
 33
0.0
  0
LINE
  5
1D9
330
1D4
100
AcDbEntity
  8
0
  6
Continuous
 62
     7
 48
50.0
370
     0
100
AcDbLine
 10
8367.5172794006
 20
14343.1615581398
 30
0.0
 11
8367.5172794007
 21
15228.1366656909
 31
0.0
  0
LINE
  5
1DA
330
1D4
100
AcDbEntity
  8
0
  6
Continuous
 62
     7
 48
50.0
370
     0
100
AcDbLine
 10
9507.5172794006
 20
14343.1615581398
 30
0.0
 11
9507.5172794007
 21
15228.1366656908
 31
0.0
  0
LINE
  5
1DB
330
1D4
100
AcDbEntity
  8
0
  6
Continuous
 62
     7
 48
50.0
370
     0
100
AcDbLine
 10
8367.5172794007
 20
15178.1366656909
 30
0.0
 11
9507.5172794007
 21
15178.1366656908
 31
0.0
  0
MTEXT
  5
1DC
330
1D4
100
AcDbEntity
  8
0
  6
Continuous
 62
     7
 48
50.0
370
    18
100
AcDbMText
 10
8684.0134578268
 20
15403.7235114198
 30
0.0
 40
175.0
 41
0.0
 71
     1
 72
     1
  1
1140
  7
SLDTEXTSTYLE0
 73
     1
 44
1.0
  0
ENDBLK
  5
1D6
330
1D4
100
AcDbEntity
  8
0
100
AcDbBlockEnd
  0
BLOCK
  5
1DF
330
1DE
100
AcDbEntity
  8
0
100
AcDbBlockBegin
  2
_D_1
 70
     0
 10
0.0
 20
0.0
 30
0.0
  3
_D_1
  1

  0
SOLID
  5
1E1
330
1DE
100
AcDbEntity
  8
0
  6
Continuous
 62
     7
 48
50.0
370
    18
100
AcDbTrace
 10
8642.0172794098
 20
9756.436996476
 30
0.0
 11
8807.1172794098
 21
9731.036996476
 31
0.0
 12
8807.1172794098
 22
9781.836996476
 32
0.0
 13
8807.1172794098
 23
9781.836996476
 33
0.0
  0
SOLID
  5
1E2
330
1DE
100
AcDbEntity
  8
0
  6
Continuous
 62
     7
 48
50.0
370
    18
100
AcDbTrace
 10
10512.0172794098
 20
9756.436996476
 30
0.0
 11
10346.9172794098
 21
9781.836996476
 31
0.0
 12
10346.9172794098
 22
9731.036996476
 32
0.0
 13
10346.9172794098
 23
9731.036996476
 33
0.0
  0
LINE
  5
1E3
330
1DE
100
AcDbEntity
  8
0
  6
Continuous
 62
     7
 48
50.0
370
     0
100
AcDbLine
 10
8642.0172794098
 20
12220.2698409152
 30
0.0
 11
8642.0172794098
 21
9706.436996476
 31
0.0
  0
LINE
  5
1E4
330
1DE
100
AcDbEntity
  8
0
  6
Continuous
 62
     7
 48
50.0
370
     0
100
AcDbLine
 10
10512.0172794098
 20
12220.2698409152
 30
0.0
 11
10512.0172794098
 21
9706.436996476
 31
0.0
  0
LINE
  5
1E5
330
1DE
100
AcDbEntity
  8
0
  6
Continuous
 62
     7
 48
50.0
370
     0
100
AcDbLine
 10
8642.0172794098
 20
9756.436996476
 30
0.0
 11
10512.0172794098
 21
9756.436996476
 31
0.0
  0
MTEXT
  5
1E6
330
1DE
100
AcDbEntity
  8
0
  6
Continuous
 62
     7
 48
50.0
370
    18
100
AcDbMText
 10
9253.944078083
 20
9982.023842205
 30
0.0
 40
175.0
 41
0.0
 71
     1
 72
     1
  1
1870
  7
SLDTEXTSTYLE0
 73
     1
 44
1.0
  0
ENDBLK
  5
1E0
330
1DE
100
AcDbEntity
  8
0
100
AcDbBlockEnd
  0
BLOCK
  5
351
330
350
100
AcDbEntity
  8
0
100
AcDbBlockBegin
  2
_D_2
 70
     0
 10
0.0
 20
0.0
 30
0.0
  3
_D_2
  1

  0
SOLID
  5
353
330
350
100
AcDbEntity
  8
0
  6
Continuous
 62
     7
 48
50.0
370
    18
100
AcDbTrace
 10
11571.511928173
 20
14796.4439271224
 30
0.0
 11
11546.111928173
 21
14631.3439271224
 31
0.0
 12
11596.911928173
 22
14631.3439271224
 32
0.0
 13
11596.911928173
 23
14631.3439271224
 33
0.0
  0
SOLID
  5
354
330
350
100
AcDbEntity
  8
0
  6
Continuous
 62
     7
 48
50.0
370
    18
100
AcDbTrace
 10
11571.511928173
 20
11640.269840915
 30
0.0
 11
11596.911928173
 21
11805.369840915
 31
0.0
 12
11546.111928173
 22
11805.369840915
 32
0.0
 13
11546.111928173
 23
11805.369840915
 33
0.0
  0
LINE
  5
355
330
350
100
AcDbEntity
  8
0
  6
Continuous
 62
     7
 48
50.0
370
     0
100
AcDbLine
 10
12079.0724764656
 20
14796.4439271224
 30
0.0
 11
11521.511928173
 21
14796.4439271224
 31
0.0
  0
LINE
  5
356
330
350
100
AcDbEntity
  8
0
  6
Continuous
 62
     7
 48
50.0
370
     0
100
AcDbLine
 10
11571.511928173
 20
14796.4439271224
 30
0.0
 11
11571.511928173
 21
11640.269840915
 31
0.0
  0
MTEXT
  5
357
330
350
100
AcDbEntity
  8
0
  6
Continuous
 62
     7
 48
50.0
370
    18
100
AcDbMText
 10
11345.9250824441
 20
12781.4791441391
 30
0.0
 40
175.0
 41
0.0
 71
     1
 72
     1
  1
3156
  7
SLDTEXTSTYLE0
 11
-7.044195017643634E-15
 21
1.0
 31
0.0
 73
     1
 44
1.0
  0
ENDBLK
  5
352
330
350
100
AcDbEntity
  8
0
100
AcDbBlockEnd
  0
BLOCK
  5
35B
330
35A
100
AcDbEntity
  8
0
100
AcDbBlockBegin
  2
_D_3
 70
     0
 10
0.0
 20
0.0
 30
0.0
  3
_D_3
  1

  0
SOLID
  5
35D
330
35A
100
AcDbEntity
  8
0
  6
Continuous
 62
     7
 48
50.0
370
    18
100
AcDbTrace
 10
16738.951318608
 20
12446.7880556105
 30
0.0
 11
16764.351318608
 21
12611.8880556105
 31
0.0
 12
16713.551318608
 22
12611.8880556105
 32
0.0
 13
16713.551318608
 23
12611.8880556105
 33
0.0
  0
SOLID
  5
35E
330
35A
100
AcDbEntity
  8
0
  6
Continuous
 62
     7
 48
50.0
370
    18
100
AcDbTrace
 10
16738.951318608
 20
11640.269840915
 30
0.0
 11
16713.551318608
 21
11475.169840915
 31
0.0
 12
16764.351318608
 22
11475.169840915
 32
0.0
 13
16764.351318608
 23
11475.169840915
 33
0.0
  0
LINE
  5
35F
330
35A
100
AcDbEntity
  8
0
  6
Continuous
 62
     7
 48
50.0
370
     0
100
AcDbLine
 10
15534.7288258952
 20
12446.7880556105
 30
0.0
 11
16788.951318608
 21
12446.7880556105
 31
0.0
  0
LINE
  5
360
330
35A
100
AcDbEntity
  8
0
  6
Continuous
 62
     7
 48
50.0
370
     0
100
AcDbLine
 10
16292.8203480527
 20
11640.269840915
 30
0.0
 11
16788.951318608
 21
11640.269840915
 31
0.0
  0
LINE
  5
361
330
35A
100
AcDbEntity
  8
0
  6
Continuous
 62
     7
 48
50.0
370
     0
100
AcDbLine
 10
16738.951318608
 20
12446.7880556105
 30
0.0
 11
16738.951318608
 21
12764.2880556105
 31
0.0
  0
LINE
  5
362
330
35A
100
AcDbEntity
  8
0
  6
Continuous
 62
     7
 48
50.0
370
     0
100
AcDbLine
 10
16738.951318608
 20
12446.7880556105
 30
0.0
 11
16738.951318608
 21
11640.269840915
 31
0.0
  0
LINE
  5
363
330
35A
100
AcDbEntity
  8
0
  6
Continuous
 62
     7
 48
50.0
370
     0
100
AcDbLine
 10
16738.951318608
 20
11640.269840915
 30
0.0
 11
16738.951318608
 21
11322.769840915
 31
0.0
  0
MTEXT
  5
364
330
35A
100
AcDbEntity
  8
0
  6
Continuous
 62
     7
 48
50.0
370
    18
100
AcDbMText
 10
16513.3644728791
 20
11790.7112581511
 30
0.0
 40
175.0
 41
0.0
 71
     1
 72
     1
  1
807
  7
SLDTEXTSTYLE0
 11
-7.044195017643634E-15
 21
1.0
 31
0.0
 73
     1
 44
1.0
  0
ENDBLK
  5
35C
330
35A
100
AcDbEntity
  8
0
100
AcDbBlockEnd
  0
BLOCK
  5
367
330
366
100
AcDbEntity
  8
0
100
AcDbBlockBegin
  2
_D_4
 70
     0
 10
0.0
 20
0.0
 30
0.0
  3
_D_4
  1

  0
SOLID
  5
369
330
366
100
AcDbEntity
  8
0
  6
Continuous
 62
     7
 48
50.0
370
    18
100
AcDbTrace
 10
16323.157613764
 20
12202.8035068425
 30
0.0
 11
16348.557613764
 21
12367.9035068425
 31
0.0
 12
16297.757613764
 22
12367.9035068425
 32
0.0
 13
16297.757613764
 23
12367.9035068425
 33
0.0
  0
SOLID
  5
36A
330
366
100
AcDbEntity
  8
0
  6
Continuous
 62
     7
 48
50.0
370
    18
100
AcDbTrace
 10
16323.157613764
 20
11640.269840915
 30
0.0
 11
16297.757613764
 21
11475.169840915
 31
0.0
 12
16348.557613764
 22
11475.169840915
 32
0.0
 13
16348.557613764
 23
11475.169840915
 33
0.0
  0
LINE
  5
36B
330
366
100
AcDbEntity
  8
0
  6
Continuous
 62
     7
 48
50.0
370
     0
100
AcDbLine
 10
15952.912744719
 20
12202.8035068425
 30
0.0
 11
16373.157613764
 21
12202.8035068425
 31
0.0
  0
LINE
  5
36C
330
366
100
AcDbEntity
  8
0
  6
Continuous
 62
     7
 48
50.0
370
     0
100
AcDbLine
 10
16292.8203480527
 20
11640.269840915
 30
0.0
 11
16373.157613764
 21
11640.269840915
 31
0.0
  0
LINE
  5
36D
330
366
100
AcDbEntity
  8
0
  6
Continuous
 62
     7
 48
50.0
370
     0
100
AcDbLine
 10
16323.157613764
 20
12202.8035068425
 30
0.0
 11
16323.157613764
 21
12520.3035068425
 31
0.0
  0
LINE
  5
36E
330
366
100
AcDbEntity
  8
0
  6
Continuous
 62
     7
 48
50.0
370
     0
100
AcDbLine
 10
16323.157613764
 20
12202.8035068425
 30
0.0
 11
16323.157613764
 21
11640.269840915
 31
0.0
  0
LINE
  5
36F
330
366
100
AcDbEntity
  8
0
  6
Continuous
 62
     7
 48
50.0
370
     0
100
AcDbLine
 10
16323.157613764
 20
11640.269840915
 30
0.0
 11
16323.157613764
 21
11322.769840915
 31
0.0
  0
MTEXT
  5
370
330
366
100
AcDbEntity
  8
0
  6
Continuous
 62
     7
 48
50.0
370
    18
100
AcDbMText
 10
16097.570768035
 20
11705.4883846869
 30
0.0
 40
175.0
 41
0.0
 71
     1
 72
     1
  1
563
  7
SLDTEXTSTYLE0
 11
-7.044195017643634E-15
 21
1.0
 31
0.0
 73
     1
 44
1.0
  0
ENDBLK
  5
368
330
366
100
AcDbEntity
  8
0
100
AcDbBlockEnd
  0
BLOCK
  5
374
330
373
100
AcDbEntity
  8
0
100
AcDbBlockBegin
  2
_D_5
 70
     0
 10
0.0
 20
0.0
 30
0.0
  3
_D_5
  1

  0
ARC
  5
376
330
373
100
AcDbEntity
  8
0
  6
Continuous
 62
     7
 48
50.0
370
    18
100
AcDbCircle
 10
16269.5606561356
 20
11640.269840915
 30
0.0
 40
2426.674048491142
100
AcDbArc
 50
145.0
 51
180.0
  0
SOLID
  5
377
330
373
100
AcDbEntity
  8
0
  6
Continuous
 62
     7
 48
50.0
370
    18
100
AcDbTrace
 10
14281.7456484911
 20
13032.1528938342
 30
0.0
 11
14170.406261563
 21
12907.6269490738
 31
0.0
 12
14212.9846674761
 22
12879.9192001594
 32
0.0
 13
14212.9846674761
 23
12879.9192001594
 33
0.0
  0
SOLID
  5
378
330
373
100
AcDbEntity
  8
0
  6
Continuous
 62
     7
 48
50.0
370
    18
100
AcDbTrace
 10
13842.8866076445
 20
11640.269840915
 30
0.0
 11
13873.8785689892
 21
11804.412060749
 31
0.0
 12
13823.1078688614
 22
11806.1371719123
 32
0.0
 13
13823.1078688614
 23
11806.1371719123
 33
0.0
  0
MTEXT
  5
379
330
373
100
AcDbEntity
  8
0
  6
Continuous
 62
     7
 48
50.0
370
    18
100
AcDbMText
 10
13685.6094031259
 20
12263.6878362739
 30
0.0
 40
175.0
 41
0.0
 71
     1
 72
     1
  1
35°
  7
SLDTEXTSTYLE0
 11
0.2983772589784541
 21
0.9544480139454975
 31
0.0
 73
     1
 44
1.0
  0
ENDBLK
  5
375
330
373
100
AcDbEntity
  8
0
100
AcDbBlockEnd
  0
BLOCK
  5
37C
330
37B
100
AcDbEntity
  8
0
100
AcDbBlockBegin
  2
_D_6
 70
     0
 10
0.0
 20
0.0
 30
0.0
  3
_D_6
  1

  0
SOLID
  5
37E
330
37B
100
AcDbEntity
  8
0
  6
Continuous
 62
     7
 48
50.0
370
    18
100
AcDbTrace
 10
12252.596296993
 20
14972.854225194
 30
0.0
 11
12373.2694580218
 21
14857.3502936275
 31
0.0
 12
12402.4071409884
 22
14898.9632174774
 32
0.0
 13
12402.4071409884
 23
14898.9632174774
 33
0.0
  0
SOLID
  5
37F
330
37B
100
AcDbEntity
  8
0
  6
Continuous
 62
     7
 48
50.0
370
    18
100
AcDbTrace
 10
14120.2629579719
 20
13665.0999503136
 30
0.0
 11
13999.5897969431
 21
13780.6038818801
 31
0.0
 12
13970.4521139765
 22
13738.9909580302
 32
0.0
 13
13970.4521139765
 23
13738.9909580302
 33
0.0
  0
LINE
  5
380
330
37B
100
AcDbEntity
  8
0
  6
Continuous
 62
     7
 48
50.0
370
     0
100
AcDbLine
 10
12180.694355737
 20
14870.1676111084
 30
0.0
 11
12281.2751188106
 21
15013.8118274085
 31
0.0
  0
LINE
  5
381
330
37B
100
AcDbEntity
  8
0
  6
Continuous
 62
     7
 48
50.0
370
     0
100
AcDbLine
 10
14048.361016716
 20
13562.413336228
 30
0.0
 11
14148.9417797895
 21
13706.057552528
 31
0.0
  0
LINE
  5
382
330
37B
100
AcDbEntity
  8
0
  6
Continuous
 62
     7
 48
50.0
370
     0
100
AcDbLine
 10
12252.596296993
 20
14972.854225194
 30
0.0
 11
14120.2629579719
 21
13665.0999503136
 31
0.0
  0
MTEXT
  5
383
330
37B
100
AcDbEntity
  8
0
  6
Continuous
 62
     7
 48
50.0
370
    18
100
AcDbMText
 10
13188.4084010463
 20
14592.9822244127
 30
0.0
 40
175.0
 41
0.0
 71
     1
 72
     1
  1
2280
  7
SLDTEXTSTYLE0
 11
0.819152044288987
 21
-0.5735764363510529
 31
0.0
 73
     1
 44
1.0
  0
ENDBLK
  5
37D
330
37B
100
AcDbEntity
  8
0
100
AcDbBlockEnd
  0
BLOCK
  5
386
330
385
100
AcDbEntity
  8
0
100
AcDbBlockBegin
  2
_D_7
 70
     0
 10
0.0
 20
0.0
 30
0.0
  3
_D_7
  1

  0
SOLID
  5
388
330
385
100
AcDbEntity
  8
0
  6
Continuous
 62
     7
 48
50.0
370
    18
100
AcDbTrace
 10
12526.3442174108
 20
15332.1454845343
 30
0.0
 11
12691.4442174108
 21
15306.7454845343
 31
0.0
 12
12691.4442174108
 22
15357.5454845343
 32
0.0
 13
12691.4442174108
 23
15357.5454845343
 33
0.0
  0
SOLID
  5
389
330
385
100
AcDbEntity
  8
0
  6
Continuous
 62
     7
 48
50.0
370
    18
100
AcDbTrace
 10
15442.5254950794
 20
15332.1454845343
 30
0.0
 11
15277.4254950794
 21
15357.5454845343
 31
0.0
 12
15277.4254950794
 22
15306.7454845343
 32
0.0
 13
15277.4254950794
 23
15306.7454845343
 33
0.0
  0
LINE
  5
38A
330
385
100
AcDbEntity
  8
0
  6
Continuous
 62
     7
 48
50.0
370
     0
100
AcDbLine
 10
12526.3442174108
 20
14446.1938005185
 30
0.0
 11
12526.3442174108
 21
15382.1454845343
 31
0.0
  0
LINE
  5
38B
330
385
100
AcDbEntity
  8
0
  6
Continuous
 62
     7
 48
50.0
370
     0
100
AcDbLine
 10
15442.5254950794
 20
12404.2616871092
 30
0.0
 11
15442.5254950794
 21
15382.1454845343
 31
0.0
  0
LINE
  5
38C
330
385
100
AcDbEntity
  8
0
  6
Continuous
 62
     7
 48
50.0
370
     0
100
AcDbLine
 10
12526.3442174108
 20
15332.1454845343
 30
0.0
 11
15442.5254950794
 21
15332.1454845343
 31
0.0
  0
MTEXT
  5
38D
330
385
100
AcDbEntity
  8
0
  6
Continuous
 62
     7
 48
50.0
370
    18
100
AcDbMText
 10
13725.8237368928
 20
15557.7323302632
 30
0.0
 40
175.0
 41
0.0
 71
     1
 72
     1
  1
2916
  7
SLDTEXTSTYLE0
 73
     1
 44
1.0
  0
ENDBLK
  5
387
330
385
100
AcDbEntity
  8
0
100
AcDbBlockEnd
  0
BLOCK
  5
390
330
38F
100
AcDbEntity
  8
0
100
AcDbBlockBegin
  2
_D_8
 70
     0
 10
0.0
 20
0.0
 30
0.0
  3
_D_8
  1

  0
SOLID
  5
392
330
38F
100
AcDbEntity
  8
0
  6
Continuous
 62
     7
 48
50.0
370
    18
100
AcDbTrace
 10
12152.0155339195
 20
15932.1454845343
 30
0.0
 11
12317.1155339195
 21
15906.7454845343
 31
0.0
 12
12317.1155339195
 22
15957.5454845343
 32
0.0
 13
12317.1155339195
 23
15957.5454845343
 33
0.0
  0
SOLID
  5
393
330
38F
100
AcDbEntity
  8
0
  6
Continuous
 62
     7
 48
50.0
370
    18
100
AcDbTrace
 10
15902.9127447188
 20
15932.1454845343
 30
0.0
 11
15737.8127447188
 21
15957.5454845343
 31
0.0
 12
15737.8127447188
 22
15906.7454845343
 32
0.0
 13
15737.8127447188
 23
15906.7454845343
 33
0.0
  0
LINE
  5
394
330
38F
100
AcDbEntity
  8
0
  6
Continuous
 62
     7
 48
50.0
370
     0
100
AcDbLine
 10
12152.0155339195
 20
14879.210008894
 30
0.0
 11
12152.0155339195
 21
15982.1454845343
 31
0.0
  0
LINE
  5
395
330
38F
100
AcDbEntity
  8
0
  6
Continuous
 62
     7
 48
50.0
370
     0
100
AcDbLine
 10
15902.9127447188
 20
12252.8035068425
 30
0.0
 11
15902.9127447188
 21
15982.1454845343
 31
0.0
  0
LINE
  5
396
330
38F
100
AcDbEntity
  8
0
  6
Continuous
 62
     7
 48
50.0
370
     0
100
AcDbLine
 10
12152.0155339195
 20
15932.1454845343
 30
0.0
 11
15902.9127447188
 21
15932.1454845343
 31
0.0
  0
MTEXT
  5
397
330
38F
100
AcDbEntity
  8
0
  6
Continuous
 62
     7
 48
50.0
370
    18
100
AcDbMText
 10
13768.8530199669
 20
16157.7323302632
 30
0.0
 40
175.0
 41
0.0
 71
     1
 72
     1
  1
3751
  7
SLDTEXTSTYLE0
 73
     1
 44
1.0
  0
ENDBLK
  5
391
330
38F
100
AcDbEntity
  8
0
100
AcDbBlockEnd
  0
BLOCK
  5
39A
330
399
100
AcDbEntity
  8
0
100
AcDbBlockBegin
  2
_D_9
 70
     0
 10
0.0
 20
0.0
 30
0.0
  3
_D_9
  1

  0
SOLID
  5
39C
330
399
100
AcDbEntity
  8
0
  6
Continuous
 62
     7
 48
50.0
370
    18
100
AcDbTrace
 10
12863.4264300595
 20
9740.269840915
 30
0.0
 11
13028.5264300595
 21
9714.869840915
 31
0.0
 12
13028.5264300595
 22
9765.669840915
 32
0.0
 13
13028.5264300595
 23
9765.669840915
 33
0.0
  0
SOLID
  5
39D
330
399
100
AcDbEntity
  8
0
  6
Continuous
 62
     7
 48
50.0
370
    18
100
AcDbTrace
 10
15043.4264300591
 20
9740.269840915
 30
0.0
 11
14878.3264300591
 21
9765.669840915
 31
0.0
 12
14878.3264300591
 22
9714.869840915
 32
0.0
 13
14878.3264300591
 23
9714.869840915
 33
0.0
  0
LINE
  5
39E
330
399
100
AcDbEntity
  8
0
  6
Continuous
 62
     7
 48
50.0
370
     0
100
AcDbLine
 10
12863.4264300595
 20
11690.269840915
 30
0.0
 11
12863.4264300595
 21
9690.269840915
 31
0.0
  0
LINE
  5
39F
330
399
100
AcDbEntity
  8
0
  6
Continuous
 62
     7
 48
50.0
370
     0
100
AcDbLine
 10
15043.4264300591
 20
11690.269840915
 30
0.0
 11
15043.4264300591
 21
9690.269840915
 31
0.0
  0
LINE
  5
3A0
330
399
100
AcDbEntity
  8
0
  6
Continuous
 62
     7
 48
50.0
370
     0
100
AcDbLine
 10
12863.4264300595
 20
9740.269840915
 30
0.0
 11
15043.4264300591
 21
9740.269840915
 31
0.0
  0
MTEXT
  5
3A1
330
399
100
AcDbEntity
  8
0
  6
Continuous
 62
     7
 48
50.0
370
    18
100
AcDbMText
 10
13694.815310707
 20
9965.856686644
 30
0.0
 40
175.0
 41
0.0
 71
     1
 72
     1
  1
2180
  7
SLDTEXTSTYLE0
 73
     1
 44
1.0
  0
ENDBLK
  5
39B
330
399
100
AcDbEntity
  8
0
100
AcDbBlockEnd
  0
BLOCK
  5
53E
330
53D
100
AcDbEntity
  8
0
100
AcDbBlockBegin
  2
_D_10
 70
     0
 10
0.0
 20
0.0
 30
0.0
  3
_D_10
  1

  0
SOLID
  5
540
330
53D
100
AcDbEntity
  8
0
  6
Continuous
 62
     7
 48
50.0
370
    18
100
AcDbTrace
 10
8332.0172793984
 20
8670.8207384721
 30
0.0
 11
8497.1172793984
 21
8645.420738472
 31
0.0
 12
8497.1172793984
 22
8696.220738472
 32
0.0
 13
8497.1172793984
 23
8696.220738472
 33
0.0
  0
SOLID
  5
541
330
53D
100
AcDbEntity
  8
0
  6
Continuous
 62
     7
 48
50.0
370
    18
100
AcDbTrace
 10
10702.0172793984
 20
8670.8207384715
 30
0.0
 11
10536.9172793984
 21
8696.2207384715
 31
0.0
 12
10536.9172793984
 22
8645.4207384715
 32
0.0
 13
10536.9172793984
 23
8645.4207384715
 33
0.0
  0
LINE
  5
542
330
53D
100
AcDbEntity
  8
0
  6
Continuous
 62
     7
 48
50.0
370
     0
100
AcDbLine
 10
8332.0172793981
 20
7714.3156679671
 30
0.0
 11
8332.0172793984
 21
8720.8207384721
 31
0.0
  0
LINE
  5
543
330
53D
100
AcDbEntity
  8
0
  6
Continuous
 62
     7
 48
50.0
370
     0
100
AcDbLine
 10
10702.0172793981
 20
7657.8183889865
 30
0.0
 11
10702.0172793984
 21
8720.8207384715
 31
0.0
  0
LINE
  5
544
330
53D
100
AcDbEntity
  8
0
  6
Continuous
 62
     7
 48
50.0
370
     0
100
AcDbLine
 10
8332.0172793984
 20
8670.8207384721
 30
0.0
 11
10702.0172793984
 21
8670.8207384715
 31
0.0
  0
MTEXT
  5
545
330
53D
100
AcDbEntity
  8
0
  6
Continuous
 62
     7
 48
50.0
370
    18
100
AcDbMText
 10
9214.2012443413
 20
8896.4075842007
 30
0.0
 40
175.0
 41
0.0
 71
     1
 72
     1
  1
2370
  7
SLDTEXTSTYLE0
 73
     1
 44
1.0
  0
ENDBLK
  5
53F
330
53D
100
AcDbEntity
  8
0
100
AcDbBlockEnd
  0
ENDSEC
  0
SECTION
  2
ENTITIES
  0
LINE
  5
74
330
1F
100
AcDbEntity
  8
0
  6
Continuous
 62
     7
 48
50.0
370
    25
100
AcDbLine
 10
10702.0172794098
 20
13252.7223479341
 30
0.0
 11
10666.4172728295
 21
13252.7223479341
 31
0.0
  0
LINE
  5
75
330
1F
100
AcDbEntity
  8
0
  6
Continuous
 62
     7
 48
50.0
370
    25
100
AcDbLine
 10
9526.6172905201
 20
13252.7223479341
 30
0.0
 11
9507.4172933335
 21
13252.7223479341
 31
0.0
  0
LINE
  5
76
330
1F
100
AcDbEntity
  8
0
  6
Continuous
 62
     7
 48
50.0
370
    25
100
AcDbLine
 10
8367.6172216172
 20
13252.7223479341
 30
0.0
 11
8332.0172746415
 21
13252.7223479341
 31
0.0
  0
LINE
  5
77
330
1F
100
AcDbEntity
  8
0
  6
Continuous
 62
     7
 48
50.0
370
    25
100
AcDbLine
 10
9507.5172801251
 20
13144.8773991655
 30
0.0
 11
9526.5172739262
 21
13144.8773991655
 31
0.0
  0
LINE
  5
78
330
1F
100
AcDbEntity
  8
0
  6
Continuous
 62
     7
 48
50.0
370
    25
100
AcDbLine
 10
10666.5172894234
 20
13144.8773991655
 30
0.0
 11
10702.0172794098
 21
13144.8773991655
 31
0.0
  0
LINE
  5
79
330
1F
100
AcDbEntity
  8
0
  6
Continuous
 62
     7
 48
50.0
370
    25
100
AcDbLine
 10
8332.0172746415
 20
13144.8773991655
 30
0.0
 11
8367.5173242325
 21
13144.8773991655
 31
0.0
  0
LINE
  5
7A
330
1F
100
AcDbEntity
  8
0
  6
Continuous
 62
     7
 48
50.0
370
    25
100
AcDbLine
 10
10702.0172794098
 20
13687.4931704591
 30
0.0
 11
10666.4172728295
 21
13687.4931704591
 31
0.0
  0
LINE
  5
7B
330
1F
100
AcDbEntity
  8
0
  6
Continuous
 62
     7
 48
50.0
370
    25
100
AcDbLine
 10
9526.6172905201
 20
13687.4931704591
 30
0.0
 11
9507.4172933335
 21
13687.4931704591
 31
0.0
  0
LINE
  5
7C
330
1F
100
AcDbEntity
  8
0
  6
Continuous
 62
     7
 48
50.0
370
    25
100
AcDbLine
 10
8367.6172216172
 20
13687.4931704591
 30
0.0
 11
8332.0172746415
 21
13687.4931704591
 31
0.0
  0
LINE
  5
7D
330
1F
100
AcDbEntity
  8
0
  6
Continuous
 62
     7
 48
50.0
370
    25
100
AcDbLine
 10
9507.5172801251
 20
13579.6483408998
 30
0.0
 11
9526.5172739262
 21
13579.6483408998
 31
0.0
  0
LINE
  5
7E
330
1F
100
AcDbEntity
  8
0
  6
Continuous
 62
     7
 48
50.0
370
    25
100
AcDbLine
 10
10666.5172894234
 20
13579.6483408998
 30
0.0
 11
10702.0172794098
 21
13579.6483408998
 31
0.0
  0
LINE
  5
7F
330
1F
100
AcDbEntity
  8
0
  6
Continuous
 62
     7
 48
50.0
370
    25
100
AcDbLine
 10
8332.0172746415
 20
13579.6483408998
 30
0.0
 11
8367.5173242325
 21
13579.6483408998
 31
0.0
  0
LINE
  5
80
330
1F
100
AcDbEntity
  8
0
  6
Continuous
 62
     7
 48
50.0
370
    25
100
AcDbLine
 10
10702.0172794098
 20
12472.0847856592
 30
0.0
 11
10666.4172728295
 21
12472.0847856592
 31
0.0
  0
LINE
  5
81
330
1F
100
AcDbEntity
  8
0
  6
Continuous
 62
     7
 48
50.0
370
    25
100
AcDbLine
 10
9526.6172905201
 20
12472.0847856592
 30
0.0
 11
9507.4172933335
 21
12472.0847856592
 31
0.0
  0
LINE
  5
82
330
1F
100
AcDbEntity
  8
0
  6
Continuous
 62
     7
 48
50.0
370
    25
100
AcDbLine
 10
8367.6172216172
 20
12472.0847856592
 30
0.0
 11
8332.0172746415
 21
12472.0847856592
 31
0.0
  0
LINE
  5
83
330
1F
100
AcDbEntity
  8
0
  6
Continuous
 62
     7
 48
50.0
370
    25
100
AcDbLine
 10
9507.5172801251
 20
12364.2398964952
 30
0.0
 11
9526.5172739262
 21
12364.2398964952
 31
0.0
  0
LINE
  5
84
330
1F
100
AcDbEntity
  8
0
  6
Continuous
 62
     7
 48
50.0
370
    25
100
AcDbLine
 10
10666.5172894234
 20
12364.2398964952
 30
0.0
 11
10702.0172794098
 21
12364.2398964952
 31
0.0
  0
LINE
  5
85
330
1F
100
AcDbEntity
  8
0
  6
Continuous
 62
     7
 48
50.0
370
    25
100
AcDbLine
 10
8332.0172746415
 20
12364.2398964952
 30
0.0
 11
8367.5173242325
 21
12364.2398964952
 31
0.0
  0
LINE
  5
86
330
1F
100
AcDbEntity
  8
0
  6
Continuous
 62
     7
 48
50.0
370
    25
100
AcDbLine
 10
10702.0172794098
 20
14468.130911548
 30
0.0
 11
10666.5172894234
 21
14468.130911548
 31
0.0
  0
LINE
  5
87
330
1F
100
AcDbEntity
  8
0
  6
Continuous
 62
     7
 48
50.0
370
    25
100
AcDbLine
 10
9526.5172739262
 20
14468.130911548
 30
0.0
 11
9507.5172801251
 21
14468.130911548
 31
0.0
  0
LINE
  5
88
330
1F
100
AcDbEntity
  8
0
  6
Continuous
 62
     7
 48
50.0
370
    25
100
AcDbLine
 10
8367.5173242325
 20
14468.130911548
 30
0.0
 11
8332.0172746415
 21
14468.130911548
 31
0.0
  0
LINE
  5
89
330
1F
100
AcDbEntity
  8
0
  6
Continuous
 62
     7
 48
50.0
370
    25
100
AcDbLine
 10
9507.5172801251
 20
14360.2858435701
 30
0.0
 11
9526.5172739262
 21
14360.2858435701
 31
0.0
  0
LINE
  5
8A
330
1F
100
AcDbEntity
  8
0
  6
Continuous
 62
     7
 48
50.0
370
    25
100
AcDbLine
 10
10666.5172894234
 20
14360.2858435701
 30
0.0
 11
10702.0172794098
 21
14360.2858435701
 31
0.0
  0
LINE
  5
8B
330
1F
100
AcDbEntity
  8
0
  6
Continuous
 62
     7
 48
50.0
370
    25
100
AcDbLine
 10
8332.0172746415
 20
14360.2858435701
 30
0.0
 11
8367.5173242325
 21
14360.2858435701
 31
0.0
  0
LINE
  5
8C
330
1F
100
AcDbEntity
  8
0
  6
Continuous
 62
     7
 48
50.0
370
    25
100
AcDbLine
 10
8367.5173242325
 20
12202.8035175393
 30
0.0
 11
9507.5172801251
 21
12202.8035175393
 31
0.0
  0
LINE
  5
8D
330
1F
100
AcDbEntity
  8
0
  6
Continuous
 62
     7
 48
50.0
370
    25
100
AcDbLine
 10
8367.5173242325
 20
12366.2727725099
 30
0.0
 11
8367.5173242325
 21
12202.8035175393
 31
0.0
  0
LINE
  5
8E
330
1F
100
AcDbEntity
  8
0
  6
Continuous
 62
     7
 48
50.0
370
    25
100
AcDbLine
 10
8367.6172216172
 20
12366.2727725099
 30
0.0
 11
8367.5173242325
 21
12366.2727725099
 31
0.0
  0
LINE
  5
8F
330
1F
100
AcDbEntity
  8
0
  6
Continuous
 62
     7
 48
50.0
370
    25
100
AcDbLine
 10
8367.6172216172
 20
12366.2727725099
 30
0.0
 11
8367.6172216172
 21
12529.7420870851
 31
0.0
  0
LINE
  5
90
330
1F
100
AcDbEntity
  8
0
  6
Continuous
 62
     7
 48
50.0
370
    25
100
AcDbLine
 10
8367.6172216172
 20
12529.7420870851
 30
0.0
 11
8367.5173242325
 21
12529.7420870851
 31
0.0
  0
LINE
  5
91
330
1F
100
AcDbEntity
  8
0
  6
Continuous
 62
     7
 48
50.0
370
    25
100
AcDbLine
 10
8367.5173242325
 20
13183.6192261766
 30
0.0
 11
8367.5173242325
 21
12529.7420870851
 31
0.0
  0
LINE
  5
92
330
1F
100
AcDbEntity
  8
0
  6
Continuous
 62
     7
 48
50.0
370
    25
100
AcDbLine
 10
8367.6172216172
 20
13183.6192261766
 30
0.0
 11
8367.5173242325
 21
13183.6192261766
 31
0.0
  0
LINE
  5
93
330
1F
100
AcDbEntity
  8
0
  6
Continuous
 62
     7
 48
50.0
370
    25
100
AcDbLine
 10
8367.6172216172
 20
13183.6192261766
 30
0.0
 11
8367.6172216172
 21
13347.0885407518
 31
0.0
  0
LINE
  5
94
330
1F
100
AcDbEntity
  8
0
  6
Continuous
 62
     7
 48
50.0
370
    25
100
AcDbLine
 10
8367.6172216172
 20
13347.0885407518
 30
0.0
 11
8367.5173242325
 21
13347.0885407518
 31
0.0
  0
LINE
  5
95
330
1F
100
AcDbEntity
  8
0
  6
Continuous
 62
     7
 48
50.0
370
    25
100
AcDbLine
 10
8367.5173242325
 20
13510.5577361177
 30
0.0
 11
8367.5173242325
 21
13347.0885407518
 31
0.0
  0
LINE
  5
96
330
1F
100
AcDbEntity
  8
0
  6
Continuous
 62
     7
 48
50.0
370
    25
100
AcDbLine
 10
9507.5172801251
 20
13510.5577361177
 30
0.0
 11
8367.5173242325
 21
13510.5577361177
 31
0.0
  0
LINE
  5
97
330
1F
100
AcDbEntity
  8
0
  6
Continuous
 62
     7
 48
50.0
370
    25
100
AcDbLine
 10
9507.5172801251
 20
13347.0885407518
 30
0.0
 11
9507.5172801251
 21
13510.5577361177
 31
0.0
  0
LINE
  5
98
330
1F
100
AcDbEntity
  8
0
  6
Continuous
 62
     7
 48
50.0
370
    25
100
AcDbLine
 10
9507.4172933335
 20
13347.0885407518
 30
0.0
 11
9507.5172801251
 21
13347.0885407518
 31
0.0
  0
LINE
  5
99
330
1F
100
AcDbEntity
  8
0
  6
Continuous
 62
     7
 48
50.0
370
    25
100
AcDbLine
 10
9507.4172933335
 20
13183.6192261766
 30
0.0
 11
9507.4172933335
 21
13347.0885407518
 31
0.0
  0
LINE
  5
9A
330
1F
100
AcDbEntity
  8
0
  6
Continuous
 62
     7
 48
50.0
370
    25
100
AcDbLine
 10
9507.4172933335
 20
13183.6192261766
 30
0.0
 11
9507.5172801251
 21
13183.6192261766
 31
0.0
  0
LINE
  5
9B
330
1F
100
AcDbEntity
  8
0
  6
Continuous
 62
     7
 48
50.0
370
    25
100
AcDbLine
 10
9507.5172801251
 20
12529.7420870851
 30
0.0
 11
9507.5172801251
 21
13183.6192261766
 31
0.0
  0
LINE
  5
9C
330
1F
100
AcDbEntity
  8
0
  6
Continuous
 62
     7
 48
50.0
370
    25
100
AcDbLine
 10
9507.4172933335
 20
12529.7420870851
 30
0.0
 11
9507.5172801251
 21
12529.7420870851
 31
0.0
  0
LINE
  5
9D
330
1F
100
AcDbEntity
  8
0
  6
Continuous
 62
     7
 48
50.0
370
    25
100
AcDbLine
 10
9507.4172933335
 20
12366.2727725099
 30
0.0
 11
9507.4172933335
 21
12529.7420870851
 31
0.0
  0
LINE
  5
9E
330
1F
100
AcDbEntity
  8
0
  6
Continuous
 62
     7
 48
50.0
370
    25
100
AcDbLine
 10
9507.4172933335
 20
12366.2727725099
 30
0.0
 11
9507.5172801251
 21
12366.2727725099
 31
0.0
  0
LINE
  5
9F
330
1F
100
AcDbEntity
  8
0
  6
Continuous
 62
     7
 48
50.0
370
    25
100
AcDbLine
 10
9507.5172801251
 20
12202.8035175393
 30
0.0
 11
9507.5172801251
 21
12366.2727725099
 31
0.0
  0
LINE
  5
A0
330
1F
100
AcDbEntity
  8
0
  6
Continuous
 62
     7
 48
50.0
370
    25
100
AcDbLine
 10
8376.5172679657
 20
13505.3956162523
 30
0.0
 11
9498.5172767872
 21
13505.3956162523
 31
0.0
  0
LINE
  5
A1
330
1F
100
AcDbEntity
  8
0
  6
Continuous
 62
     7
 48
50.0
370
    25
100
AcDbLine
 10
8376.5172679657
 20
12207.9656970094
 30
0.0
 11
8376.5172679657
 21
13505.3956162523
 31
0.0
  0
LINE
  5
A2
330
1F
100
AcDbEntity
  8
0
  6
Continuous
 62
     7
 48
50.0
370
    25
100
AcDbLine
 10
9498.5172767872
 20
12207.9656970094
 30
0.0
 11
8376.5172679657
 21
12207.9656970094
 31
0.0
  0
LINE
  5
A3
330
1F
100
AcDbEntity
  8
0
  6
Continuous
 62
     7
 48
50.0
370
    25
100
AcDbLine
 10
9498.5172767872
 20
13505.3956162523
 30
0.0
 11
9498.5172767872
 21
12207.9656970094
 31
0.0
  0
LINE
  5
A4
330
1F
100
AcDbEntity
  8
0
  6
Continuous
 62
     7
 48
50.0
370
    25
100
AcDbLine
 10
8367.5173242325
 20
12170.0374137948
 30
0.0
 11
9507.5172801251
 21
12170.0374137948
 31
0.0
  0
LINE
  5
A5
330
1F
100
AcDbEntity
  8
0
  6
Continuous
 62
     7
 48
50.0
370
    25
100
AcDbLine
 10
8367.5173242325
 20
12170.0374137948
 30
0.0
 11
8367.5173242325
 21
12202.8035175393
 31
0.0
  0
LINE
  5
A6
330
1F
100
AcDbEntity
  8
0
  6
Continuous
 62
     7
 48
50.0
370
    25
100
AcDbLine
 10
9507.5172801251
 20
12170.0374137948
 30
0.0
 11
9507.5172801251
 21
12202.8035175393
 31
0.0
  0
LINE
  5
A7
330
1F
100
AcDbEntity
  8
0
  6
Continuous
 62
     7
 48
50.0
370
    25
100
AcDbLine
 10
9498.5172767872
 20
12207.9656970094
 30
0.0
 11
9497.5172896618
 21
12208.0663096498
 31
0.0
  0
LINE
  5
A8
330
1F
100
AcDbEntity
  8
0
  6
Continuous
 62
     7
 48
50.0
370
    25
100
AcDbLine
 10
9497.5172896618
 20
12208.0663096498
 30
0.0
 11
9497.5172896618
 21
13504.3490778993
 31
0.0
  0
LINE
  5
A9
330
1F
100
AcDbEntity
  8
0
  6
Continuous
 62
     7
 48
50.0
370
    25
100
AcDbLine
 10
9498.5172767872
 20
13505.3956162523
 30
0.0
 11
9497.5172896618
 21
13504.3490778993
 31
0.0
  0
LINE
  5
AA
330
1F
100
AcDbEntity
  8
0
  6
Continuous
 62
     7
 48
50.0
370
    25
100
AcDbLine
 10
8377.5173146958
 20
12208.0663096498
 30
0.0
 11
9497.5172896618
 21
12208.0663096498
 31
0.0
  0
LINE
  5
AB
330
1F
100
AcDbEntity
  8
0
  6
Continuous
 62
     7
 48
50.0
370
    25
100
AcDbLine
 10
8377.5173146958
 20
12208.0663096498
 30
0.0
 11
8376.5172679657
 21
12207.9656970094
 31
0.0
  0
LINE
  5
AC
330
1F
100
AcDbEntity
  8
0
  6
Continuous
 62
     7
 48
50.0
370
    25
100
AcDbLine
 10
8377.5173146958
 20
13504.3490778993
 30
0.0
 11
8377.5173146958
 21
12208.0663096498
 31
0.0
  0
LINE
  5
AD
330
1F
100
AcDbEntity
  8
0
  6
Continuous
 62
     7
 48
50.0
370
    25
100
AcDbLine
 10
8377.5173146958
 20
13504.3490778993
 30
0.0
 11
8376.5172679657
 21
13505.3956162523
 31
0.0
  0
LINE
  5
AE
330
1F
100
AcDbEntity
  8
0
  6
Continuous
 62
     7
 48
50.0
370
    25
100
AcDbLine
 10
9497.5172896618
 20
13503.5932910035
 30
0.0
 11
8377.5173146958
 21
13503.5932910035
 31
0.0
  0
LINE
  5
AF
330
1F
100
AcDbEntity
  8
0
  6
Continuous
 62
     7
 48
50.0
370
    25
100
AcDbLine
 10
9507.5172801251
 20
12529.7420870851
 30
0.0
 11
9507.5172801251
 21
12496.9759833406
 31
0.0
  0
LINE
  5
B0
330
1F
100
AcDbEntity
  8
0
  6
Continuous
 62
     7
 48
50.0
370
    25
100
AcDbLine
 10
9507.4172933335
 20
12496.9759833406
 30
0.0
 11
9507.5172801251
 21
12496.9759833406
 31
0.0
  0
LINE
  5
B1
330
1F
100
AcDbEntity
  8
0
  6
Continuous
 62
     7
 48
50.0
370
    25
100
AcDbLine
 10
8367.5173242325
 20
12529.7420870851
 30
0.0
 11
8367.5173242325
 21
12496.9759833406
 31
0.0
  0
LINE
  5
B2
330
1F
100
AcDbEntity
  8
0
  6
Continuous
 62
     7
 48
50.0
370
    25
100
AcDbLine
 10
8367.6172216172
 20
12496.9759833406
 30
0.0
 11
8367.5173242325
 21
12496.9759833406
 31
0.0
  0
LINE
  5
B3
330
1F
100
AcDbEntity
  8
0
  6
Continuous
 62
     7
 48
50.0
370
    25
100
AcDbLine
 10
9507.5172801251
 20
13347.0885407518
 30
0.0
 11
9507.5172801251
 21
13314.3224370073
 31
0.0
  0
LINE
  5
B4
330
1F
100
AcDbEntity
  8
0
  6
Continuous
 62
     7
 48
50.0
370
    25
100
AcDbLine
 10
9507.4172933335
 20
13314.3224370073
 30
0.0
 11
9507.5172801251
 21
13314.3224370073
 31
0.0
  0
LINE
  5
B5
330
1F
100
AcDbEntity
  8
0
  6
Continuous
 62
     7
 48
50.0
370
    25
100
AcDbLine
 10
8367.5173242325
 20
13347.0885407518
 30
0.0
 11
8367.5173242325
 21
13314.3224370073
 31
0.0
  0
LINE
  5
B6
330
1F
100
AcDbEntity
  8
0
  6
Continuous
 62
     7
 48
50.0
370
    25
100
AcDbLine
 10
8367.6172216172
 20
13314.3224370073
 30
0.0
 11
8367.5173242325
 21
13314.3224370073
 31
0.0
  0
LINE
  5
B7
330
1F
100
AcDbEntity
  8
0
  6
Continuous
 62
     7
 48
50.0
370
    25
100
AcDbLine
 10
9497.5172896618
 20
13504.3490778993
 30
0.0
 11
8377.5173146958
 21
13504.3490778993
 31
0.0
  0
LINE
  5
B8
330
1F
100
AcDbEntity
  8
0
  6
Continuous
 62
     7
 48
50.0
370
    25
100
AcDbLine
 10
9526.5172739262
 20
12202.8035175393
 30
0.0
 11
10666.5172894234
 21
12202.8035175393
 31
0.0
  0
LINE
  5
B9
330
1F
100
AcDbEntity
  8
0
  6
Continuous
 62
     7
 48
50.0
370
    25
100
AcDbLine
 10
9526.5172739262
 20
12366.2727725099
 30
0.0
 11
9526.5172739262
 21
12202.8035175393
 31
0.0
  0
LINE
  5
BA
330
1F
100
AcDbEntity
  8
0
  6
Continuous
 62
     7
 48
50.0
370
    25
100
AcDbLine
 10
9526.6172905201
 20
12366.2727725099
 30
0.0
 11
9526.5172739262
 21
12366.2727725099
 31
0.0
  0
LINE
  5
BB
330
1F
100
AcDbEntity
  8
0
  6
Continuous
 62
     7
 48
50.0
370
    25
100
AcDbLine
 10
9526.6172905201
 20
12366.2727725099
 30
0.0
 11
9526.6172905201
 21
12529.7420870851
 31
0.0
  0
LINE
  5
BC
330
1F
100
AcDbEntity
  8
0
  6
Continuous
 62
     7
 48
50.0
370
    25
100
AcDbLine
 10
9526.6172905201
 20
12529.7420870851
 30
0.0
 11
9526.5172739262
 21
12529.7420870851
 31
0.0
  0
LINE
  5
BD
330
1F
100
AcDbEntity
  8
0
  6
Continuous
 62
     7
 48
50.0
370
    25
100
AcDbLine
 10
9526.5172739262
 20
13183.6192261766
 30
0.0
 11
9526.5172739262
 21
12529.7420870851
 31
0.0
  0
LINE
  5
BE
330
1F
100
AcDbEntity
  8
0
  6
Continuous
 62
     7
 48
50.0
370
    25
100
AcDbLine
 10
9526.6172905201
 20
13183.6192261766
 30
0.0
 11
9526.5172739262
 21
13183.6192261766
 31
0.0
  0
LINE
  5
BF
330
1F
100
AcDbEntity
  8
0
  6
Continuous
 62
     7
 48
50.0
370
    25
100
AcDbLine
 10
9526.6172905201
 20
13183.6192261766
 30
0.0
 11
9526.6172905201
 21
13347.0885407518
 31
0.0
  0
LINE
  5
C0
330
1F
100
AcDbEntity
  8
0
  6
Continuous
 62
     7
 48
50.0
370
    25
100
AcDbLine
 10
9526.6172905201
 20
13347.0885407518
 30
0.0
 11
9526.5172739262
 21
13347.0885407518
 31
0.0
  0
LINE
  5
C1
330
1F
100
AcDbEntity
  8
0
  6
Continuous
 62
     7
 48
50.0
370
    25
100
AcDbLine
 10
9526.5172739262
 20
13510.5577361177
 30
0.0
 11
9526.5172739262
 21
13347.0885407518
 31
0.0
  0
LINE
  5
C2
330
1F
100
AcDbEntity
  8
0
  6
Continuous
 62
     7
 48
50.0
370
    25
100
AcDbLine
 10
10666.5172894234
 20
13510.5577361177
 30
0.0
 11
9526.5172739262
 21
13510.5577361177
 31
0.0
  0
LINE
  5
C3
330
1F
100
AcDbEntity
  8
0
  6
Continuous
 62
     7
 48
50.0
370
    25
100
AcDbLine
 10
10666.5172894234
 20
13347.0885407518
 30
0.0
 11
10666.5172894234
 21
13510.5577361177
 31
0.0
  0
LINE
  5
C4
330
1F
100
AcDbEntity
  8
0
  6
Continuous
 62
     7
 48
50.0
370
    25
100
AcDbLine
 10
10666.4172728295
 20
13347.0885407518
 30
0.0
 11
10666.5172894234
 21
13347.0885407518
 31
0.0
  0
LINE
  5
C5
330
1F
100
AcDbEntity
  8
0
  6
Continuous
 62
     7
 48
50.0
370
    25
100
AcDbLine
 10
10666.4172728295
 20
13183.6192261766
 30
0.0
 11
10666.4172728295
 21
13347.0885407518
 31
0.0
  0
LINE
  5
C6
330
1F
100
AcDbEntity
  8
0
  6
Continuous
 62
     7
 48
50.0
370
    25
100
AcDbLine
 10
10666.4172728295
 20
13183.6192261766
 30
0.0
 11
10666.5172894234
 21
13183.6192261766
 31
0.0
  0
LINE
  5
C7
330
1F
100
AcDbEntity
  8
0
  6
Continuous
 62
     7
 48
50.0
370
    25
100
AcDbLine
 10
10666.5172894234
 20
12529.7420870851
 30
0.0
 11
10666.5172894234
 21
13183.6192261766
 31
0.0
  0
LINE
  5
C8
330
1F
100
AcDbEntity
  8
0
  6
Continuous
 62
     7
 48
50.0
370
    25
100
AcDbLine
 10
10666.4172728295
 20
12529.7420870851
 30
0.0
 11
10666.5172894234
 21
12529.7420870851
 31
0.0
  0
LINE
  5
C9
330
1F
100
AcDbEntity
  8
0
  6
Continuous
 62
     7
 48
50.0
370
    25
100
AcDbLine
 10
10666.4172728295
 20
12366.2727725099
 30
0.0
 11
10666.4172728295
 21
12529.7420870851
 31
0.0
  0
LINE
  5
CA
330
1F
100
AcDbEntity
  8
0
  6
Continuous
 62
     7
 48
50.0
370
    25
100
AcDbLine
 10
10666.4172728295
 20
12366.2727725099
 30
0.0
 11
10666.5172894234
 21
12366.2727725099
 31
0.0
  0
LINE
  5
CB
330
1F
100
AcDbEntity
  8
0
  6
Continuous
 62
     7
 48
50.0
370
    25
100
AcDbLine
 10
10666.5172894234
 20
12202.8035175393
 30
0.0
 11
10666.5172894234
 21
12366.2727725099
 31
0.0
  0
LINE
  5
CC
330
1F
100
AcDbEntity
  8
0
  6
Continuous
 62
     7
 48
50.0
370
    25
100
AcDbLine
 10
9535.5172772641
 20
13505.3956162523
 30
0.0
 11
10657.5172860855
 21
13505.3956162523
 31
0.0
  0
LINE
  5
CD
330
1F
100
AcDbEntity
  8
0
  6
Continuous
 62
     7
 48
50.0
370
    25
100
AcDbLine
 10
9535.5172772641
 20
12207.9656970094
 30
0.0
 11
9535.5172772641
 21
13505.3956162523
 31
0.0
  0
LINE
  5
CE
330
1F
100
AcDbEntity
  8
0
  6
Continuous
 62
     7
 48
50.0
370
    25
100
AcDbLine
 10
10657.5172860855
 20
12207.9656970094
 30
0.0
 11
9535.5172772641
 21
12207.9656970094
 31
0.0
  0
LINE
  5
CF
330
1F
100
AcDbEntity
  8
0
  6
Continuous
 62
     7
 48
50.0
370
    25
100
AcDbLine
 10
10657.5172860855
 20
13505.3956162523
 30
0.0
 11
10657.5172860855
 21
12207.9656970094
 31
0.0
  0
LINE
  5
D0
330
1F
100
AcDbEntity
  8
0
  6
Continuous
 62
     7
 48
50.0
370
    25
100
AcDbLine
 10
9526.5172739262
 20
12170.0374137948
 30
0.0
 11
10666.5172894234
 21
12170.0374137948
 31
0.0
  0
LINE
  5
D1
330
1F
100
AcDbEntity
  8
0
  6
Continuous
 62
     7
 48
50.0
370
    25
100
AcDbLine
 10
9526.5172739262
 20
12170.0374137948
 30
0.0
 11
9526.5172739262
 21
12202.8035175393
 31
0.0
  0
LINE
  5
D2
330
1F
100
AcDbEntity
  8
0
  6
Continuous
 62
     7
 48
50.0
370
    25
100
AcDbLine
 10
10666.5172894234
 20
12170.0374137948
 30
0.0
 11
10666.5172894234
 21
12202.8035175393
 31
0.0
  0
LINE
  5
D3
330
1F
100
AcDbEntity
  8
0
  6
Continuous
 62
     7
 48
50.0
370
    25
100
AcDbLine
 10
10657.5172860855
 20
12207.9656970094
 30
0.0
 11
10656.5172989601
 21
12208.0663096498
 31
0.0
  0
LINE
  5
D4
330
1F
100
AcDbEntity
  8
0
  6
Continuous
 62
     7
 48
50.0
370
    25
100
AcDbLine
 10
10656.5172989601
 20
12208.0663096498
 30
0.0
 11
10656.5172989601
 21
13504.3490778993
 31
0.0
  0
LINE
  5
D5
330
1F
100
AcDbEntity
  8
0
  6
Continuous
 62
     7
 48
50.0
370
    25
100
AcDbLine
 10
10657.5172860855
 20
13505.3956162523
 30
0.0
 11
10656.5172989601
 21
13504.3490778993
 31
0.0
  0
LINE
  5
D6
330
1F
100
AcDbEntity
  8
0
  6
Continuous
 62
     7
 48
50.0
370
    25
100
AcDbLine
 10
9536.5172941918
 20
12208.0663096498
 30
0.0
 11
10656.5172989601
 21
12208.0663096498
 31
0.0
  0
LINE
  5
D7
330
1F
100
AcDbEntity
  8
0
  6
Continuous
 62
     7
 48
50.0
370
    25
100
AcDbLine
 10
9536.5172941918
 20
12208.0663096498
 30
0.0
 11
9535.5172772641
 21
12207.9656970094
 31
0.0
  0
LINE
  5
D8
330
1F
100
AcDbEntity
  8
0
  6
Continuous
 62
     7
 48
50.0
370
    25
100
AcDbLine
 10
9536.5172941918
 20
13504.3490778993
 30
0.0
 11
9536.5172941918
 21
12208.0663096498
 31
0.0
  0
LINE
  5
D9
330
1F
100
AcDbEntity
  8
0
  6
Continuous
 62
     7
 48
50.0
370
    25
100
AcDbLine
 10
9536.5172941918
 20
13504.3490778993
 30
0.0
 11
9535.5172772641
 21
13505.3956162523
 31
0.0
  0
LINE
  5
DA
330
1F
100
AcDbEntity
  8
0
  6
Continuous
 62
     7
 48
50.0
370
    25
100
AcDbLine
 10
10656.5172989601
 20
13503.5932910035
 30
0.0
 11
9536.5172941918
 21
13503.5932910035
 31
0.0
  0
LINE
  5
DB
330
1F
100
AcDbEntity
  8
0
  6
Continuous
 62
     7
 48
50.0
370
    25
100
AcDbLine
 10
10666.5172894234
 20
12529.7420870851
 30
0.0
 11
10666.5172894234
 21
12496.9759833406
 31
0.0
  0
LINE
  5
DC
330
1F
100
AcDbEntity
  8
0
  6
Continuous
 62
     7
 48
50.0
370
    25
100
AcDbLine
 10
10666.4172728295
 20
12496.9759833406
 30
0.0
 11
10666.5172894234
 21
12496.9759833406
 31
0.0
  0
LINE
  5
DD
330
1F
100
AcDbEntity
  8
0
  6
Continuous
 62
     7
 48
50.0
370
    25
100
AcDbLine
 10
9526.5172739262
 20
12529.7420870851
 30
0.0
 11
9526.5172739262
 21
12496.9759833406
 31
0.0
  0
LINE
  5
DE
330
1F
100
AcDbEntity
  8
0
  6
Continuous
 62
     7
 48
50.0
370
    25
100
AcDbLine
 10
9526.6172905201
 20
12496.9759833406
 30
0.0
 11
9526.5172739262
 21
12496.9759833406
 31
0.0
  0
LINE
  5
DF
330
1F
100
AcDbEntity
  8
0
  6
Continuous
 62
     7
 48
50.0
370
    25
100
AcDbLine
 10
10666.5172894234
 20
13347.0885407518
 30
0.0
 11
10666.5172894234
 21
13314.3224370073
 31
0.0
  0
LINE
  5
E0
330
1F
100
AcDbEntity
  8
0
  6
Continuous
 62
     7
 48
50.0
370
    25
100
AcDbLine
 10
10666.4172728295
 20
13314.3224370073
 30
0.0
 11
10666.5172894234
 21
13314.3224370073
 31
0.0
  0
LINE
  5
E1
330
1F
100
AcDbEntity
  8
0
  6
Continuous
 62
     7
 48
50.0
370
    25
100
AcDbLine
 10
9526.5172739262
 20
13347.0885407518
 30
0.0
 11
9526.5172739262
 21
13314.3224370073
 31
0.0
  0
LINE
  5
E2
330
1F
100
AcDbEntity
  8
0
  6
Continuous
 62
     7
 48
50.0
370
    25
100
AcDbLine
 10
9526.6172905201
 20
13314.3224370073
 30
0.0
 11
9526.5172739262
 21
13314.3224370073
 31
0.0
  0
LINE
  5
E3
330
1F
100
AcDbEntity
  8
0
  6
Continuous
 62
     7
 48
50.0
370
    25
100
AcDbLine
 10
10656.5172989601
 20
13504.3490778993
 30
0.0
 11
9536.5172941918
 21
13504.3490778993
 31
0.0
  0
LINE
  5
E4
330
1F
100
AcDbEntity
  8
0
  6
Continuous
 62
     7
 48
50.0
370
    25
100
AcDbLine
 10
8367.5173242325
 20
13521.4557301591
 30
0.0
 11
9507.5172801251
 21
13521.4557301591
 31
0.0
  0
LINE
  5
E5
330
1F
100
AcDbEntity
  8
0
  6
Continuous
 62
     7
 48
50.0
370
    25
100
AcDbLine
 10
8367.5173242325
 20
13684.924925525
 30
0.0
 11
8367.5173242325
 21
13521.4557301591
 31
0.0
  0
LINE
  5
E6
330
1F
100
AcDbEntity
  8
0
  6
Continuous
 62
     7
 48
50.0
370
    25
100
AcDbLine
 10
8367.6172216172
 20
13684.924925525
 30
0.0
 11
8367.5173242325
 21
13684.924925525
 31
0.0
  0
LINE
  5
E7
330
1F
100
AcDbEntity
  8
0
  6
Continuous
 62
     7
 48
50.0
370
    25
100
AcDbLine
 10
8367.6172216172
 20
13684.924925525
 30
0.0
 11
8367.6172216172
 21
13848.3942401002
 31
0.0
  0
LINE
  5
E8
330
1F
100
AcDbEntity
  8
0
  6
Continuous
 62
     7
 48
50.0
370
    25
100
AcDbLine
 10
8367.6172216172
 20
13848.3942401002
 30
0.0
 11
8367.5173242325
 21
13848.3942401002
 31
0.0
  0
LINE
  5
E9
330
1F
100
AcDbEntity
  8
0
  6
Continuous
 62
     7
 48
50.0
370
    25
100
AcDbLine
 10
8367.5173242325
 20
14502.271498401
 30
0.0
 11
8367.5173242325
 21
13848.3942401002
 31
0.0
  0
LINE
  5
EA
330
1F
100
AcDbEntity
  8
0
  6
Continuous
 62
     7
 48
50.0
370
    25
100
AcDbLine
 10
8367.6172216172
 20
14502.271498401
 30
0.0
 11
8367.5173242325
 21
14502.271498401
 31
0.0
  0
LINE
  5
EB
330
1F
100
AcDbEntity
  8
0
  6
Continuous
 62
     7
 48
50.0
370
    25
100
AcDbLine
 10
8367.6172216172
 20
14502.271498401
 30
0.0
 11
8367.6172216172
 21
14665.7408129762
 31
0.0
  0
LINE
  5
EC
330
1F
100
AcDbEntity
  8
0
  6
Continuous
 62
     7
 48
50.0
370
    25
100
AcDbLine
 10
8367.6172216172
 20
14665.7408129762
 30
0.0
 11
8367.5173242325
 21
14665.7408129762
 31
0.0
  0
LINE
  5
ED
330
1F
100
AcDbEntity
  8
0
  6
Continuous
 62
     7
 48
50.0
370
    25
100
AcDbLine
 10
8367.5173242325
 20
14829.2101275514
 30
0.0
 11
8367.5173242325
 21
14665.7408129762
 31
0.0
  0
LINE
  5
EE
330
1F
100
AcDbEntity
  8
0
  6
Continuous
 62
     7
 48
50.0
370
    25
100
AcDbLine
 10
9507.5172801251
 20
14829.2101275514
 30
0.0
 11
8367.5173242325
 21
14829.2101275514
 31
0.0
  0
LINE
  5
EF
330
1F
100
AcDbEntity
  8
0
  6
Continuous
 62
     7
 48
50.0
370
    25
100
AcDbLine
 10
9507.5172801251
 20
14665.7408129762
 30
0.0
 11
9507.5172801251
 21
14829.2101275514
 31
0.0
  0
LINE
  5
F0
330
1F
100
AcDbEntity
  8
0
  6
Continuous
 62
     7
 48
50.0
370
    25
100
AcDbLine
 10
9507.4172933335
 20
14665.7408129762
 30
0.0
 11
9507.5172801251
 21
14665.7408129762
 31
0.0
  0
LINE
  5
F1
330
1F
100
AcDbEntity
  8
0
  6
Continuous
 62
     7
 48
50.0
370
    25
100
AcDbLine
 10
9507.4172933335
 20
14502.271498401
 30
0.0
 11
9507.4172933335
 21
14665.7408129762
 31
0.0
  0
LINE
  5
F2
330
1F
100
AcDbEntity
  8
0
  6
Continuous
 62
     7
 48
50.0
370
    25
100
AcDbLine
 10
9507.4172933335
 20
14502.271498401
 30
0.0
 11
9507.5172801251
 21
14502.271498401
 31
0.0
  0
LINE
  5
F3
330
1F
100
AcDbEntity
  8
0
  6
Continuous
 62
     7
 48
50.0
370
    25
100
AcDbLine
 10
9507.5172801251
 20
13848.3942401002
 30
0.0
 11
9507.5172801251
 21
14502.271498401
 31
0.0
  0
LINE
  5
F4
330
1F
100
AcDbEntity
  8
0
  6
Continuous
 62
     7
 48
50.0
370
    25
100
AcDbLine
 10
9507.4172933335
 20
13848.3942401002
 30
0.0
 11
9507.5172801251
 21
13848.3942401002
 31
0.0
  0
LINE
  5
F5
330
1F
100
AcDbEntity
  8
0
  6
Continuous
 62
     7
 48
50.0
370
    25
100
AcDbLine
 10
9507.4172933335
 20
13684.924925525
 30
0.0
 11
9507.4172933335
 21
13848.3942401002
 31
0.0
  0
LINE
  5
F6
330
1F
100
AcDbEntity
  8
0
  6
Continuous
 62
     7
 48
50.0
370
    25
100
AcDbLine
 10
9507.4172933335
 20
13684.924925525
 30
0.0
 11
9507.5172801251
 21
13684.924925525
 31
0.0
  0
LINE
  5
F7
330
1F
100
AcDbEntity
  8
0
  6
Continuous
 62
     7
 48
50.0
370
    25
100
AcDbLine
 10
9507.5172801251
 20
13521.4557301591
 30
0.0
 11
9507.5172801251
 21
13684.924925525
 31
0.0
  0
LINE
  5
F8
330
1F
100
AcDbEntity
  8
0
  6
Continuous
 62
     7
 48
50.0
370
    25
100
AcDbLine
 10
8376.5172679657
 20
14824.0478884767
 30
0.0
 11
9498.5172767872
 21
14824.0478884767
 31
0.0
  0
LINE
  5
F9
330
1F
100
AcDbEntity
  8
0
  6
Continuous
 62
     7
 48
50.0
370
    25
100
AcDbLine
 10
8376.5172679657
 20
13526.6179692338
 30
0.0
 11
8376.5172679657
 21
14824.0478884767
 31
0.0
  0
LINE
  5
FA
330
1F
100
AcDbEntity
  8
0
  6
Continuous
 62
     7
 48
50.0
370
    25
100
AcDbLine
 10
9498.5172767872
 20
13526.6179692338
 30
0.0
 11
8376.5172679657
 21
13526.6179692338
 31
0.0
  0
LINE
  5
FB
330
1F
100
AcDbEntity
  8
0
  6
Continuous
 62
     7
 48
50.0
370
    25
100
AcDbLine
 10
9498.5172767872
 20
14824.0478884767
 30
0.0
 11
9498.5172767872
 21
13526.6179692338
 31
0.0
  0
LINE
  5
FC
330
1F
100
AcDbEntity
  8
0
  6
Continuous
 62
     7
 48
50.0
370
    25
100
AcDbLine
 10
9507.5172801251
 20
13510.5577361177
 30
0.0
 11
9507.5172801251
 21
13521.4557301591
 31
0.0
  0
LINE
  5
FD
330
1F
100
AcDbEntity
  8
0
  6
Continuous
 62
     7
 48
50.0
370
    25
100
AcDbLine
 10
8367.5173242325
 20
13510.5577361177
 30
0.0
 11
8367.5173242325
 21
13521.4557301591
 31
0.0
  0
LINE
  5
FE
330
1F
100
AcDbEntity
  8
0
  6
Continuous
 62
     7
 48
50.0
370
    25
100
AcDbLine
 10
8377.5173146958
 20
13526.7185818742
 30
0.0
 11
9497.5172896618
 21
13526.7185818742
 31
0.0
  0
LINE
  5
FF
330
1F
100
AcDbEntity
  8
0
  6
Continuous
 62
     7
 48
50.0
370
    25
100
AcDbLine
 10
9498.5172767872
 20
13526.6179692338
 30
0.0
 11
9497.5172896618
 21
13526.7185818742
 31
0.0
  0
LINE
  5
100
330
1F
100
AcDbEntity
  8
0
  6
Continuous
 62
     7
 48
50.0
370
    25
100
AcDbLine
 10
8377.5173146958
 20
13526.7185818742
 30
0.0
 11
8376.5172679657
 21
13526.6179692338
 31
0.0
  0
LINE
  5
101
330
1F
100
AcDbEntity
  8
0
  6
Continuous
 62
     7
 48
50.0
370
    25
100
AcDbLine
 10
9497.5172896618
 20
13526.7185818742
 30
0.0
 11
9497.5172896618
 21
14823.0012309144
 31
0.0
  0
LINE
  5
102
330
1F
100
AcDbEntity
  8
0
  6
Continuous
 62
     7
 48
50.0
370
    25
100
AcDbLine
 10
9498.5172767872
 20
14824.0478884767
 30
0.0
 11
9497.5172896618
 21
14823.0012309144
 31
0.0
  0
LINE
  5
103
330
1F
100
AcDbEntity
  8
0
  6
Continuous
 62
     7
 48
50.0
370
    25
100
AcDbLine
 10
8377.5173146958
 20
14823.0012309144
 30
0.0
 11
8377.5173146958
 21
13526.7185818742
 31
0.0
  0
LINE
  5
104
330
1F
100
AcDbEntity
  8
0
  6
Continuous
 62
     7
 48
50.0
370
    25
100
AcDbLine
 10
8377.5173146958
 20
14823.0012309144
 30
0.0
 11
8376.5172679657
 21
14824.0478884767
 31
0.0
  0
LINE
  5
105
330
1F
100
AcDbEntity
  8
0
  6
Continuous
 62
     7
 48
50.0
370
    25
100
AcDbLine
 10
9497.5172896618
 20
14822.2454440187
 30
0.0
 11
8377.5173146958
 21
14822.2454440187
 31
0.0
  0
LINE
  5
106
330
1F
100
AcDbEntity
  8
0
  6
Continuous
 62
     7
 48
50.0
370
    25
100
AcDbLine
 10
9507.5172801251
 20
13848.3942401002
 30
0.0
 11
9507.5172801251
 21
13815.6281363557
 31
0.0
  0
LINE
  5
107
330
1F
100
AcDbEntity
  8
0
  6
Continuous
 62
     7
 48
50.0
370
    25
100
AcDbLine
 10
9507.4172933335
 20
13815.6281363557
 30
0.0
 11
9507.5172801251
 21
13815.6281363557
 31
0.0
  0
LINE
  5
108
330
1F
100
AcDbEntity
  8
0
  6
Continuous
 62
     7
 48
50.0
370
    25
100
AcDbLine
 10
8367.5173242325
 20
13848.3942401002
 30
0.0
 11
8367.5173242325
 21
13815.6281363557
 31
0.0
  0
LINE
  5
109
330
1F
100
AcDbEntity
  8
0
  6
Continuous
 62
     7
 48
50.0
370
    25
100
AcDbLine
 10
8367.6172216172
 20
13815.6281363557
 30
0.0
 11
8367.5173242325
 21
13815.6281363557
 31
0.0
  0
LINE
  5
10A
330
1F
100
AcDbEntity
  8
0
  6
Continuous
 62
     7
 48
50.0
370
    25
100
AcDbLine
 10
9507.5172801251
 20
14665.7408129762
 30
0.0
 11
9507.5172801251
 21
14632.9747092317
 31
0.0
  0
LINE
  5
10B
330
1F
100
AcDbEntity
  8
0
  6
Continuous
 62
     7
 48
50.0
370
    25
100
AcDbLine
 10
9507.4172933335
 20
14632.9747092317
 30
0.0
 11
9507.5172801251
 21
14632.9747092317
 31
0.0
  0
LINE
  5
10C
330
1F
100
AcDbEntity
  8
0
  6
Continuous
 62
     7
 48
50.0
370
    25
100
AcDbLine
 10
8367.5173242325
 20
14665.7408129762
 30
0.0
 11
8367.5173242325
 21
14632.9747092317
 31
0.0
  0
LINE
  5
10D
330
1F
100
AcDbEntity
  8
0
  6
Continuous
 62
     7
 48
50.0
370
    25
100
AcDbLine
 10
8367.6172216172
 20
14632.9747092317
 30
0.0
 11
8367.5173242325
 21
14632.9747092317
 31
0.0
  0
LINE
  5
10E
330
1F
100
AcDbEntity
  8
0
  6
Continuous
 62
     7
 48
50.0
370
    25
100
AcDbLine
 10
9497.5172896618
 20
14823.0012309144
 30
0.0
 11
8377.5173146958
 21
14823.0012309144
 31
0.0
  0
LINE
  5
10F
330
1F
100
AcDbEntity
  8
0
  6
Continuous
 62
     7
 48
50.0
370
    25
100
AcDbLine
 10
9526.5172739262
 20
13521.4557301591
 30
0.0
 11
10666.5172894234
 21
13521.4557301591
 31
0.0
  0
LINE
  5
110
330
1F
100
AcDbEntity
  8
0
  6
Continuous
 62
     7
 48
50.0
370
    25
100
AcDbLine
 10
9526.5172739262
 20
13684.924925525
 30
0.0
 11
9526.5172739262
 21
13521.4557301591
 31
0.0
  0
LINE
  5
111
330
1F
100
AcDbEntity
  8
0
  6
Continuous
 62
     7
 48
50.0
370
    25
100
AcDbLine
 10
9526.6172905201
 20
13684.924925525
 30
0.0
 11
9526.5172739262
 21
13684.924925525
 31
0.0
  0
LINE
  5
112
330
1F
100
AcDbEntity
  8
0
  6
Continuous
 62
     7
 48
50.0
370
    25
100
AcDbLine
 10
9526.6172905201
 20
13684.924925525
 30
0.0
 11
9526.6172905201
 21
13848.3942401002
 31
0.0
  0
LINE
  5
113
330
1F
100
AcDbEntity
  8
0
  6
Continuous
 62
     7
 48
50.0
370
    25
100
AcDbLine
 10
9526.6172905201
 20
13848.3942401002
 30
0.0
 11
9526.5172739262
 21
13848.3942401002
 31
0.0
  0
LINE
  5
114
330
1F
100
AcDbEntity
  8
0
  6
Continuous
 62
     7
 48
50.0
370
    25
100
AcDbLine
 10
9526.5172739262
 20
14502.271498401
 30
0.0
 11
9526.5172739262
 21
13848.3942401002
 31
0.0
  0
LINE
  5
115
330
1F
100
AcDbEntity
  8
0
  6
Continuous
 62
     7
 48
50.0
370
    25
100
AcDbLine
 10
9526.6172905201
 20
14502.271498401
 30
0.0
 11
9526.5172739262
 21
14502.271498401
 31
0.0
  0
LINE
  5
116
330
1F
100
AcDbEntity
  8
0
  6
Continuous
 62
     7
 48
50.0
370
    25
100
AcDbLine
 10
9526.6172905201
 20
14502.271498401
 30
0.0
 11
9526.6172905201
 21
14665.7408129762
 31
0.0
  0
LINE
  5
117
330
1F
100
AcDbEntity
  8
0
  6
Continuous
 62
     7
 48
50.0
370
    25
100
AcDbLine
 10
9526.6172905201
 20
14665.7408129762
 30
0.0
 11
9526.5172739262
 21
14665.7408129762
 31
0.0
  0
LINE
  5
118
330
1F
100
AcDbEntity
  8
0
  6
Continuous
 62
     7
 48
50.0
370
    25
100
AcDbLine
 10
9526.5172739262
 20
14829.2101275514
 30
0.0
 11
9526.5172739262
 21
14665.7408129762
 31
0.0
  0
LINE
  5
119
330
1F
100
AcDbEntity
  8
0
  6
Continuous
 62
     7
 48
50.0
370
    25
100
AcDbLine
 10
10666.5172894234
 20
14829.2101275514
 30
0.0
 11
9526.5172739262
 21
14829.2101275514
 31
0.0
  0
LINE
  5
11A
330
1F
100
AcDbEntity
  8
0
  6
Continuous
 62
     7
 48
50.0
370
    25
100
AcDbLine
 10
10666.5172894234
 20
14665.7408129762
 30
0.0
 11
10666.5172894234
 21
14829.2101275514
 31
0.0
  0
LINE
  5
11B
330
1F
100
AcDbEntity
  8
0
  6
Continuous
 62
     7
 48
50.0
370
    25
100
AcDbLine
 10
10666.4172728295
 20
14665.7408129762
 30
0.0
 11
10666.5172894234
 21
14665.7408129762
 31
0.0
  0
LINE
  5
11C
330
1F
100
AcDbEntity
  8
0
  6
Continuous
 62
     7
 48
50.0
370
    25
100
AcDbLine
 10
10666.4172728295
 20
14502.271498401
 30
0.0
 11
10666.4172728295
 21
14665.7408129762
 31
0.0
  0
LINE
  5
11D
330
1F
100
AcDbEntity
  8
0
  6
Continuous
 62
     7
 48
50.0
370
    25
100
AcDbLine
 10
10666.4172728295
 20
14502.271498401
 30
0.0
 11
10666.5172894234
 21
14502.271498401
 31
0.0
  0
LINE
  5
11E
330
1F
100
AcDbEntity
  8
0
  6
Continuous
 62
     7
 48
50.0
370
    25
100
AcDbLine
 10
10666.5172894234
 20
13848.3942401002
 30
0.0
 11
10666.5172894234
 21
14502.271498401
 31
0.0
  0
LINE
  5
11F
330
1F
100
AcDbEntity
  8
0
  6
Continuous
 62
     7
 48
50.0
370
    25
100
AcDbLine
 10
10666.4172728295
 20
13848.3942401002
 30
0.0
 11
10666.5172894234
 21
13848.3942401002
 31
0.0
  0
LINE
  5
120
330
1F
100
AcDbEntity
  8
0
  6
Continuous
 62
     7
 48
50.0
370
    25
100
AcDbLine
 10
10666.4172728295
 20
13684.924925525
 30
0.0
 11
10666.4172728295
 21
13848.3942401002
 31
0.0
  0
LINE
  5
121
330
1F
100
AcDbEntity
  8
0
  6
Continuous
 62
     7
 48
50.0
370
    25
100
AcDbLine
 10
10666.4172728295
 20
13684.924925525
 30
0.0
 11
10666.5172894234
 21
13684.924925525
 31
0.0
  0
LINE
  5
122
330
1F
100
AcDbEntity
  8
0
  6
Continuous
 62
     7
 48
50.0
370
    25
100
AcDbLine
 10
10666.5172894234
 20
13521.4557301591
 30
0.0
 11
10666.5172894234
 21
13684.924925525
 31
0.0
  0
LINE
  5
123
330
1F
100
AcDbEntity
  8
0
  6
Continuous
 62
     7
 48
50.0
370
    25
100
AcDbLine
 10
9535.5172772641
 20
14824.0478884767
 30
0.0
 11
10657.5172860855
 21
14824.0478884767
 31
0.0
  0
LINE
  5
124
330
1F
100
AcDbEntity
  8
0
  6
Continuous
 62
     7
 48
50.0
370
    25
100
AcDbLine
 10
9535.5172772641
 20
13526.6179692338
 30
0.0
 11
9535.5172772641
 21
14824.0478884767
 31
0.0
  0
LINE
  5
125
330
1F
100
AcDbEntity
  8
0
  6
Continuous
 62
     7
 48
50.0
370
    25
100
AcDbLine
 10
10657.5172860855
 20
13526.6179692338
 30
0.0
 11
9535.5172772641
 21
13526.6179692338
 31
0.0
  0
LINE
  5
126
330
1F
100
AcDbEntity
  8
0
  6
Continuous
 62
     7
 48
50.0
370
    25
100
AcDbLine
 10
10657.5172860855
 20
14824.0478884767
 30
0.0
 11
10657.5172860855
 21
13526.6179692338
 31
0.0
  0
LINE
  5
127
330
1F
100
AcDbEntity
  8
0
  6
Continuous
 62
     7
 48
50.0
370
    25
100
AcDbLine
 10
9526.5172739262
 20
13510.5577361177
 30
0.0
 11
9526.5172739262
 21
13521.4557301591
 31
0.0
  0
LINE
  5
128
330
1F
100
AcDbEntity
  8
0
  6
Continuous
 62
     7
 48
50.0
370
    25
100
AcDbLine
 10
10666.5172894234
 20
13510.5577361177
 30
0.0
 11
10666.5172894234
 21
13521.4557301591
 31
0.0
  0
LINE
  5
129
330
1F
100
AcDbEntity
  8
0
  6
Continuous
 62
     7
 48
50.0
370
    25
100
AcDbLine
 10
10657.5172860855
 20
13526.6179692338
 30
0.0
 11
10656.5172989601
 21
13526.7185818742
 31
0.0
  0
LINE
  5
12A
330
1F
100
AcDbEntity
  8
0
  6
Continuous
 62
     7
 48
50.0
370
    25
100
AcDbLine
 10
10656.5172989601
 20
13526.7185818742
 30
0.0
 11
10656.5172989601
 21
14823.0012309144
 31
0.0
  0
LINE
  5
12B
330
1F
100
AcDbEntity
  8
0
  6
Continuous
 62
     7
 48
50.0
370
    25
100
AcDbLine
 10
10657.5172860855
 20
14824.0478884767
 30
0.0
 11
10656.5172989601
 21
14823.0012309144
 31
0.0
  0
LINE
  5
12C
330
1F
100
AcDbEntity
  8
0
  6
Continuous
 62
     7
 48
50.0
370
    25
100
AcDbLine
 10
9536.5172941918
 20
13526.7185818742
 30
0.0
 11
10656.5172989601
 21
13526.7185818742
 31
0.0
  0
LINE
  5
12D
330
1F
100
AcDbEntity
  8
0
  6
Continuous
 62
     7
 48
50.0
370
    25
100
AcDbLine
 10
9536.5172941918
 20
13526.7185818742
 30
0.0
 11
9535.5172772641
 21
13526.6179692338
 31
0.0
  0
LINE
  5
12E
330
1F
100
AcDbEntity
  8
0
  6
Continuous
 62
     7
 48
50.0
370
    25
100
AcDbLine
 10
9536.5172941918
 20
14823.0012309144
 30
0.0
 11
9536.5172941918
 21
13526.7185818742
 31
0.0
  0
LINE
  5
12F
330
1F
100
AcDbEntity
  8
0
  6
Continuous
 62
     7
 48
50.0
370
    25
100
AcDbLine
 10
9536.5172941918
 20
14823.0012309144
 30
0.0
 11
9535.5172772641
 21
14824.0478884767
 31
0.0
  0
LINE
  5
130
330
1F
100
AcDbEntity
  8
0
  6
Continuous
 62
     7
 48
50.0
370
    25
100
AcDbLine
 10
10656.5172989601
 20
14822.2454440187
 30
0.0
 11
9536.5172941918
 21
14822.2454440187
 31
0.0
  0
LINE
  5
131
330
1F
100
AcDbEntity
  8
0
  6
Continuous
 62
     7
 48
50.0
370
    25
100
AcDbLine
 10
10666.5172894234
 20
13848.3942401002
 30
0.0
 11
10666.5172894234
 21
13815.6281363557
 31
0.0
  0
LINE
  5
132
330
1F
100
AcDbEntity
  8
0
  6
Continuous
 62
     7
 48
50.0
370
    25
100
AcDbLine
 10
10666.4172728295
 20
13815.6281363557
 30
0.0
 11
10666.5172894234
 21
13815.6281363557
 31
0.0
  0
LINE
  5
133
330
1F
100
AcDbEntity
  8
0
  6
Continuous
 62
     7
 48
50.0
370
    25
100
AcDbLine
 10
9526.5172739262
 20
13848.3942401002
 30
0.0
 11
9526.5172739262
 21
13815.6281363557
 31
0.0
  0
LINE
  5
134
330
1F
100
AcDbEntity
  8
0
  6
Continuous
 62
     7
 48
50.0
370
    25
100
AcDbLine
 10
9526.6172905201
 20
13815.6281363557
 30
0.0
 11
9526.5172739262
 21
13815.6281363557
 31
0.0
  0
LINE
  5
135
330
1F
100
AcDbEntity
  8
0
  6
Continuous
 62
     7
 48
50.0
370
    25
100
AcDbLine
 10
10666.5172894234
 20
14665.7408129762
 30
0.0
 11
10666.5172894234
 21
14632.9747092317
 31
0.0
  0
LINE
  5
136
330
1F
100
AcDbEntity
  8
0
  6
Continuous
 62
     7
 48
50.0
370
    25
100
AcDbLine
 10
10666.4172728295
 20
14632.9747092317
 30
0.0
 11
10666.5172894234
 21
14632.9747092317
 31
0.0
  0
LINE
  5
137
330
1F
100
AcDbEntity
  8
0
  6
Continuous
 62
     7
 48
50.0
370
    25
100
AcDbLine
 10
9526.5172739262
 20
14665.7408129762
 30
0.0
 11
9526.5172739262
 21
14632.9747092317
 31
0.0
  0
LINE
  5
138
330
1F
100
AcDbEntity
  8
0
  6
Continuous
 62
     7
 48
50.0
370
    25
100
AcDbLine
 10
9526.6172905201
 20
14632.9747092317
 30
0.0
 11
9526.5172739262
 21
14632.9747092317
 31
0.0
  0
LINE
  5
139
330
1F
100
AcDbEntity
  8
0
  6
Continuous
 62
     7
 48
50.0
370
    25
100
AcDbLine
 10
10656.5172989601
 20
14823.0012309144
 30
0.0
 11
9536.5172941918
 21
14823.0012309144
 31
0.0
  0
LINE
  5
13A
330
1F
100
AcDbEntity
  8
0
  6
Continuous
 62
     7
 48
50.0
370
    25
100
AcDbLine
 10
8332.0172746415
 20
13222.5510727952
 30
0.0
 11
8332.0172746415
 21
13227.425540645
 31
0.0
  0
LINE
  5
13B
330
1F
100
AcDbEntity
  8
0
  6
Continuous
 62
     7
 48
50.0
370
    25
100
AcDbLine
 10
10702.0172794098
 20
13227.425540645
 30
0.0
 11
10702.0172794098
 21
13222.5510727952
 31
0.0
  0
LWPOLYLINE
  5
13C
330
1F
100
AcDbEntity
  8
0
  6
Continuous
 62
     7
 48
50.0
370
    25
100
AcDbPolyline
 90
       28
 70
   128
 43
0.0
 10
8363.5172565216
 20
13163.9816414903
 10
8363.342018866
 20
13165.209616382
 10
8362.8258426422
 20
13166.3713109086
 10
8361.9966228241
 20
13167.4041401933
 10
8360.8988244767
 20
13168.252552707
 10
8359.591813826
 20
13168.8706528734
 10
8358.1460435624
 20
13169.2253005098
 10
8356.6393573517
 20
13169.2971837114
 10
8355.1530559296
 20
13169.0824877809
 10
8353.7672479386
 20
13168.5927760194
 10
8352.5566776032
 20
13167.8545128892
 10
8351.5865524048
 20
13166.907514293
 10
8350.9093244309
 20
13165.8028018068
 10
8350.5612333054
 20
13164.5997416566
 10
8350.5612333054
 20
13163.363541324
 10
8350.9093244309
 20
13162.1606003831
 10
8351.5865524048
 20
13161.0557686876
 10
8352.5566776032
 20
13160.1087700914
 10
8353.7672479386
 20
13159.3705069612
 10
8355.1530559296
 20
13158.880914409
 10
8356.6393573517
 20
13158.6662184785
 10
8358.1460435624
 20
13158.7381016801
 10
8359.591813826
 20
13159.0926301073
 10
8360.8988244767
 20
13159.7107302736
 10
8361.9966228241
 20
13160.5591427873
 10
8362.8258426422
 20
13161.5920912813
 10
8363.342018866
 20
13162.7537858079
 10
8363.5172565216
 20
13163.9816414903
  0
LWPOLYLINE
  5
13D
330
1F
100
AcDbEntity
  8
0
  6
Continuous
 62
     7
 48
50.0
370
    25
100
AcDbPolyline
 90
       28
 70
   128
 43
0.0
 10
10670.5172975296
 20
13204.9392115663
 10
10670.6924755806
 20
13203.7113558839
 10
10671.2086518044
 20
13202.5496613572
 10
10672.0379908318
 20
13201.5167128633
 10
10673.1357295746
 20
13200.6684195588
 10
10674.4427402253
 20
13200.0502001832
 10
10675.8885700936
 20
13199.6956717561
 10
10677.3951966996
 20
13199.6237885545
 10
10678.8814981217
 20
13199.838484485
 10
10680.2673061127
 20
13200.3280770372
 10
10681.4778764481
 20
13201.0663401674
 10
10682.4479420418
 20
13202.0134579728
 10
10683.125289225
 20
13203.1181704591
 10
10683.4733207459
 20
13204.3211114
 10
10683.4733207459
 20
13205.5574309419
 10
10683.125289225
 20
13206.7603718828
 10
10682.4479420418
 20
13207.865084369
 10
10681.4778764481
 20
13208.8122021745
 10
10680.2673061127
 20
13209.5504653047
 10
10678.8814981217
 20
13210.0400578569
 10
10677.3951966996
 20
13210.2547537874
 10
10675.8885700936
 20
13210.1828705858
 10
10674.4427402253
 20
13209.8283421586
 10
10673.1357295746
 20
13209.210122783
 10
10672.0379908318
 20
13208.3618294786
 10
10671.2086518044
 20
13207.3288809846
 10
10670.6924755806
 20
13206.167186458
 10
10670.5172975296
 20
13204.9392115663
  0
LWPOLYLINE
  5
13E
330
1F
100
AcDbEntity
  8
0
  6
Continuous
 62
     7
 48
50.0
370
    25
100
AcDbPolyline
 90
       28
 70
   128
 43
0.0
 10
10670.5172975296
 20
13163.9816414903
 10
10670.6924755806
 20
13162.7537858079
 10
10671.2086518044
 20
13161.5920912813
 10
10672.0379908318
 20
13160.5591427873
 10
10673.1357295746
 20
13159.7107302736
 10
10674.4427402253
 20
13159.0926301073
 10
10675.8885700936
 20
13158.7381016801
 10
10677.3951966996
 20
13158.6662184785
 10
10678.8814981217
 20
13158.880914409
 10
10680.2673061127
 20
13159.3705069612
 10
10681.4778764481
 20
13160.1087700914
 10
10682.4479420418
 20
13161.0557686876
 10
10683.125289225
 20
13162.1606003831
 10
10683.4733207459
 20
13163.363541324
 10
10683.4733207459
 20
13164.5997416566
 10
10683.125289225
 20
13165.8028018068
 10
10682.4479420418
 20
13166.907514293
 10
10681.4778764481
 20
13167.8545128892
 10
10680.2673061127
 20
13168.5927760194
 10
10678.8814981217
 20
13169.0824877809
 10
10677.3951966996
 20
13169.2971837114
 10
10675.8885700936
 20
13169.2253005098
 10
10674.4427402253
 20
13168.8706528734
 10
10673.1357295746
 20
13168.252552707
 10
10672.0379908318
 20
13167.4041401933
 10
10671.2086518044
 20
13166.3713109086
 10
10670.6924755806
 20
13165.209616382
 10
10670.5172975296
 20
13163.9816414903
  0
LWPOLYLINE
  5
13F
330
1F
100
AcDbEntity
  8
0
  6
Continuous
 62
     7
 48
50.0
370
    25
100
AcDbPolyline
 90
       28
 70
   128
 43
0.0
 10
8363.5172565216
 20
13204.9392115663
 10
8363.342018866
 20
13206.167186458
 10
8362.8258426422
 20
13207.3288809846
 10
8361.9966228241
 20
13208.3618294786
 10
8360.8988244767
 20
13209.210122783
 10
8359.591813826
 20
13209.8283421586
 10
8358.1460435624
 20
13210.1828705858
 10
8356.6393573517
 20
13210.2547537874
 10
8355.1530559296
 20
13210.0400578569
 10
8353.7672479386
 20
13209.5504653047
 10
8352.5566776032
 20
13208.8122021745
 10
8351.5865524048
 20
13207.865084369
 10
8350.9093244309
 20
13206.7603718828
 10
8350.5612333054
 20
13205.5574309419
 10
8350.5612333054
 20
13204.3211114
 10
8350.9093244309
 20
13203.1181704591
 10
8351.5865524048
 20
13202.0134579728
 10
8352.5566776032
 20
13201.0663401674
 10
8353.7672479386
 20
13200.3280770372
 10
8355.1530559296
 20
13199.838484485
 10
8356.6393573517
 20
13199.6237885545
 10
8358.1460435624
 20
13199.6956717561
 10
8359.591813826
 20
13200.0502001832
 10
8360.8988244767
 20
13200.6684195588
 10
8361.9966228241
 20
13201.5167128633
 10
8362.8258426422
 20
13202.5496613572
 10
8363.342018866
 20
13203.7113558839
 10
8363.5172565216
 20
13204.9392115663
  0
LINE
  5
140
330
1F
100
AcDbEntity
  8
0
  6
Continuous
 62
     7
 48
50.0
370
    25
100
AcDbLine
 10
8332.0172746415
 20
13222.5510727952
 30
0.0
 11
8332.0172746415
 21
13146.3698994707
 31
0.0
  0
LINE
  5
141
330
1F
100
AcDbEntity
  8
0
  6
Continuous
 62
     7
 48
50.0
370
    25
100
AcDbLine
 10
10702.0172794098
 20
13222.5510727952
 30
0.0
 11
10702.0172794098
 21
13146.3698994707
 31
0.0
  0
LINE
  5
142
330
1F
100
AcDbEntity
  8
0
  6
Continuous
 62
     7
 48
50.0
370
    25
100
AcDbLine
 10
8332.0172746415
 20
13252.0893466066
 30
0.0
 11
8332.0172746415
 21
13227.425540645
 31
0.0
  0
LINE
  5
143
330
1F
100
AcDbEntity
  8
0
  6
Continuous
 62
     7
 48
50.0
370
    25
100
AcDbLine
 10
10702.0172794098
 20
13252.0893466066
 30
0.0
 11
10702.0172794098
 21
13227.425540645
 31
0.0
  0
LINE
  5
144
330
1F
100
AcDbEntity
  8
0
  6
Continuous
 62
     7
 48
50.0
370
    25
100
AcDbLine
 10
9526.6172905201
 20
13243.4857737611
 30
0.0
 11
9507.4172933335
 21
13243.4857737611
 31
0.0
  0
LINE
  5
145
330
1F
100
AcDbEntity
  8
0
  6
Continuous
 62
     7
 48
50.0
370
    25
100
AcDbLine
 10
9507.4172933335
 20
13236.0292326997
 30
0.0
 11
9526.6172905201
 21
13236.0292326997
 31
0.0
  0
LWPOLYLINE
  5
146
330
1F
100
AcDbEntity
  8
0
  6
Continuous
 62
     7
 48
50.0
370
    25
100
AcDbPolyline
 90
       15
 70
   128
 43
0.0
 10
10670.5385167832
 20
13205.3694378923
 10
10670.6924755806
 20
13204.5716893266
 10
10671.2086518044
 20
13203.4099947999
 10
10672.0379908318
 20
13202.3771655153
 10
10673.1357295746
 20
13201.5287530015
 10
10674.4427402253
 20
13200.9106528352
 10
10675.8885700936
 20
13200.5560051988
 10
10677.3951966996
 20
13200.4841219972
 10
10678.8814981217
 20
13200.6988179277
 10
10680.2673061127
 20
13201.1885296892
 10
10681.4778764481
 20
13201.9267928193
 10
10682.4479420418
 20
13202.8737914155
 10
10683.125289225
 20
13203.9785039018
 10
10683.4733207459
 20
13205.1814448427
 10
10683.4960301155
 20
13205.3694378923
  0
LWPOLYLINE
  5
147
330
1F
100
AcDbEntity
  8
0
  6
Continuous
 62
     7
 48
50.0
370
    25
100
AcDbPolyline
 90
       15
 70
   128
 43
0.0
 10
8350.5385835404
 20
13205.3694378923
 10
8350.5612333054
 20
13205.1814448427
 10
8350.9093244309
 20
13203.9785039018
 10
8351.5865524048
 20
13202.8737914155
 10
8352.5566776032
 20
13201.9267928193
 10
8353.7672479386
 20
13201.1885296892
 10
8355.1530559296
 20
13200.6988179277
 10
8356.6393573517
 20
13200.4841219972
 10
8358.1460435624
 20
13200.5560051988
 10
8359.591813826
 20
13200.9106528352
 10
8360.8988244767
 20
13201.5287530015
 10
8361.9966228241
 20
13202.3771655153
 10
8362.8258426422
 20
13203.4099947999
 10
8363.342018866
 20
13204.5716893266
 10
8363.4960372681
 20
13205.3694378923
  0
LINE
  5
148
330
1F
100
AcDbEntity
  8
0
  6
Continuous
 62
     7
 48
50.0
370
    25
100
AcDbLine
 10
9526.6172905201
 20
13242.2569644044
 30
0.0
 11
9507.4172933335
 21
13242.2569644044
 31
0.0
  0
LINE
  5
149
330
1F
100
AcDbEntity
  8
0
  6
Continuous
 62
     7
 48
50.0
370
    25
100
AcDbLine
 10
10702.0172794098
 20
13252.7223479341
 30
0.0
 11
10702.0172794098
 21
13252.0893466066
 31
0.0
  0
LINE
  5
14A
330
1F
100
AcDbEntity
  8
0
  6
Continuous
 62
     7
 48
50.0
370
    25
100
AcDbLine
 10
8332.0172746415
 20
13252.7223479341
 30
0.0
 11
8332.0172746415
 21
13252.0893466066
 31
0.0
  0
LWPOLYLINE
  5
14B
330
1F
100
AcDbEntity
  8
0
  6
Continuous
 62
     7
 48
50.0
370
    25
100
AcDbPolyline
 90
       15
 70
   128
 43
0.0
 10
10670.5385167832
 20
13164.4118678163
 10
10670.6924755806
 20
13163.6141192506
 10
10671.2086518044
 20
13162.4524247239
 10
10672.0379908318
 20
13161.41947623
 10
10673.1357295746
 20
13160.5711829255
 10
10674.4427402253
 20
13159.9529635499
 10
10675.8885700936
 20
13159.5984351228
 10
10677.3951966996
 20
13159.5265519212
 10
10678.8814981217
 20
13159.7412478517
 10
10680.2673061127
 20
13160.2308404039
 10
10681.4778764481
 20
13160.9691035341
 10
10682.4479420418
 20
13161.9162213395
 10
10683.125289225
 20
13163.0209338258
 10
10683.4733207459
 20
13164.2238747667
 10
10683.4960301155
 20
13164.4118678163
  0
LWPOLYLINE
  5
14C
330
1F
100
AcDbEntity
  8
0
  6
Continuous
 62
     7
 48
50.0
370
    25
100
AcDbPolyline
 90
       15
 70
   128
 43
0.0
 10
8350.5385835404
 20
13164.4118678163
 10
8350.5612333054
 20
13164.2238747667
 10
8350.9093244309
 20
13163.0209338258
 10
8351.5865524048
 20
13161.9162213395
 10
8352.5566776032
 20
13160.9691035341
 10
8353.7672479386
 20
13160.2308404039
 10
8355.1530559296
 20
13159.7412478517
 10
8356.6393573517
 20
13159.5265519212
 10
8358.1460435624
 20
13159.5984351228
 10
8359.591813826
 20
13159.9529635499
 10
8360.8988244767
 20
13160.5711829255
 10
8361.9966228241
 20
13161.41947623
 10
8362.8258426422
 20
13162.4524247239
 10
8363.342018866
 20
13163.6141192506
 10
8363.4960372681
 20
13164.4118678163
  0
LINE
  5
14D
330
1F
100
AcDbEntity
  8
0
  6
Continuous
 62
     7
 48
50.0
370
    25
100
AcDbLine
 10
9507.4172933335
 20
13236.8534457277
 30
0.0
 11
9526.6172905201
 21
13236.8534457277
 31
0.0
  0
LINE
  5
14E
330
1F
100
AcDbEntity
  8
0
  6
Continuous
 62
     7
 48
50.0
370
    25
100
AcDbLine
 10
10702.0172794098
 20
13146.3698994707
 30
0.0
 11
10702.0172794098
 21
13144.8773991655
 31
0.0
  0
LINE
  5
14F
330
1F
100
AcDbEntity
  8
0
  6
Continuous
 62
     7
 48
50.0
370
    25
100
AcDbLine
 10
8332.0172746415
 20
13144.8773991655
 30
0.0
 11
8332.0172746415
 21
13146.3698994707
 31
0.0
  0
LINE
  5
150
330
1F
100
AcDbEntity
  8
0
  6
Continuous
 62
     7
 48
50.0
370
    25
100
AcDbLine
 10
8332.0172746415
 20
13657.3220145295
 30
0.0
 11
8332.0172746415
 21
13662.1964823793
 31
0.0
  0
LINE
  5
151
330
1F
100
AcDbEntity
  8
0
  6
Continuous
 62
     7
 48
50.0
370
    25
100
AcDbLine
 10
10702.0172794098
 20
13662.1964823793
 30
0.0
 11
10702.0172794098
 21
13657.3220145295
 31
0.0
  0
LWPOLYLINE
  5
152
330
1F
100
AcDbEntity
  8
0
  6
Continuous
 62
     7
 48
50.0
370
    25
100
AcDbPolyline
 90
       28
 70
   128
 43
0.0
 10
8363.5172565216
 20
13598.7525832246
 10
8363.342018866
 20
13599.9805581163
 10
8362.8258426422
 20
13601.142252643
 10
8361.9966228241
 20
13602.1750819276
 10
8360.8988244767
 20
13603.0234944414
 10
8359.591813826
 20
13603.6415946077
 10
8358.1460435624
 20
13603.9962422441
 10
8356.6393573517
 20
13604.0681254457
 10
8355.1530559296
 20
13603.8534295152
 10
8353.7672479386
 20
13603.3637177537
 10
8352.5566776032
 20
13602.6254546235
 10
8351.5865524048
 20
13601.6784560274
 10
8350.9093244309
 20
13600.5737435411
 10
8350.5612333054
 20
13599.3706833909
 10
8350.5612333054
 20
13598.1344830583
 10
8350.9093244309
 20
13596.9315421174
 10
8351.5865524048
 20
13595.8267104219
 10
8352.5566776032
 20
13594.8797118257
 10
8353.7672479386
 20
13594.1414486955
 10
8355.1530559296
 20
13593.6518561433
 10
8356.6393573517
 20
13593.4371602128
 10
8358.1460435624
 20
13593.5090434144
 10
8359.591813826
 20
13593.8635718416
 10
8360.8988244767
 20
13594.4816720079
 10
8361.9966228241
 20
13595.3300845216
 10
8362.8258426422
 20
13596.3630330156
 10
8363.342018866
 20
13597.5247275422
 10
8363.5172565216
 20
13598.7525832246
  0
LWPOLYLINE
  5
153
330
1F
100
AcDbEntity
  8
0
  6
Continuous
 62
     7
 48
50.0
370
    25
100
AcDbPolyline
 90
       28
 70
   128
 43
0.0
 10
10670.5172975296
 20
13639.7101533006
 10
10670.6924755806
 20
13638.4822976182
 10
10671.2086518044
 20
13637.3206030916
 10
10672.0379908318
 20
13636.2876545976
 10
10673.1357295746
 20
13635.4393612932
 10
10674.4427402253
 20
13634.8211419176
 10
10675.8885700936
 20
13634.4666134904
 10
10677.3951966996
 20
13634.3947302888
 10
10678.8814981217
 20
13634.6094262193
 10
10680.2673061127
 20
13635.0990187715
 10
10681.4778764481
 20
13635.8372819017
 10
10682.4479420418
 20
13636.7843997072
 10
10683.125289225
 20
13637.8891121934
 10
10683.4733207459
 20
13639.0920531343
 10
10683.4733207459
 20
13640.3282534669
 10
10683.125289225
 20
13641.5313136171
 10
10682.4479420418
 20
13642.6361453126
 10
10681.4778764481
 20
13643.5831439088
 10
10680.2673061127
 20
13644.3212878297
 10
10678.8814981217
 20
13644.8109995912
 10
10677.3951966996
 20
13645.0255763124
 10
10675.8885700936
 20
13644.9538123201
 10
10674.4427402253
 20
13644.599283893
 10
10673.1357295746
 20
13643.9810645173
 10
10672.0379908318
 20
13643.1327712129
 10
10671.2086518044
 20
13642.0999419282
 10
10670.6924755806
 20
13640.9381281923
 10
10670.5172975296
 20
13639.7101533006
  0
LWPOLYLINE
  5
154
330
1F
100
AcDbEntity
  8
0
  6
Continuous
 62
     7
 48
50.0
370
    25
100
AcDbPolyline
 90
       28
 70
   128
 43
0.0
 10
10670.5172975296
 20
13598.7525832246
 10
10670.6924755806
 20
13597.5247275422
 10
10671.2086518044
 20
13596.3630330156
 10
10672.0379908318
 20
13595.3300845216
 10
10673.1357295746
 20
13594.4816720079
 10
10674.4427402253
 20
13593.8635718416
 10
10675.8885700936
 20
13593.5090434144
 10
10677.3951966996
 20
13593.4371602128
 10
10678.8814981217
 20
13593.6518561433
 10
10680.2673061127
 20
13594.1414486955
 10
10681.4778764481
 20
13594.8797118257
 10
10682.4479420418
 20
13595.8267104219
 10
10683.125289225
 20
13596.9315421174
 10
10683.4733207459
 20
13598.1344830583
 10
10683.4733207459
 20
13599.3706833909
 10
10683.125289225
 20
13600.5737435411
 10
10682.4479420418
 20
13601.6784560274
 10
10681.4778764481
 20
13602.6254546235
 10
10680.2673061127
 20
13603.3637177537
 10
10678.8814981217
 20
13603.8534295152
 10
10677.3951966996
 20
13604.0681254457
 10
10675.8885700936
 20
13603.9962422441
 10
10674.4427402253
 20
13603.6415946077
 10
10673.1357295746
 20
13603.0234944414
 10
10672.0379908318
 20
13602.1750819276
 10
10671.2086518044
 20
13601.142252643
 10
10670.6924755806
 20
13599.9805581163
 10
10670.5172975296
 20
13598.7525832246
  0
LWPOLYLINE
  5
155
330
1F
100
AcDbEntity
  8
0
  6
Continuous
 62
     7
 48
50.0
370
    25
100
AcDbPolyline
 90
       28
 70
   128
 43
0.0
 10
8363.5172565216
 20
13639.7101533006
 10
8363.342018866
 20
13640.9381281923
 10
8362.8258426422
 20
13642.0999419282
 10
8361.9966228241
 20
13643.1327712129
 10
8360.8988244767
 20
13643.9810645173
 10
8359.591813826
 20
13644.599283893
 10
8358.1460435624
 20
13644.9538123201
 10
8356.6393573517
 20
13645.0255763124
 10
8355.1530559296
 20
13644.8109995912
 10
8353.7672479386
 20
13644.3212878297
 10
8352.5566776032
 20
13643.5831439088
 10
8351.5865524048
 20
13642.6361453126
 10
8350.9093244309
 20
13641.5313136171
 10
8350.5612333054
 20
13640.3282534669
 10
8350.5612333054
 20
13639.0920531343
 10
8350.9093244309
 20
13637.8891121934
 10
8351.5865524048
 20
13636.7843997072
 10
8352.5566776032
 20
13635.8372819017
 10
8353.7672479386
 20
13635.0990187715
 10
8355.1530559296
 20
13634.6094262193
 10
8356.6393573517
 20
13634.3947302888
 10
8358.1460435624
 20
13634.4666134904
 10
8359.591813826
 20
13634.8211419176
 10
8360.8988244767
 20
13635.4393612932
 10
8361.9966228241
 20
13636.2876545976
 10
8362.8258426422
 20
13637.3206030916
 10
8363.342018866
 20
13638.4822976182
 10
8363.5172565216
 20
13639.7101533006
  0
LINE
  5
156
330
1F
100
AcDbEntity
  8
0
  6
Continuous
 62
     7
 48
50.0
370
    25
100
AcDbLine
 10
8332.0172746415
 20
13657.3220145295
 30
0.0
 11
8332.0172746415
 21
13581.140841205
 31
0.0
  0
LINE
  5
157
330
1F
100
AcDbEntity
  8
0
  6
Continuous
 62
     7
 48
50.0
370
    25
100
AcDbLine
 10
10702.0172794098
 20
13657.3220145295
 30
0.0
 11
10702.0172794098
 21
13581.140841205
 31
0.0
  0
LINE
  5
158
330
1F
100
AcDbEntity
  8
0
  6
Continuous
 62
     7
 48
50.0
370
    25
100
AcDbLine
 10
8332.0172746415
 20
13686.8604075502
 30
0.0
 11
8332.0172746415
 21
13662.1964823793
 31
0.0
  0
LINE
  5
159
330
1F
100
AcDbEntity
  8
0
  6
Continuous
 62
     7
 48
50.0
370
    25
100
AcDbLine
 10
10702.0172794098
 20
13686.8604075502
 30
0.0
 11
10702.0172794098
 21
13662.1964823793
 31
0.0
  0
LINE
  5
15A
330
1F
100
AcDbEntity
  8
0
  6
Continuous
 62
     7
 48
50.0
370
    25
100
AcDbLine
 10
9526.5172739262
 20
13678.2565962861
 30
0.0
 11
9507.5172801251
 21
13678.2565962861
 31
0.0
  0
LINE
  5
15B
330
1F
100
AcDbEntity
  8
0
  6
Continuous
 62
     7
 48
50.0
370
    25
100
AcDbLine
 10
9507.5172801251
 20
13670.8000552247
 30
0.0
 11
9526.5172739262
 21
13670.8000552247
 31
0.0
  0
LWPOLYLINE
  5
15C
330
1F
100
AcDbEntity
  8
0
  6
Continuous
 62
     7
 48
50.0
370
    25
100
AcDbPolyline
 90
       15
 70
   128
 43
0.0
 10
10670.5385167832
 20
13640.1403796266
 10
10670.6924755806
 20
13639.3426310609
 10
10671.2086518044
 20
13638.1809365343
 10
10672.0379908318
 20
13637.1481072496
 10
10673.1357295746
 20
13636.2996947358
 10
10674.4427402253
 20
13635.6815945695
 10
10675.8885700936
 20
13635.3269469331
 10
10677.3951966996
 20
13635.2550637315
 10
10678.8814981217
 20
13635.469759662
 10
10680.2673061127
 20
13635.9594714235
 10
10681.4778764481
 20
13636.6977345537
 10
10682.4479420418
 20
13637.6447331499
 10
10683.125289225
 20
13638.7494456361
 10
10683.4733207459
 20
13639.952386577
 10
10683.4960301155
 20
13640.1403796266
  0
LWPOLYLINE
  5
15D
330
1F
100
AcDbEntity
  8
0
  6
Continuous
 62
     7
 48
50.0
370
    25
100
AcDbPolyline
 90
       15
 70
   128
 43
0.0
 10
8350.5385835404
 20
13640.1403796266
 10
8350.5612333054
 20
13639.952386577
 10
8350.9093244309
 20
13638.7494456361
 10
8351.5865524048
 20
13637.6447331499
 10
8352.5566776032
 20
13636.6977345537
 10
8353.7672479386
 20
13635.9594714235
 10
8355.1530559296
 20
13635.469759662
 10
8356.6393573517
 20
13635.2550637315
 10
8358.1460435624
 20
13635.3269469331
 10
8359.591813826
 20
13635.6815945695
 10
8360.8988244767
 20
13636.2996947358
 10
8361.9966228241
 20
13637.1481072496
 10
8362.8258426422
 20
13638.1809365343
 10
8363.342018866
 20
13639.3426310609
 10
8363.4960372681
 20
13640.1403796266
  0
LINE
  5
15E
330
1F
100
AcDbEntity
  8
0
  6
Continuous
 62
     7
 48
50.0
370
    25
100
AcDbLine
 10
9526.5172739262
 20
13677.028025348
 30
0.0
 11
9507.5172801251
 21
13677.028025348
 31
0.0
  0
LINE
  5
15F
330
1F
100
AcDbEntity
  8
0
  6
Continuous
 62
     7
 48
50.0
370
    25
100
AcDbLine
 10
8332.0172746415
 20
13687.4931704591
 30
0.0
 11
8332.0172746415
 21
13686.8604075502
 31
0.0
  0
LINE
  5
160
330
1F
100
AcDbEntity
  8
0
  6
Continuous
 62
     7
 48
50.0
370
    25
100
AcDbLine
 10
10702.0172794098
 20
13687.4931704591
 30
0.0
 11
10702.0172794098
 21
13686.8604075502
 31
0.0
  0
LWPOLYLINE
  5
161
330
1F
100
AcDbEntity
  8
0
  6
Continuous
 62
     7
 48
50.0
370
    25
100
AcDbPolyline
 90
       15
 70
   128
 43
0.0
 10
10670.5385167832
 20
13599.1828095506
 10
10670.6924755806
 20
13598.3850609849
 10
10671.2086518044
 20
13597.2233664583
 10
10672.0379908318
 20
13596.1904179643
 10
10673.1357295746
 20
13595.3421246599
 10
10674.4427402253
 20
13594.7239052843
 10
10675.8885700936
 20
13594.3693768571
 10
10677.3951966996
 20
13594.2974936555
 10
10678.8814981217
 20
13594.512189586
 10
10680.2673061127
 20
13595.0017821382
 10
10681.4778764481
 20
13595.7400452684
 10
10682.4479420418
 20
13596.6871630739
 10
10683.125289225
 20
13597.7918755601
 10
10683.4733207459
 20
13598.994816501
 10
10683.4960301155
 20
13599.1828095506
  0
LWPOLYLINE
  5
162
330
1F
100
AcDbEntity
  8
0
  6
Continuous
 62
     7
 48
50.0
370
    25
100
AcDbPolyline
 90
       15
 70
   128
 43
0.0
 10
8350.5385835404
 20
13599.1828095506
 10
8350.5612333054
 20
13598.994816501
 10
8350.9093244309
 20
13597.7918755601
 10
8351.5865524048
 20
13596.6871630739
 10
8352.5566776032
 20
13595.7400452684
 10
8353.7672479386
 20
13595.0017821382
 10
8355.1530559296
 20
13594.512189586
 10
8356.6393573517
 20
13594.2974936555
 10
8358.1460435624
 20
13594.3693768571
 10
8359.591813826
 20
13594.7239052843
 10
8360.8988244767
 20
13595.3421246599
 10
8361.9966228241
 20
13596.1904179643
 10
8362.8258426422
 20
13597.2233664583
 10
8363.342018866
 20
13598.3850609849
 10
8363.4960372681
 20
13599.1828095506
  0
LINE
  5
163
330
1F
100
AcDbEntity
  8
0
  6
Continuous
 62
     7
 48
50.0
370
    25
100
AcDbLine
 10
9507.5172801251
 20
13671.6245066713
 30
0.0
 11
9526.5172739262
 21
13671.6245066713
 31
0.0
  0
LINE
  5
164
330
1F
100
AcDbEntity
  8
0
  6
Continuous
 62
     7
 48
50.0
370
    25
100
AcDbLine
 10
10702.0172794098
 20
13581.140841205
 30
0.0
 11
10702.0172794098
 21
13579.6483408998
 31
0.0
  0
LINE
  5
165
330
1F
100
AcDbEntity
  8
0
  6
Continuous
 62
     7
 48
50.0
370
    25
100
AcDbLine
 10
8332.0172746415
 20
13579.6483408998
 30
0.0
 11
8332.0172746415
 21
13581.140841205
 31
0.0
  0
LINE
  5
166
330
1F
100
AcDbEntity
  8
0
  6
Continuous
 62
     7
 48
50.0
370
    25
100
AcDbLine
 10
8332.0172746415
 20
12441.9135105203
 30
0.0
 11
8332.0172746415
 21
12446.7880379747
 31
0.0
  0
LINE
  5
167
330
1F
100
AcDbEntity
  8
0
  6
Continuous
 62
     7
 48
50.0
370
    25
100
AcDbLine
 10
10702.0172794098
 20
12446.7880379747
 30
0.0
 11
10702.0172794098
 21
12441.9135105203
 31
0.0
  0
LWPOLYLINE
  5
168
330
1F
100
AcDbEntity
  8
0
  6
Continuous
 62
     7
 48
50.0
370
    25
100
AcDbPolyline
 90
       28
 70
   128
 43
0.0
 10
8363.5172565216
 20
12383.34413882
 10
8363.342018866
 20
12384.572054107
 10
8362.8258426422
 20
12385.7337486337
 10
8361.9966228241
 20
12386.766637523
 10
8360.8988244767
 20
12387.6150500368
 10
8359.591813826
 20
12388.2331502031
 10
8358.1460435624
 20
12388.5877382348
 10
8356.6393573517
 20
12388.6596214364
 10
8355.1530559296
 20
12388.444925506
 10
8353.7672479386
 20
12387.9552733491
 10
8352.5566776032
 20
12387.2170102189
 10
8351.5865524048
 20
12386.2700116228
 10
8350.9093244309
 20
12385.1652395318
 10
8350.5612333054
 20
12383.962298591
 10
8350.5612333054
 20
12382.7259790491
 10
8350.9093244309
 20
12381.5230381082
 10
8351.5865524048
 20
12380.4182660173
 10
8352.5566776032
 20
12379.4712674211
 10
8353.7672479386
 20
12378.7330042909
 10
8355.1530559296
 20
12378.2433521341
 10
8356.6393573517
 20
12378.0286562036
 10
8358.1460435624
 20
12378.1005394052
 10
8359.591813826
 20
12378.455127437
 10
8360.8988244767
 20
12379.0732276033
 10
8361.9966228241
 20
12379.921640117
 10
8362.8258426422
 20
12380.9545290063
 10
8363.342018866
 20
12382.116223533
 10
8363.5172565216
 20
12383.34413882
  0
LWPOLYLINE
  5
169
330
1F
100
AcDbEntity
  8
0
  6
Continuous
 62
     7
 48
50.0
370
    25
100
AcDbPolyline
 90
       28
 70
   128
 43
0.0
 10
10670.5172975296
 20
12424.301708896
 10
10670.6924755806
 20
12423.0738532136
 10
10671.2086518044
 20
12421.9120990823
 10
10672.0379908318
 20
12420.879210193
 10
10673.1357295746
 20
12420.0308572839
 10
10674.4427402253
 20
12419.4126975129
 10
10675.8885700936
 20
12419.0581690858
 10
10677.3951966996
 20
12418.9862858842
 10
10678.8814981217
 20
12419.2009222101
 10
10680.2673061127
 20
12419.6905743669
 10
10681.4778764481
 20
12420.4288374971
 10
10682.4479420418
 20
12421.3758956979
 10
10683.125289225
 20
12422.4806677888
 10
10683.4733207459
 20
12423.6836087297
 10
10683.4733207459
 20
12424.919868667
 10
10683.125289225
 20
12426.1228096078
 10
10682.4479420418
 20
12427.2275816987
 10
10681.4778764481
 20
12428.1746398996
 10
10680.2673061127
 20
12428.9129030298
 10
10678.8814981217
 20
12429.4025551866
 10
10677.3951966996
 20
12429.6171915124
 10
10675.8885700936
 20
12429.5453083108
 10
10674.4427402253
 20
12429.1907798837
 10
10673.1357295746
 20
12428.5726201127
 10
10672.0379908318
 20
12427.7242672037
 10
10671.2086518044
 20
12426.6913783143
 10
10670.6924755806
 20
12425.529624183
 10
10670.5172975296
 20
12424.301708896
  0
LWPOLYLINE
  5
16A
330
1F
100
AcDbEntity
  8
0
  6
Continuous
 62
     7
 48
50.0
370
    25
100
AcDbPolyline
 90
       28
 70
   128
 43
0.0
 10
10670.5172975296
 20
12383.34413882
 10
10670.6924755806
 20
12382.116223533
 10
10671.2086518044
 20
12380.9545290063
 10
10672.0379908318
 20
12379.921640117
 10
10673.1357295746
 20
12379.0732276033
 10
10674.4427402253
 20
12378.455127437
 10
10675.8885700936
 20
12378.1005394052
 10
10677.3951966996
 20
12378.0286562036
 10
10678.8814981217
 20
12378.2433521341
 10
10680.2673061127
 20
12378.7330042909
 10
10681.4778764481
 20
12379.4712674211
 10
10682.4479420418
 20
12380.4182660173
 10
10683.125289225
 20
12381.5230381082
 10
10683.4733207459
 20
12382.7259790491
 10
10683.4733207459
 20
12383.962298591
 10
10683.125289225
 20
12385.1652395318
 10
10682.4479420418
 20
12386.2700116228
 10
10681.4778764481
 20
12387.2170102189
 10
10680.2673061127
 20
12387.9552733491
 10
10678.8814981217
 20
12388.444925506
 10
10677.3951966996
 20
12388.6596214364
 10
10675.8885700936
 20
12388.5877382348
 10
10674.4427402253
 20
12388.2331502031
 10
10673.1357295746
 20
12387.6150500368
 10
10672.0379908318
 20
12386.766637523
 10
10671.2086518044
 20
12385.7337486337
 10
10670.6924755806
 20
12384.572054107
 10
10670.5172975296
 20
12383.34413882
  0
LWPOLYLINE
  5
16B
330
1F
100
AcDbEntity
  8
0
  6
Continuous
 62
     7
 48
50.0
370
    25
100
AcDbPolyline
 90
       28
 70
   128
 43
0.0
 10
8363.5172565216
 20
12424.301708896
 10
8363.342018866
 20
12425.529624183
 10
8362.8258426422
 20
12426.6913783143
 10
8361.9966228241
 20
12427.7242672037
 10
8360.8988244767
 20
12428.5726201127
 10
8359.591813826
 20
12429.1907798837
 10
8358.1460435624
 20
12429.5453083108
 10
8356.6393573517
 20
12429.6171915124
 10
8355.1530559296
 20
12429.4025551866
 10
8353.7672479386
 20
12428.9129030298
 10
8352.5566776032
 20
12428.1746398996
 10
8351.5865524048
 20
12427.2275816987
 10
8350.9093244309
 20
12426.1228096078
 10
8350.5612333054
 20
12424.919868667
 10
8350.5612333054
 20
12423.6836087297
 10
8350.9093244309
 20
12422.4806677888
 10
8351.5865524048
 20
12421.3758956979
 10
8352.5566776032
 20
12420.4288374971
 10
8353.7672479386
 20
12419.6905743669
 10
8355.1530559296
 20
12419.2009222101
 10
8356.6393573517
 20
12418.9862858842
 10
8358.1460435624
 20
12419.0581690858
 10
8359.591813826
 20
12419.4126975129
 10
8360.8988244767
 20
12420.0308572839
 10
8361.9966228241
 20
12420.879210193
 10
8362.8258426422
 20
12421.9120990823
 10
8363.342018866
 20
12423.0738532136
 10
8363.5172565216
 20
12424.301708896
  0
LINE
  5
16C
330
1F
100
AcDbEntity
  8
0
  6
Continuous
 62
     7
 48
50.0
370
    25
100
AcDbLine
 10
8332.0172746415
 20
12441.9135105203
 30
0.0
 11
8332.0172746415
 21
12365.7323371957
 31
0.0
  0
LINE
  5
16D
330
1F
100
AcDbEntity
  8
0
  6
Continuous
 62
     7
 48
50.0
370
    25
100
AcDbLine
 10
10702.0172794098
 20
12441.9135105203
 30
0.0
 11
10702.0172794098
 21
12365.7323371957
 31
0.0
  0
LINE
  5
16E
330
1F
100
AcDbEntity
  8
0
  6
Continuous
 62
     7
 48
50.0
370
    25
100
AcDbLine
 10
8332.0172746415
 20
12471.4518439363
 30
0.0
 11
8332.0172746415
 21
12446.7880379747
 31
0.0
  0
LINE
  5
16F
330
1F
100
AcDbEntity
  8
0
  6
Continuous
 62
     7
 48
50.0
370
    25
100
AcDbLine
 10
10702.0172794098
 20
12471.4518439363
 30
0.0
 11
10702.0172794098
 21
12446.7880379747
 31
0.0
  0
LINE
  5
170
330
1F
100
AcDbEntity
  8
0
  6
Continuous
 62
     7
 48
50.0
370
    25
100
AcDbLine
 10
9526.6172905201
 20
12462.8482114862
 30
0.0
 11
9507.4172933335
 21
12462.8482114862
 31
0.0
  0
LINE
  5
171
330
1F
100
AcDbEntity
  8
0
  6
Continuous
 62
     7
 48
50.0
370
    25
100
AcDbLine
 10
9507.4172933335
 20
12455.3917300294
 30
0.0
 11
9526.6172905201
 21
12455.3917300294
 31
0.0
  0
LWPOLYLINE
  5
172
330
1F
100
AcDbEntity
  8
0
  6
Continuous
 62
     7
 48
50.0
370
    25
100
AcDbPolyline
 90
       15
 70
   128
 43
0.0
 10
10670.5385167832
 20
12424.731935222
 10
10670.6924755806
 20
12423.9341866563
 10
10671.2086518044
 20
12422.7724921296
 10
10672.0379908318
 20
12421.7396032403
 10
10673.1357295746
 20
12420.8911907266
 10
10674.4427402253
 20
12420.2730905603
 10
10675.8885700936
 20
12419.9185025285
 10
10677.3951966996
 20
12419.8466193269
 10
10678.8814981217
 20
12420.0613152574
 10
10680.2673061127
 20
12420.5509674142
 10
10681.4778764481
 20
12421.2892305444
 10
10682.4479420418
 20
12422.2362291406
 10
10683.125289225
 20
12423.3410012315
 10
10683.4733207459
 20
12424.5439421724
 10
10683.4960301155
 20
12424.731935222
  0
LWPOLYLINE
  5
173
330
1F
100
AcDbEntity
  8
0
  6
Continuous
 62
     7
 48
50.0
370
    25
100
AcDbPolyline
 90
       15
 70
   128
 43
0.0
 10
8350.5385835404
 20
12424.731935222
 10
8350.5612333054
 20
12424.5439421724
 10
8350.9093244309
 20
12423.3410012315
 10
8351.5865524048
 20
12422.2362291406
 10
8352.5566776032
 20
12421.2892305444
 10
8353.7672479386
 20
12420.5509674142
 10
8355.1530559296
 20
12420.0613152574
 10
8356.6393573517
 20
12419.8466193269
 10
8358.1460435624
 20
12419.9185025285
 10
8359.591813826
 20
12420.2730905603
 10
8360.8988244767
 20
12420.8911907266
 10
8361.9966228241
 20
12421.7396032403
 10
8362.8258426422
 20
12422.7724921296
 10
8363.342018866
 20
12423.9341866563
 10
8363.4960372681
 20
12424.731935222
  0
LINE
  5
174
330
1F
100
AcDbEntity
  8
0
  6
Continuous
 62
     7
 48
50.0
370
    25
100
AcDbLine
 10
9526.6172905201
 20
12461.6194617341
 30
0.0
 11
9507.4172933335
 21
12461.6194617341
 31
0.0
  0
LINE
  5
175
330
1F
100
AcDbEntity
  8
0
  6
Continuous
 62
     7
 48
50.0
370
    25
100
AcDbLine
 10
8332.0172746415
 20
12472.0847856592
 30
0.0
 11
8332.0172746415
 21
12471.4518439363
 31
0.0
  0
LINE
  5
176
330
1F
100
AcDbEntity
  8
0
  6
Continuous
 62
     7
 48
50.0
370
    25
100
AcDbLine
 10
10702.0172794098
 20
12472.0847856592
 30
0.0
 11
10702.0172794098
 21
12471.4518439363
 31
0.0
  0
LWPOLYLINE
  5
177
330
1F
100
AcDbEntity
  8
0
  6
Continuous
 62
     7
 48
50.0
370
    25
100
AcDbPolyline
 90
       15
 70
   128
 43
0.0
 10
10670.5385167832
 20
12383.7743055414
 10
10670.6924755806
 20
12382.9766165803
 10
10671.2086518044
 20
12381.814862449
 10
10672.0379908318
 20
12380.7819735597
 10
10673.1357295746
 20
12379.9336206506
 10
10674.4427402253
 20
12379.3154608796
 10
10675.8885700936
 20
12378.9608728479
 10
10677.3951966996
 20
12378.8889896463
 10
10678.8814981217
 20
12379.1036855768
 10
10680.2673061127
 20
12379.5933377336
 10
10681.4778764481
 20
12380.3316008638
 10
10682.4479420418
 20
12381.2786590646
 10
10683.125289225
 20
12382.3834311555
 10
10683.4733207459
 20
12383.5863720964
 10
10683.4960301155
 20
12383.7743055414
  0
LWPOLYLINE
  5
178
330
1F
100
AcDbEntity
  8
0
  6
Continuous
 62
     7
 48
50.0
370
    25
100
AcDbPolyline
 90
       15
 70
   128
 43
0.0
 10
8350.5385835404
 20
12383.7743055414
 10
8350.5612333054
 20
12383.5863720964
 10
8350.9093244309
 20
12382.3834311555
 10
8351.5865524048
 20
12381.2786590646
 10
8352.5566776032
 20
12380.3316008638
 10
8353.7672479386
 20
12379.5933377336
 10
8355.1530559296
 20
12379.1036855768
 10
8356.6393573517
 20
12378.8889896463
 10
8358.1460435624
 20
12378.9608728479
 10
8359.591813826
 20
12379.3154608796
 10
8360.8988244767
 20
12379.9336206506
 10
8361.9966228241
 20
12380.7819735597
 10
8362.8258426422
 20
12381.814862449
 10
8363.342018866
 20
12382.9766165803
 10
8363.4960372681
 20
12383.7743055414
  0
LINE
  5
179
330
1F
100
AcDbEntity
  8
0
  6
Continuous
 62
     7
 48
50.0
370
    25
100
AcDbLine
 10
9507.4172933335
 20
12456.2159430574
 30
0.0
 11
9526.6172905201
 21
12456.2159430574
 31
0.0
  0
LINE
  5
17A
330
1F
100
AcDbEntity
  8
0
  6
Continuous
 62
     7
 48
50.0
370
    25
100
AcDbLine
 10
10702.0172794098
 20
12365.7323371957
 30
0.0
 11
10702.0172794098
 21
12364.2398964952
 31
0.0
  0
LINE
  5
17B
330
1F
100
AcDbEntity
  8
0
  6
Continuous
 62
     7
 48
50.0
370
    25
100
AcDbLine
 10
8332.0172746415
 20
12364.2398964952
 30
0.0
 11
8332.0172746415
 21
12365.7323371957
 31
0.0
  0
LINE
  5
17C
330
1F
100
AcDbEntity
  8
0
  6
Continuous
 62
     7
 48
50.0
370
    25
100
AcDbLine
 10
8332.0172746415
 20
14437.9595171998
 30
0.0
 11
8332.0172746415
 21
14442.8339850496
 31
0.0
  0
LINE
  5
17D
330
1F
100
AcDbEntity
  8
0
  6
Continuous
 62
     7
 48
50.0
370
    25
100
AcDbLine
 10
10702.0172794098
 20
14442.8339850496
 30
0.0
 11
10702.0172794098
 21
14437.9595171998
 31
0.0
  0
LWPOLYLINE
  5
17E
330
1F
100
AcDbEntity
  8
0
  6
Continuous
 62
     7
 48
50.0
370
    25
100
AcDbPolyline
 90
       28
 70
   128
 43
0.0
 10
8363.5172565216
 20
14379.3900858949
 10
8363.342018866
 20
14380.6179415773
 10
8362.8258426422
 20
14381.7797553132
 10
8361.9966228241
 20
14382.8125845979
 10
8360.8988244767
 20
14383.6611163209
 10
8359.591813826
 20
14384.279097278
 10
8358.1460435624
 20
14384.6336257051
 10
8356.6393573517
 20
14384.705628116
 10
8355.1530559296
 20
14384.4910513948
 10
8353.7672479386
 20
14384.0013396333
 10
8352.5566776032
 20
14383.2629572938
 10
8351.5865524048
 20
14382.3159586976
 10
8350.9093244309
 20
14381.2111270021
 10
8350.5612333054
 20
14380.0083052705
 10
8350.5612333054
 20
14378.7721049379
 10
8350.9093244309
 20
14377.5690447877
 10
8351.5865524048
 20
14376.4642130922
 10
8352.5566776032
 20
14375.517214496
 10
8353.7672479386
 20
14374.7790705751
 10
8355.1530559296
 20
14374.2893588136
 10
8356.6393573517
 20
14374.0745436738
 10
8358.1460435624
 20
14374.1465460847
 10
8359.591813826
 20
14374.5010745119
 10
8360.8988244767
 20
14375.1192938875
 10
8361.9966228241
 20
14375.9675871919
 10
8362.8258426422
 20
14377.0004164766
 10
8363.342018866
 20
14378.1622302125
 10
8363.5172565216
 20
14379.3900858949
  0
LWPOLYLINE
  5
17F
330
1F
100
AcDbEntity
  8
0
  6
Continuous
 62
     7
 48
50.0
370
    25
100
AcDbPolyline
 90
       28
 70
   128
 43
0.0
 10
10670.5172975296
 20
14420.3477751802
 10
10670.6924755806
 20
14419.1199194978
 10
10671.2086518044
 20
14417.9581057618
 10
10672.0379908318
 20
14416.9252764772
 10
10673.1357295746
 20
14416.0767447542
 10
10674.4427402253
 20
14415.4587637971
 10
10675.8885700936
 20
14415.10423537
 10
10677.3951966996
 20
14415.0322329591
 10
10678.8814981217
 20
14415.2470480989
 10
10680.2673061127
 20
14415.7365214418
 10
10681.4778764481
 20
14416.4749037813
 10
10682.4479420418
 20
14417.4219023774
 10
10683.125289225
 20
14418.526734073
 10
10683.4733207459
 20
14419.7295558046
 10
10683.4733207459
 20
14420.9657561372
 10
10683.125289225
 20
14422.1688162874
 10
10682.4479420418
 20
14423.2736479829
 10
10681.4778764481
 20
14424.2206465791
 10
10680.2673061127
 20
14424.9587905
 10
10678.8814981217
 20
14425.4485022615
 10
10677.3951966996
 20
14425.6633174013
 10
10675.8885700936
 20
14425.5913149904
 10
10674.4427402253
 20
14425.2367865632
 10
10673.1357295746
 20
14424.6185671876
 10
10672.0379908318
 20
14423.7702738832
 10
10671.2086518044
 20
14422.7374445985
 10
10670.6924755806
 20
14421.5756308626
 10
10670.5172975296
 20
14420.3477751802
  0
LWPOLYLINE
  5
180
330
1F
100
AcDbEntity
  8
0
  6
Continuous
 62
     7
 48
50.0
370
    25
100
AcDbPolyline
 90
       28
 70
   128
 43
0.0
 10
10670.5172975296
 20
14379.3900858949
 10
10670.6924755806
 20
14378.1622302125
 10
10671.2086518044
 20
14377.0004164766
 10
10672.0379908318
 20
14375.9675871919
 10
10673.1357295746
 20
14375.1192938875
 10
10674.4427402253
 20
14374.5010745119
 10
10675.8885700936
 20
14374.1465460847
 10
10677.3951966996
 20
14374.0745436738
 10
10678.8814981217
 20
14374.2893588136
 10
10680.2673061127
 20
14374.7790705751
 10
10681.4778764481
 20
14375.517214496
 10
10682.4479420418
 20
14376.4642130922
 10
10683.125289225
 20
14377.5690447877
 10
10683.4733207459
 20
14378.7721049379
 10
10683.4733207459
 20
14380.0083052705
 10
10683.125289225
 20
14381.2111270021
 10
10682.4479420418
 20
14382.3159586976
 10
10681.4778764481
 20
14383.2629572938
 10
10680.2673061127
 20
14384.0013396333
 10
10678.8814981217
 20
14384.4910513948
 10
10677.3951966996
 20
14384.705628116
 10
10675.8885700936
 20
14384.6336257051
 10
10674.4427402253
 20
14384.279097278
 10
10673.1357295746
 20
14383.6611163209
 10
10672.0379908318
 20
14382.8125845979
 10
10671.2086518044
 20
14381.7797553132
 10
10670.6924755806
 20
14380.6179415773
 10
10670.5172975296
 20
14379.3900858949
  0
LWPOLYLINE
  5
181
330
1F
100
AcDbEntity
  8
0
  6
Continuous
 62
     7
 48
50.0
370
    25
100
AcDbPolyline
 90
       28
 70
   128
 43
0.0
 10
8363.5172565216
 20
14420.3477751802
 10
8363.342018866
 20
14421.5756308626
 10
8362.8258426422
 20
14422.7374445985
 10
8361.9966228241
 20
14423.7702738832
 10
8360.8988244767
 20
14424.6185671876
 10
8359.591813826
 20
14425.2367865632
 10
8358.1460435624
 20
14425.5913149904
 10
8356.6393573517
 20
14425.6633174013
 10
8355.1530559296
 20
14425.4485022615
 10
8353.7672479386
 20
14424.9587905
 10
8352.5566776032
 20
14424.2206465791
 10
8351.5865524048
 20
14423.2736479829
 10
8350.9093244309
 20
14422.1688162874
 10
8350.5612333054
 20
14420.9657561372
 10
8350.5612333054
 20
14419.7295558046
 10
8350.9093244309
 20
14418.526734073
 10
8351.5865524048
 20
14417.4219023774
 10
8352.5566776032
 20
14416.4749037813
 10
8353.7672479386
 20
14415.7365214418
 10
8355.1530559296
 20
14415.2470480989
 10
8356.6393573517
 20
14415.0322329591
 10
8358.1460435624
 20
14415.10423537
 10
8359.591813826
 20
14415.4587637971
 10
8360.8988244767
 20
14416.0767447542
 10
8361.9966228241
 20
14416.9252764772
 10
8362.8258426422
 20
14417.9581057618
 10
8363.342018866
 20
14419.1199194978
 10
8363.5172565216
 20
14420.3477751802
  0
LINE
  5
182
330
1F
100
AcDbEntity
  8
0
  6
Continuous
 62
     7
 48
50.0
370
    25
100
AcDbLine
 10
8332.0172746415
 20
14437.9595171998
 30
0.0
 11
8332.0172746415
 21
14361.7783438753
 31
0.0
  0
LINE
  5
183
330
1F
100
AcDbEntity
  8
0
  6
Continuous
 62
     7
 48
50.0
370
    25
100
AcDbLine
 10
10702.0172794098
 20
14437.9595171998
 30
0.0
 11
10702.0172794098
 21
14361.7783438753
 31
0.0
  0
LINE
  5
184
330
1F
100
AcDbEntity
  8
0
  6
Continuous
 62
     7
 48
50.0
370
    25
100
AcDbLine
 10
8332.0172746415
 20
14467.4979102205
 30
0.0
 11
8332.0172746415
 21
14442.8339850496
 31
0.0
  0
LINE
  5
185
330
1F
100
AcDbEntity
  8
0
  6
Continuous
 62
     7
 48
50.0
370
    25
100
AcDbLine
 10
10702.0172794098
 20
14467.4979102205
 30
0.0
 11
10702.0172794098
 21
14442.8339850496
 31
0.0
  0
LINE
  5
186
330
1F
100
AcDbEntity
  8
0
  6
Continuous
 62
     7
 48
50.0
370
    25
100
AcDbLine
 10
9526.5172739262
 20
14458.8940989564
 30
0.0
 11
9507.5172801251
 21
14458.8940989564
 31
0.0
  0
LINE
  5
187
330
1F
100
AcDbEntity
  8
0
  6
Continuous
 62
     7
 48
50.0
370
    25
100
AcDbLine
 10
9507.5172801251
 20
14451.4377963136
 30
0.0
 11
9526.5172739262
 21
14451.4377963136
 31
0.0
  0
LWPOLYLINE
  5
188
330
1F
100
AcDbEntity
  8
0
  6
Continuous
 62
     7
 48
50.0
370
    25
100
AcDbPolyline
 90
       15
 70
   128
 43
0.0
 10
10670.5385167832
 20
14420.7778822969
 10
10670.6924755806
 20
14419.9801337312
 10
10671.2086518044
 20
14418.8185584138
 10
10672.0379908318
 20
14417.7854907106
 10
10673.1357295746
 20
14416.9371974061
 10
10674.4427402253
 20
14416.3189780305
 10
10675.8885700936
 20
14415.9644496034
 10
10677.3951966996
 20
14415.8926856111
 10
10678.8814981217
 20
14416.1072623323
 10
10680.2673061127
 20
14416.5969740938
 10
10681.4778764481
 20
14417.3351180147
 10
10682.4479420418
 20
14418.2823550294
 10
10683.125289225
 20
14419.3869483064
 10
10683.4733207459
 20
14420.5900084566
 10
10683.4960301155
 20
14420.7778822969
  0
LWPOLYLINE
  5
189
330
1F
100
AcDbEntity
  8
0
  6
Continuous
 62
     7
 48
50.0
370
    25
100
AcDbPolyline
 90
       15
 70
   128
 43
0.0
 10
8350.5385835404
 20
14420.7778822969
 10
8350.5612333054
 20
14420.5900084566
 10
8350.9093244309
 20
14419.3869483064
 10
8351.5865524048
 20
14418.2823550294
 10
8352.5566776032
 20
14417.3351180147
 10
8353.7672479386
 20
14416.5969740938
 10
8355.1530559296
 20
14416.1072623323
 10
8356.6393573517
 20
14415.8926856111
 10
8358.1460435624
 20
14415.9644496034
 10
8359.591813826
 20
14416.3189780305
 10
8360.8988244767
 20
14416.9371974061
 10
8361.9966228241
 20
14417.7854907106
 10
8362.8258426422
 20
14418.8185584138
 10
8363.342018866
 20
14419.9801337312
 10
8363.4960372681
 20
14420.7778822969
  0
LINE
  5
18A
330
1F
100
AcDbEntity
  8
0
  6
Continuous
 62
     7
 48
50.0
370
    25
100
AcDbLine
 10
9526.5172739262
 20
14457.6655280183
 30
0.0
 11
9507.5172801251
 21
14457.6655280183
 31
0.0
  0
LINE
  5
18B
330
1F
100
AcDbEntity
  8
0
  6
Continuous
 62
     7
 48
50.0
370
    25
100
AcDbLine
 10
8332.0172746415
 20
14468.130911548
 30
0.0
 11
8332.0172746415
 21
14467.4979102205
 31
0.0
  0
LINE
  5
18C
330
1F
100
AcDbEntity
  8
0
  6
Continuous
 62
     7
 48
50.0
370
    25
100
AcDbLine
 10
10702.0172794098
 20
14468.130911548
 30
0.0
 11
10702.0172794098
 21
14467.4979102205
 31
0.0
  0
LWPOLYLINE
  5
18D
330
1F
100
AcDbEntity
  8
0
  6
Continuous
 62
     7
 48
50.0
370
    25
100
AcDbPolyline
 90
       15
 70
   128
 43
0.0
 10
10670.5385167832
 20
14379.8204314302
 10
10670.6924755806
 20
14379.0226828645
 10
10671.2086518044
 20
14377.8608691285
 10
10672.0379908318
 20
14376.8280398439
 10
10673.1357295746
 20
14375.9795081209
 10
10674.4427402253
 20
14375.3615271638
 10
10675.8885700936
 20
14375.0069987367
 10
10677.3951966996
 20
14374.9349963258
 10
10678.8814981217
 20
14375.1498114656
 10
10680.2673061127
 20
14375.6392848085
 10
10681.4778764481
 20
14376.377667148
 10
10682.4479420418
 20
14377.3246657442
 10
10683.125289225
 20
14378.4294974397
 10
10683.4733207459
 20
14379.6323191713
 10
10683.4960301155
 20
14379.8204314302
  0
LWPOLYLINE
  5
18E
330
1F
100
AcDbEntity
  8
0
  6
Continuous
 62
     7
 48
50.0
370
    25
100
AcDbPolyline
 90
       15
 70
   128
 43
0.0
 10
8350.5385835404
 20
14379.8204314302
 10
8350.5612333054
 20
14379.6323191713
 10
8350.9093244309
 20
14378.4294974397
 10
8351.5865524048
 20
14377.3246657442
 10
8352.5566776032
 20
14376.377667148
 10
8353.7672479386
 20
14375.6392848085
 10
8355.1530559296
 20
14375.1498114656
 10
8356.6393573517
 20
14374.9349963258
 10
8358.1460435624
 20
14375.0069987367
 10
8359.591813826
 20
14375.3615271638
 10
8360.8988244767
 20
14375.9795081209
 10
8361.9966228241
 20
14376.8280398439
 10
8362.8258426422
 20
14377.8608691285
 10
8363.342018866
 20
14379.0226828645
 10
8363.4960372681
 20
14379.8204314302
  0
LINE
  5
18F
330
1F
100
AcDbEntity
  8
0
  6
Continuous
 62
     7
 48
50.0
370
    25
100
AcDbLine
 10
9507.5172801251
 20
14452.2620093416
 30
0.0
 11
9526.5172739262
 21
14452.2620093416
 31
0.0
  0
LINE
  5
190
330
1F
100
AcDbEntity
  8
0
  6
Continuous
 62
     7
 48
50.0
370
    25
100
AcDbLine
 10
10702.0172794098
 20
14361.7783438753
 30
0.0
 11
10702.0172794098
 21
14360.2858435701
 31
0.0
  0
LINE
  5
191
330
1F
100
AcDbEntity
  8
0
  6
Continuous
 62
     7
 48
50.0
370
    25
100
AcDbLine
 10
8332.0172746415
 20
14360.2858435701
 30
0.0
 11
8332.0172746415
 21
14361.7783438753
 31
0.0
  0
LINE
  5
192
330
1F
100
AcDbEntity
  8
0
  6
Continuous
 62
     7
 48
50.0
370
    25
100
AcDbLine
 10
8672.0173080201
 20
12170.0374137948
 30
0.0
 11
8672.0173080201
 21
10240.2698647569
 31
0.0
  0
LINE
  5
193
330
1F
100
AcDbEntity
  8
0
  6
Continuous
 62
     7
 48
50.0
370
    25
100
AcDbLine
 10
8672.0173080201
 20
10240.2698647569
 30
0.0
 11
8667.5172765488
 21
10240.2698647569
 31
0.0
  0
LINE
  5
194
330
1F
100
AcDbEntity
  8
0
  6
Continuous
 62
     7
 48
50.0
370
    25
100
AcDbLine
 10
8667.5172765488
 20
10240.2698647569
 30
0.0
 11
8616.5172775025
 21
10240.2698647569
 31
0.0
  0
LINE
  5
195
330
1F
100
AcDbEntity
  8
0
  6
Continuous
 62
     7
 48
50.0
370
    25
100
AcDbLine
 10
8612.0172460312
 20
12170.0374137948
 30
0.0
 11
8612.0172460312
 21
10240.2698647569
 31
0.0
  0
LINE
  5
196
330
1F
100
AcDbEntity
  8
0
  6
Continuous
 62
     7
 48
50.0
370
    25
100
AcDbLine
 10
8616.5172775025
 20
10240.2698647569
 30
0.0
 11
8612.0172460312
 21
10240.2698647569
 31
0.0
  0
LINE
  5
197
330
1F
100
AcDbEntity
  8
0
  6
Continuous
 62
     7
 48
50.0
370
    25
100
AcDbLine
 10
10542.0172531838
 20
12170.0374137948
 30
0.0
 11
10542.0172531838
 21
10240.2698647569
 31
0.0
  0
LINE
  5
198
330
1F
100
AcDbEntity
  8
0
  6
Continuous
 62
     7
 48
50.0
370
    25
100
AcDbLine
 10
10542.0172531838
 20
10240.2698647569
 30
0.0
 11
10537.5172813172
 21
10240.2698647569
 31
0.0
  0
LINE
  5
199
330
1F
100
AcDbEntity
  8
0
  6
Continuous
 62
     7
 48
50.0
370
    25
100
AcDbLine
 10
10537.5172813172
 20
10240.2698647569
 30
0.0
 11
10486.5172822708
 21
10240.2698647569
 31
0.0
  0
LINE
  5
19A
330
1F
100
AcDbEntity
  8
0
  6
Continuous
 62
     7
 48
50.0
370
    25
100
AcDbLine
 10
10482.0172507996
 20
12170.0374137948
 30
0.0
 11
10482.0172507996
 21
10240.2698647569
 31
0.0
  0
LINE
  5
19B
330
1F
100
AcDbEntity
  8
0
  6
Continuous
 62
     7
 48
50.0
370
    25
100
AcDbLine
 10
10486.5172822708
 20
10240.2698647569
 30
0.0
 11
10482.0172507996
 21
10240.2698647569
 31
0.0
  0
LINE
  5
19C
330
1F
100
AcDbEntity
  8
0
  6
Continuous
 62
     8
 48
50.0
370
    25
100
AcDbLine
 10
8332.0172746415
 20
13227.425540645
 30
0.0
 11
8367.6172216172
 21
13227.425540645
 31
0.0
  0
LINE
  5
19D
330
1F
100
AcDbEntity
  8
0
  6
Continuous
 62
     8
 48
50.0
370
    25
100
AcDbLine
 10
8332.0172746415
 20
13222.5510727952
 30
0.0
 11
8367.6172216172
 21
13222.5510727952
 31
0.0
  0
LINE
  5
19E
330
1F
100
AcDbEntity
  8
0
  6
Continuous
 62
     8
 48
50.0
370
    25
100
AcDbLine
 10
9507.4172933335
 20
13227.425540645
 30
0.0
 11
9526.6172905201
 21
13227.425540645
 31
0.0
  0
LINE
  5
19F
330
1F
100
AcDbEntity
  8
0
  6
Continuous
 62
     8
 48
50.0
370
    25
100
AcDbLine
 10
9507.4172933335
 20
13222.5510727952
 30
0.0
 11
9526.6172905201
 21
13222.5510727952
 31
0.0
  0
LINE
  5
1A0
330
1F
100
AcDbEntity
  8
0
  6
Continuous
 62
     8
 48
50.0
370
    25
100
AcDbLine
 10
10666.4172728295
 20
13222.5510727952
 30
0.0
 11
10702.0172794098
 21
13222.5510727952
 31
0.0
  0
LINE
  5
1A1
330
1F
100
AcDbEntity
  8
0
  6
Continuous
 62
     8
 48
50.0
370
    25
100
AcDbLine
 10
10666.4172728295
 20
13227.425540645
 30
0.0
 11
10702.0172794098
 21
13227.425540645
 31
0.0
  0
LINE
  5
1A2
330
1F
100
AcDbEntity
  8
0
  6
Continuous
 62
     8
 48
50.0
370
    25
100
AcDbLine
 10
8332.0172746415
 20
13146.3698994707
 30
0.0
 11
8367.5173242325
 21
13146.3698994707
 31
0.0
  0
LINE
  5
1A3
330
1F
100
AcDbEntity
  8
0
  6
Continuous
 62
     8
 48
50.0
370
    25
100
AcDbLine
 10
10666.5172894234
 20
13146.3698994707
 30
0.0
 11
10702.0172794098
 21
13146.3698994707
 31
0.0
  0
LINE
  5
1A4
330
1F
100
AcDbEntity
  8
0
  6
Continuous
 62
     8
 48
50.0
370
    25
100
AcDbLine
 10
9507.5172801251
 20
13146.3698994707
 30
0.0
 11
9526.5172739262
 21
13146.3698994707
 31
0.0
  0
LINE
  5
1A5
330
1F
100
AcDbEntity
  8
0
  6
Continuous
 62
     8
 48
50.0
370
    25
100
AcDbLine
 10
8332.0172746415
 20
13252.0893466066
 30
0.0
 11
8367.6172216172
 21
13252.0893466066
 31
0.0
  0
LINE
  5
1A6
330
1F
100
AcDbEntity
  8
0
  6
Continuous
 62
     8
 48
50.0
370
    25
100
AcDbLine
 10
9507.4172933335
 20
13252.0893466066
 30
0.0
 11
9526.6172905201
 21
13252.0893466066
 31
0.0
  0
LINE
  5
1A7
330
1F
100
AcDbEntity
  8
0
  6
Continuous
 62
     8
 48
50.0
370
    25
100
AcDbLine
 10
10666.4172728295
 20
13252.0893466066
 30
0.0
 11
10702.0172794098
 21
13252.0893466066
 31
0.0
  0
LINE
  5
1A8
330
1F
100
AcDbEntity
  8
0
  6
Continuous
 62
     8
 48
50.0
370
    25
100
AcDbLine
 10
9507.5172801251
 20
13662.1964823793
 30
0.0
 11
9526.5172739262
 21
13662.1964823793
 31
0.0
  0
LINE
  5
1A9
330
1F
100
AcDbEntity
  8
0
  6
Continuous
 62
     8
 48
50.0
370
    25
100
AcDbLine
 10
9507.5172801251
 20
13657.3220145295
 30
0.0
 11
9526.5172739262
 21
13657.3220145295
 31
0.0
  0
LINE
  5
1AA
330
1F
100
AcDbEntity
  8
0
  6
Continuous
 62
     8
 48
50.0
370
    25
100
AcDbLine
 10
8332.0172746415
 20
13662.1964823793
 30
0.0
 11
8367.5173242325
 21
13662.1964823793
 31
0.0
  0
LINE
  5
1AB
330
1F
100
AcDbEntity
  8
0
  6
Continuous
 62
     8
 48
50.0
370
    25
100
AcDbLine
 10
8332.0172746415
 20
13657.3220145295
 30
0.0
 11
8367.5173242325
 21
13657.3220145295
 31
0.0
  0
LINE
  5
1AC
330
1F
100
AcDbEntity
  8
0
  6
Continuous
 62
     8
 48
50.0
370
    25
100
AcDbLine
 10
10666.5172894234
 20
13657.3220145295
 30
0.0
 11
10702.0172794098
 21
13657.3220145295
 31
0.0
  0
LINE
  5
1AD
330
1F
100
AcDbEntity
  8
0
  6
Continuous
 62
     8
 48
50.0
370
    25
100
AcDbLine
 10
10666.5172894234
 20
13662.1964823793
 30
0.0
 11
10702.0172794098
 21
13662.1964823793
 31
0.0
  0
LINE
  5
1AE
330
1F
100
AcDbEntity
  8
0
  6
Continuous
 62
     8
 48
50.0
370
    25
100
AcDbLine
 10
8332.0172746415
 20
13581.140841205
 30
0.0
 11
8367.5173242325
 21
13581.140841205
 31
0.0
  0
LINE
  5
1AF
330
1F
100
AcDbEntity
  8
0
  6
Continuous
 62
     8
 48
50.0
370
    25
100
AcDbLine
 10
10666.5172894234
 20
13581.140841205
 30
0.0
 11
10702.0172794098
 21
13581.140841205
 31
0.0
  0
LINE
  5
1B0
330
1F
100
AcDbEntity
  8
0
  6
Continuous
 62
     8
 48
50.0
370
    25
100
AcDbLine
 10
9507.5172801251
 20
13581.140841205
 30
0.0
 11
9526.5172739262
 21
13581.140841205
 31
0.0
  0
LINE
  5
1B1
330
1F
100
AcDbEntity
  8
0
  6
Continuous
 62
     8
 48
50.0
370
    25
100
AcDbLine
 10
8332.0172746415
 20
13686.8604075502
 30
0.0
 11
8367.6172216172
 21
13686.8604075502
 31
0.0
  0
LINE
  5
1B2
330
1F
100
AcDbEntity
  8
0
  6
Continuous
 62
     8
 48
50.0
370
    25
100
AcDbLine
 10
9507.4172933335
 20
13686.8604075502
 30
0.0
 11
9526.6172905201
 21
13686.8604075502
 31
0.0
  0
LINE
  5
1B3
330
1F
100
AcDbEntity
  8
0
  6
Continuous
 62
     8
 48
50.0
370
    25
100
AcDbLine
 10
10666.4172728295
 20
13686.8604075502
 30
0.0
 11
10702.0172794098
 21
13686.8604075502
 31
0.0
  0
LINE
  5
1B4
330
1F
100
AcDbEntity
  8
0
  6
Continuous
 62
     8
 48
50.0
370
    25
100
AcDbLine
 10
9507.4172933335
 20
12446.7880379747
 30
0.0
 11
9526.6172905201
 21
12446.7880379747
 31
0.0
  0
LINE
  5
1B5
330
1F
100
AcDbEntity
  8
0
  6
Continuous
 62
     8
 48
50.0
370
    25
100
AcDbLine
 10
9507.4172933335
 20
12441.9135105203
 30
0.0
 11
9526.6172905201
 21
12441.9135105203
 31
0.0
  0
LINE
  5
1B6
330
1F
100
AcDbEntity
  8
0
  6
Continuous
 62
     8
 48
50.0
370
    25
100
AcDbLine
 10
8332.0172746415
 20
12446.7880379747
 30
0.0
 11
8367.6172216172
 21
12446.7880379747
 31
0.0
  0
LINE
  5
1B7
330
1F
100
AcDbEntity
  8
0
  6
Continuous
 62
     8
 48
50.0
370
    25
100
AcDbLine
 10
8332.0172746415
 20
12441.9135105203
 30
0.0
 11
8367.6172216172
 21
12441.9135105203
 31
0.0
  0
LINE
  5
1B8
330
1F
100
AcDbEntity
  8
0
  6
Continuous
 62
     8
 48
50.0
370
    25
100
AcDbLine
 10
10666.4172728295
 20
12441.9135105203
 30
0.0
 11
10702.0172794098
 21
12441.9135105203
 31
0.0
  0
LINE
  5
1B9
330
1F
100
AcDbEntity
  8
0
  6
Continuous
 62
     8
 48
50.0
370
    25
100
AcDbLine
 10
10666.4172728295
 20
12446.7880379747
 30
0.0
 11
10702.0172794098
 21
12446.7880379747
 31
0.0
  0
LINE
  5
1BA
330
1F
100
AcDbEntity
  8
0
  6
Continuous
 62
     8
 48
50.0
370
    25
100
AcDbLine
 10
8332.0172746415
 20
12365.7323371957
 30
0.0
 11
8367.5173242325
 21
12365.7323371957
 31
0.0
  0
LINE
  5
1BB
330
1F
100
AcDbEntity
  8
0
  6
Continuous
 62
     8
 48
50.0
370
    25
100
AcDbLine
 10
10666.5172894234
 20
12365.7323371957
 30
0.0
 11
10702.0172794098
 21
12365.7323371957
 31
0.0
  0
LINE
  5
1BC
330
1F
100
AcDbEntity
  8
0
  6
Continuous
 62
     8
 48
50.0
370
    25
100
AcDbLine
 10
9507.5172801251
 20
12365.7323371957
 30
0.0
 11
9526.5172739262
 21
12365.7323371957
 31
0.0
  0
LINE
  5
1BD
330
1F
100
AcDbEntity
  8
0
  6
Continuous
 62
     8
 48
50.0
370
    25
100
AcDbLine
 10
8332.0172746415
 20
12471.4518439363
 30
0.0
 11
8367.6172216172
 21
12471.4518439363
 31
0.0
  0
LINE
  5
1BE
330
1F
100
AcDbEntity
  8
0
  6
Continuous
 62
     8
 48
50.0
370
    25
100
AcDbLine
 10
9507.4172933335
 20
12471.4518439363
 30
0.0
 11
9526.6172905201
 21
12471.4518439363
 31
0.0
  0
LINE
  5
1BF
330
1F
100
AcDbEntity
  8
0
  6
Continuous
 62
     8
 48
50.0
370
    25
100
AcDbLine
 10
10666.4172728295
 20
12471.4518439363
 30
0.0
 11
10702.0172794098
 21
12471.4518439363
 31
0.0
  0
LINE
  5
1C0
330
1F
100
AcDbEntity
  8
0
  6
Continuous
 62
     8
 48
50.0
370
    25
100
AcDbLine
 10
9507.5172801251
 20
14442.8339850496
 30
0.0
 11
9526.5172739262
 21
14442.8339850496
 31
0.0
  0
LINE
  5
1C1
330
1F
100
AcDbEntity
  8
0
  6
Continuous
 62
     8
 48
50.0
370
    25
100
AcDbLine
 10
9507.5172801251
 20
14437.9595171998
 30
0.0
 11
9526.5172739262
 21
14437.9595171998
 31
0.0
  0
LINE
  5
1C2
330
1F
100
AcDbEntity
  8
0
  6
Continuous
 62
     8
 48
50.0
370
    25
100
AcDbLine
 10
8332.0172746415
 20
14442.8339850496
 30
0.0
 11
8367.5173242325
 21
14442.8339850496
 31
0.0
  0
LINE
  5
1C3
330
1F
100
AcDbEntity
  8
0
  6
Continuous
 62
     8
 48
50.0
370
    25
100
AcDbLine
 10
8332.0172746415
 20
14437.9595171998
 30
0.0
 11
8367.5173242325
 21
14437.9595171998
 31
0.0
  0
LINE
  5
1C4
330
1F
100
AcDbEntity
  8
0
  6
Continuous
 62
     8
 48
50.0
370
    25
100
AcDbLine
 10
10666.5172894234
 20
14437.9595171998
 30
0.0
 11
10702.0172794098
 21
14437.9595171998
 31
0.0
  0
LINE
  5
1C5
330
1F
100
AcDbEntity
  8
0
  6
Continuous
 62
     8
 48
50.0
370
    25
100
AcDbLine
 10
10666.5172894234
 20
14442.8339850496
 30
0.0
 11
10702.0172794098
 21
14442.8339850496
 31
0.0
  0
LINE
  5
1C6
330
1F
100
AcDbEntity
  8
0
  6
Continuous
 62
     8
 48
50.0
370
    25
100
AcDbLine
 10
8332.0172746415
 20
14361.7783438753
 30
0.0
 11
8367.5173242325
 21
14361.7783438753
 31
0.0
  0
LINE
  5
1C7
330
1F
100
AcDbEntity
  8
0
  6
Continuous
 62
     8
 48
50.0
370
    25
100
AcDbLine
 10
10666.5172894234
 20
14361.7783438753
 30
0.0
 11
10702.0172794098
 21
14361.7783438753
 31
0.0
  0
LINE
  5
1C8
330
1F
100
AcDbEntity
  8
0
  6
Continuous
 62
     8
 48
50.0
370
    25
100
AcDbLine
 10
9507.5172801251
 20
14361.7783438753
 30
0.0
 11
9526.5172739262
 21
14361.7783438753
 31
0.0
  0
LINE
  5
1C9
330
1F
100
AcDbEntity
  8
0
  6
Continuous
 62
     8
 48
50.0
370
    25
100
AcDbLine
 10
8332.0172746415
 20
14467.4979102205
 30
0.0
 11
8367.5173242325
 21
14467.4979102205
 31
0.0
  0
LINE
  5
1CA
330
1F
100
AcDbEntity
  8
0
  6
Continuous
 62
     8
 48
50.0
370
    25
100
AcDbLine
 10
9507.5172801251
 20
14467.4979102205
 30
0.0
 11
9526.5172739262
 21
14467.4979102205
 31
0.0
  0
LINE
  5
1CB
330
1F
100
AcDbEntity
  8
0
  6
Continuous
 62
     8
 48
50.0
370
    25
100
AcDbLine
 10
10666.5172894234
 20
14467.4979102205
 30
0.0
 11
10702.0172794098
 21
14467.4979102205
 31
0.0
  0
LINE
  5
1CC
330
1F
100
AcDbEntity
  8
0
  6
Continuous
 62
     8
 48
50.0
370
    25
100
AcDbLine
 10
8667.5172765488
 20
12170.0374137948
 30
0.0
 11
8667.5172765488
 21
10240.2698647569
 31
0.0
  0
LINE
  5
1CD
330
1F
100
AcDbEntity
  8
0
  6
Continuous
 62
     8
 48
50.0
370
    25
100
AcDbLine
 10
8616.5172775025
 20
12170.0374137948
 30
0.0
 11
8616.5172775025
 21
10240.2698647569
 31
0.0
  0
LINE
  5
1CE
330
1F
100
AcDbEntity
  8
0
  6
Continuous
 62
     8
 48
50.0
370
    25
100
AcDbLine
 10
10537.5172813172
 20
12170.0374137948
 30
0.0
 11
10537.5172813172
 21
10240.2698647569
 31
0.0
  0
LINE
  5
1CF
330
1F
100
AcDbEntity
  8
0
  6
Continuous
 62
     8
 48
50.0
370
    25
100
AcDbLine
 10
10486.5172822708
 20
12170.0374137948
 30
0.0
 11
10486.5172822708
 21
10240.2698647569
 31
0.0
  0
POINT
  5
1D0
330
1F
100
AcDbEntity
  8
0
  6
Continuous
 62
     7
 48
50.0
370
     0
100
AcDbPoint
 10
10512.0172794098
 20
10240.2698409154
 30
0.0
  0
DIMENSION
  5
1D1
330
1F
100
AcDbEntity
  8
0
  6
Continuous
 62
     7
 48
50.0
370
    18
100
AcDbDimension
  2
_D
 10
9507.5172794007
 20
15178.1366656887
 30
0.0
 11
8942.6245771814
 21
15178.1366656888
 31
0.0
 70
   160
  1
<>
 71
     2
 42
-1.0
  3
SLDDIMSTYLE0
100
AcDbAlignedDimension
 13
8367.5172794006
 23
14293.1615581398
 33
0.0
 14
9507.5172794005
 24
14293.1615581398
 34
0.0
 50
0.0
100
AcDbRotatedDimension
  0
DIMENSION
  5
1DD
330
1F
100
AcDbEntity
  8
0
  6
Continuous
 62
     7
 48
50.0
370
    18
100
AcDbDimension
  2
_D_1
 10
10512.0172794098
 20
9756.436996476
 30
0.0
 11
9512.5551974353
 21
9756.436996476
 31
0.0
 70
   160
  1
<>
 71
     2
 42
-1.0
  3
SLDDIMSTYLE0
100
AcDbAlignedDimension
 13
8642.0172794098
 23
12270.2698409152
 33
0.0
 14
10512.0172794098
 24
12270.2698409152
 34
0.0
100
AcDbRotatedDimension
  0
LINE
  5
1E7
330
1F
100
AcDbEntity
  8
0
  6
Continuous
 62
     7
 48
50.0
370
    25
100
AcDbLine
 10
15669.4546435601
 20
12366.2727725099
 30
0.0
 11
15902.9122088677
 21
12202.8035175393
 31
0.0
  0
LINE
  5
1E8
330
1F
100
AcDbEntity
  8
0
  6
Continuous
 62
     7
 48
50.0
370
    25
100
AcDbLine
 10
15646.5111468559
 20
12333.50672837
 30
0.0
 11
15879.9706195122
 21
12170.0374137948
 31
0.0
  0
LINE
  5
1E9
330
1F
100
AcDbEntity
  8
0
  6
Continuous
 62
     7
 48
50.0
370
    25
100
AcDbLine
 10
15646.5111468559
 20
12333.50672837
 30
0.0
 11
15669.4546435601
 21
12366.2727725099
 31
0.0
  0
LINE
  5
1EA
330
1F
100
AcDbEntity
  8
0
  6
Continuous
 62
     7
 48
50.0
370
    25
100
AcDbLine
 10
15879.9706195122
 20
12170.0374137948
 30
0.0
 11
15902.9122088677
 21
12202.8035175393
 31
0.0
  0
LINE
  5
1EB
330
1F
100
AcDbEntity
  8
0
  6
Continuous
 62
     7
 48
50.0
370
    25
100
AcDbLine
 10
14479.2195056206
 20
13150.8531224321
 30
0.0
 11
14502.1630023247
 21
13183.6192261766
 31
0.0
  0
LINE
  5
1EC
330
1F
100
AcDbEntity
  8
0
  6
Continuous
 62
     7
 48
50.0
370
    25
100
AcDbLine
 10
15435.9951709038
 20
12529.7420870851
 30
0.0
 11
15413.0535815483
 21
12496.9759833406
 31
0.0
  0
LINE
  5
1ED
330
1F
100
AcDbEntity
  8
0
  6
Continuous
 62
     7
 48
50.0
370
    25
100
AcDbLine
 10
14479.2195056206
 20
13150.8531224321
 30
0.0
 11
15413.0535815483
 21
12496.9759833406
 31
0.0
  0
LINE
  5
1EE
330
1F
100
AcDbEntity
  8
0
  6
Continuous
 62
     7
 48
50.0
370
    25
100
AcDbLine
 10
14502.1630023247
 20
13183.6192261766
 30
0.0
 11
15435.9951709038
 21
12529.7420870851
 31
0.0
  0
LINE
  5
1EF
330
1F
100
AcDbEntity
  8
0
  6
Continuous
 62
     7
 48
50.0
370
    25
100
AcDbLine
 10
14012.3024676567
 20
13477.7917515825
 30
0.0
 11
14035.2459643608
 21
13510.5577361177
 31
0.0
  0
LINE
  5
1F0
330
1F
100
AcDbEntity
  8
0
  6
Continuous
 62
     7
 48
50.0
370
    25
100
AcDbLine
 10
14268.7035296684
 20
13347.0885407518
 30
0.0
 11
14245.761940313
 21
13314.3224370073
 31
0.0
  0
LINE
  5
1F1
330
1F
100
AcDbEntity
  8
0
  6
Continuous
 62
     7
 48
50.0
370
    25
100
AcDbLine
 10
14012.3024676567
 20
13477.7917515825
 30
0.0
 11
14245.761940313
 21
13314.3224370073
 31
0.0
  0
LINE
  5
1F2
330
1F
100
AcDbEntity
  8
0
  6
Continuous
 62
     7
 48
50.0
370
    25
100
AcDbLine
 10
14035.2459643608
 20
13510.5577361177
 30
0.0
 11
14268.7035296684
 21
13347.0885407518
 31
0.0
  0
LINE
  5
1F3
330
1F
100
AcDbEntity
  8
0
  6
Continuous
 62
     7
 48
50.0
370
    25
100
AcDbLine
 10
15413.0535815483
 20
12496.9759833406
 30
0.0
 11
15449.50492127
 21
12471.4518439363
 31
0.0
  0
LINE
  5
1F4
330
1F
100
AcDbEntity
  8
0
  6
Continuous
 62
     7
 48
50.0
370
    25
100
AcDbLine
 10
15484.7279284722
 20
12446.7880379747
 30
0.0
 11
15646.5111468559
 21
12333.50672837
 31
0.0
  0
LINE
  5
1F5
330
1F
100
AcDbEntity
  8
0
  6
Continuous
 62
     7
 48
50.0
370
    25
100
AcDbLine
 10
15669.4546435601
 20
12366.2727725099
 30
0.0
 11
15435.9951709038
 21
12529.7420870851
 31
0.0
  0
LINE
  5
1F6
330
1F
100
AcDbEntity
  8
0
  6
Continuous
 62
     7
 48
50.0
370
    25
100
AcDbLine
 10
14245.761940313
 20
13314.3224370073
 30
0.0
 11
14334.6386645561
 21
13252.0893466066
 31
0.0
  0
LINE
  5
1F7
330
1F
100
AcDbEntity
  8
0
  6
Continuous
 62
     7
 48
50.0
370
    25
100
AcDbLine
 10
14369.8635791069
 20
13227.425540645
 30
0.0
 11
14479.2195056206
 21
13150.8531224321
 31
0.0
  0
LINE
  5
1F8
330
1F
100
AcDbEntity
  8
0
  6
Continuous
 62
     7
 48
50.0
370
    25
100
AcDbLine
 10
14502.1630023247
 20
13183.6192261766
 30
0.0
 11
14268.7035296684
 21
13347.0885407518
 31
0.0
  0
LINE
  5
1F9
330
1F
100
AcDbEntity
  8
0
  6
Continuous
 62
     7
 48
50.0
370
    25
100
AcDbLine
 10
13786.2244342095
 20
13684.924925525
 30
0.0
 11
14019.6819995171
 21
13521.4557301591
 31
0.0
  0
LINE
  5
1FA
330
1F
100
AcDbEntity
  8
0
  6
Continuous
 62
     7
 48
50.0
370
    25
100
AcDbLine
 10
13763.2809375054
 20
13652.1588217805
 30
0.0
 11
13996.738502813
 21
13488.6896264146
 31
0.0
  0
LINE
  5
1FB
330
1F
100
AcDbEntity
  8
0
  6
Continuous
 62
     7
 48
50.0
370
    25
100
AcDbLine
 10
13763.2809375054
 20
13652.1588217805
 30
0.0
 11
13786.2244342095
 21
13684.924925525
 31
0.0
  0
LINE
  5
1FC
330
1F
100
AcDbEntity
  8
0
  6
Continuous
 62
     7
 48
50.0
370
    25
100
AcDbLine
 10
13996.738502813
 20
13488.6896264146
 30
0.0
 11
14019.6819995171
 21
13521.4557301591
 31
0.0
  0
LINE
  5
1FD
330
1F
100
AcDbEntity
  8
0
  6
Continuous
 62
     7
 48
50.0
370
    25
100
AcDbLine
 10
12595.98929627
 20
14469.5053946565
 30
0.0
 11
12618.9327929741
 21
14502.271498401
 31
0.0
  0
LINE
  5
1FE
330
1F
100
AcDbEntity
  8
0
  6
Continuous
 62
     7
 48
50.0
370
    25
100
AcDbLine
 10
13552.7649615532
 20
13848.3942401002
 30
0.0
 11
13529.8233721977
 21
13815.6281363557
 31
0.0
  0
LINE
  5
1FF
330
1F
100
AcDbEntity
  8
0
  6
Continuous
 62
     7
 48
50.0
370
    25
100
AcDbLine
 10
12595.98929627
 20
14469.5053946565
 30
0.0
 11
12598.8560412651
 21
14467.4979102205
 31
0.0
  0
LINE
  5
200
330
1F
100
AcDbEntity
  8
0
  6
Continuous
 62
     7
 48
50.0
370
    25
100
AcDbLine
 10
12634.0790484673
 20
14442.8339850496
 30
0.0
 11
13529.8233721977
 21
13815.6281363557
 31
0.0
  0
LINE
  5
201
330
1F
100
AcDbEntity
  8
0
  6
Continuous
 62
     7
 48
50.0
370
    25
100
AcDbLine
 10
12618.9327929741
 20
14502.271498401
 30
0.0
 11
13552.7649615532
 21
13848.3942401002
 31
0.0
  0
LINE
  5
202
330
1F
100
AcDbEntity
  8
0
  6
Continuous
 62
     7
 48
50.0
370
    25
100
AcDbLine
 10
12129.0722583061
 20
14796.4440238069
 30
0.0
 11
12152.0157550102
 21
14829.2101275514
 31
0.0
  0
LINE
  5
203
330
1F
100
AcDbEntity
  8
0
  6
Continuous
 62
     7
 48
50.0
370
    25
100
AcDbLine
 10
12385.4733203179
 20
14665.7408129762
 30
0.0
 11
12362.5317309624
 21
14632.9747092317
 31
0.0
  0
LINE
  5
204
330
1F
100
AcDbEntity
  8
0
  6
Continuous
 62
     7
 48
50.0
370
    25
100
AcDbLine
 10
12129.0722583061
 20
14796.4440238069
 30
0.0
 11
12362.5317309624
 21
14632.9747092317
 31
0.0
  0
LINE
  5
205
330
1F
100
AcDbEntity
  8
0
  6
Continuous
 62
     7
 48
50.0
370
    25
100
AcDbLine
 10
12152.0157550102
 20
14829.2101275514
 30
0.0
 11
12385.4733203179
 21
14665.7408129762
 31
0.0
  0
LINE
  5
206
330
1F
100
AcDbEntity
  8
0
  6
Continuous
 62
     7
 48
50.0
370
    25
100
AcDbLine
 10
13529.8233721977
 20
13815.6281363557
 30
0.0
 11
13713.722297979
 21
13686.8604075502
 31
0.0
  0
LINE
  5
207
330
1F
100
AcDbEntity
  8
0
  6
Continuous
 62
     7
 48
50.0
370
    25
100
AcDbLine
 10
13748.9453051811
 20
13662.1964823793
 30
0.0
 11
13763.2809375054
 21
13652.1588217805
 31
0.0
  0
LINE
  5
208
330
1F
100
AcDbEntity
  8
0
  6
Continuous
 62
     7
 48
50.0
370
    25
100
AcDbLine
 10
13786.2244342095
 20
13684.924925525
 30
0.0
 11
13552.7649615532
 21
13848.3942401002
 31
0.0
  0
LINE
  5
209
330
1F
100
AcDbEntity
  8
0
  6
Continuous
 62
     7
 48
50.0
370
    25
100
AcDbLine
 10
12362.5317309624
 20
14632.9747092317
 30
0.0
 11
12595.98929627
 21
14469.5053946565
 31
0.0
  0
LINE
  5
20A
330
1F
100
AcDbEntity
  8
0
  6
Continuous
 62
     7
 48
50.0
370
    25
100
AcDbLine
 10
12618.9327929741
 20
14502.271498401
 30
0.0
 11
12385.4733203179
 21
14665.7408129762
 31
0.0
  0
LINE
  5
20B
330
1F
100
AcDbEntity
  8
0
  6
Continuous
 62
     7
 48
50.0
370
    25
100
AcDbLine
 10
12922.9260180718
 20
12500.2698552202
 30
0.0
 11
12922.9260180718
 21
12340.2698289941
 31
0.0
  0
LINE
  5
20C
330
1F
100
AcDbEntity
  8
0
  6
Continuous
 62
     7
 48
50.0
370
    25
100
AcDbLine
 10
12998.426506353
 20
12500.2698552202
 30
0.0
 11
12922.9260180718
 21
12500.2698552202
 31
0.0
  0
LINE
  5
20D
330
1F
100
AcDbEntity
  8
0
  6
Continuous
 62
     7
 48
50.0
370
    25
100
AcDbLine
 10
13018.4269641167
 20
12480.269814689
 30
0.0
 11
12998.426506353
 21
12500.2698552202
 31
0.0
  0
LINE
  5
20E
330
1F
100
AcDbEntity
  8
0
  6
Continuous
 62
     7
 48
50.0
370
    25
100
AcDbLine
 10
13018.4269641167
 20
12480.269814689
 30
0.0
 11
13018.4269641167
 21
12360.2698695253
 31
0.0
  0
LINE
  5
20F
330
1F
100
AcDbEntity
  8
0
  6
Continuous
 62
     7
 48
50.0
370
    25
100
AcDbLine
 10
12998.426506353
 20
12340.2698289941
 30
0.0
 11
13018.4269641167
 21
12360.2698695253
 31
0.0
  0
LINE
  5
210
330
1F
100
AcDbEntity
  8
0
  6
Continuous
 62
     7
 48
50.0
370
    25
100
AcDbLine
 10
12998.426506353
 20
12340.2698289941
 30
0.0
 11
12922.9260180718
 21
12340.2698289941
 31
0.0
  0
CIRCLE
  5
211
330
1F
100
AcDbEntity
  8
0
  6
Continuous
 62
     7
 48
2500.0
370
    25
100
AcDbCircle
 10
12983.4264300594
 20
12420.2698409149
 30
0.0
 40
6.499999999998181
  0
CIRCLE
  5
212
330
1F
100
AcDbEntity
  8
0
  6
Continuous
 62
     7
 48
2500.0
370
    25
100
AcDbCircle
 10
12983.4264300594
 20
12380.2698409149
 30
0.0
 40
6.499999999998181
  0
CIRCLE
  5
213
330
1F
100
AcDbEntity
  8
0
  6
Continuous
 62
     7
 48
2500.0
370
    25
100
AcDbCircle
 10
12983.4264300595
 20
12460.2698409149
 30
0.0
 40
6.499999999998181
  0
LINE
  5
214
330
1F
100
AcDbEntity
  8
0
  6
Continuous
 62
     7
 48
50.0
370
    25
100
AcDbLine
 10
12918.426582647
 20
12500.2698552202
 30
0.0
 11
12918.426582647
 21
12340.2698289941
 31
0.0
  0
LINE
  5
215
330
1F
100
AcDbEntity
  8
0
  6
Continuous
 62
     7
 48
50.0
370
    25
100
AcDbLine
 10
12922.9260180718
 20
12500.2698552202
 30
0.0
 11
12918.426582647
 21
12500.2698552202
 31
0.0
  0
LINE
  5
216
330
1F
100
AcDbEntity
  8
0
  6
Continuous
 62
     7
 48
50.0
370
    25
100
AcDbLine
 10
12922.9260180718
 20
12340.2698289941
 30
0.0
 11
12918.426582647
 21
12340.2698289941
 31
0.0
  0
LINE
  5
217
330
1F
100
AcDbEntity
  8
0
  6
Continuous
 62
     7
 48
50.0
370
    25
100
AcDbLine
 10
13875.0572894341
 20
13389.5549428056
 30
0.0
 11
13866.1251757866
 21
13379.939759929
 31
0.0
  0
LINE
  5
218
330
1F
100
AcDbEntity
  8
0
  6
Continuous
 62
     7
 48
50.0
370
    25
100
AcDbLine
 10
13876.8749926811
 20
13372.4119317125
 30
0.0
 11
13885.8090136772
 21
13382.0271145891
 31
0.0
  0
LINE
  5
219
330
1F
100
AcDbEntity
  8
0
  6
Continuous
 62
     7
 48
50.0
370
    25
100
AcDbLine
 10
12977.3922656304
 20
12457.8519117425
 30
0.0
 11
12985.393593145
 21
12466.4647233079
 31
0.0
  0
LINE
  5
21A
330
1F
100
AcDbEntity
  8
0
  6
Continuous
 62
     7
 48
50.0
370
    25
100
AcDbLine
 10
13007.9518054253
 20
12490.7447349618
 30
0.0
 11
13811.6455767876
 21
13355.8265816759
 31
0.0
  0
LINE
  5
21B
330
1F
100
AcDbEntity
  8
0
  6
Continuous
 62
     7
 48
50.0
370
    25
100
AcDbLine
 10
13847.9881976372
 20
13394.9435603212
 30
0.0
 11
13855.0625537163
 21
13402.5598418306
 31
0.0
  0
LINE
  5
21C
330
1F
100
AcDbEntity
  8
0
  6
Continuous
 62
     7
 48
50.0
370
    25
100
AcDbLine
 10
12981.4587329155
 20
12374.0749609064
 30
0.0
 11
12989.4600604302
 21
12382.6877724718
 31
0.0
  0
LINE
  5
21D
330
1F
100
AcDbEntity
  8
0
  6
Continuous
 62
     7
 48
50.0
370
    25
100
AcDbLine
 10
13018.4269641167
 20
12413.8666641305
 30
0.0
 11
13861.2652514702
 21
13321.0827958177
 31
0.0
  0
LINE
  5
21E
330
1F
100
AcDbEntity
  8
0
  6
Continuous
 62
     7
 48
50.0
370
    25
100
AcDbLine
 10
14320.3011248833
 20
13237.7138983796
 30
0.0
 11
14329.7653887993
 21
13251.2298476289
 31
0.0
  0
LINE
  5
21F
330
1F
100
AcDbEntity
  8
0
  6
Continuous
 62
     7
 48
50.0
370
    25
100
AcDbLine
 10
14330.9937213188
 20
13250.3695141862
 30
0.0
 11
14329.7653887993
 21
13251.2298476289
 31
0.0
  0
LINE
  5
220
330
1F
100
AcDbEntity
  8
0
  6
Continuous
 62
     7
 48
50.0
370
    25
100
AcDbLine
 10
14321.5294574028
 20
13236.8534457277
 30
0.0
 11
14330.9937213188
 21
13250.3695141862
 31
0.0
  0
LINE
  5
221
330
1F
100
AcDbEntity
  8
0
  6
Continuous
 62
     7
 48
50.0
370
    25
100
AcDbLine
 10
14320.3011248833
 20
13237.7138983796
 30
0.0
 11
14321.5294574028
 21
13236.8534457277
 31
0.0
  0
LINE
  5
222
330
1F
100
AcDbEntity
  8
0
  6
Continuous
 62
     7
 48
50.0
370
    25
100
AcDbLine
 10
14369.0033648735
 20
13226.1968504976
 30
0.0
 11
14369.8635791069
 21
13227.425540645
 31
0.0
  0
LINE
  5
223
330
1F
100
AcDbEntity
  8
0
  6
Continuous
 62
     7
 48
50.0
370
    25
100
AcDbLine
 10
14370.7218859917
 20
13222.5510727952
 30
0.0
 11
14369.4935534722
 21
13223.4114062379
 31
0.0
  0
ARC
  5
224
330
1F
100
AcDbEntity
  8
0
  6
Continuous
 62
     7
 48
2500.0
370
    25
100
AcDbCircle
 10
14367.8553760906
 20
13224.5585533293
 30
0.0
 40
3.500000000034853
100
AcDbArc
 50
325.000000001
 51
55.0000000003
  0
ARC
  5
225
330
1F
100
AcDbEntity
  8
0
  6
Continuous
 62
     7
 48
2500.0
370
    25
100
AcDbCircle
 10
14367.8553760906
 20
13224.5585533293
 30
0.0
 40
2.000000000027813
100
AcDbArc
 50
325.0000000006
 51
55.0000000004
  0
LINE
  5
226
330
1F
100
AcDbEntity
  8
0
  6
Continuous
 62
     7
 48
50.0
370
    25
100
AcDbLine
 10
14334.6386645561
 20
13252.0893466066
 30
0.0
 11
14333.7784503227
 21
13250.8606564592
 31
0.0
  0
LINE
  5
227
330
1F
100
AcDbEntity
  8
0
  6
Continuous
 62
     7
 48
50.0
370
    25
100
AcDbLine
 10
14334.6386645561
 20
13252.0893466066
 30
0.0
 11
14369.8635791069
 21
13227.425540645
 31
0.0
  0
LINE
  5
228
330
1F
100
AcDbEntity
  8
0
  6
Continuous
 62
     7
 48
50.0
370
    25
100
AcDbLine
 10
14333.7784503227
 20
13250.8606564592
 30
0.0
 11
14369.0033648735
 21
13226.1968504976
 31
0.0
  0
LINE
  5
229
330
1F
100
AcDbEntity
  8
0
  6
Continuous
 62
     7
 48
50.0
370
    25
100
AcDbLine
 10
14316.1507342583
 20
13147.2302329133
 30
0.0
 11
14317.3790667778
 21
13146.3698994707
 31
0.0
  0
LINE
  5
22A
330
1F
100
AcDbEntity
  8
0
  6
Continuous
 62
     7
 48
50.0
370
    25
100
AcDbLine
 10
14312.505791021
 20
13145.510400493
 30
0.0
 11
14313.3660052544
 21
13146.7390906404
 31
0.0
  0
ARC
  5
22B
330
1F
100
AcDbEntity
  8
0
  6
Continuous
 62
     7
 48
2500.0
370
    25
100
AcDbCircle
 10
14314.51276751
 20
13148.3774132105
 30
0.0
 40
3.500000000010415
100
AcDbArc
 50
235.0
 51
325.0000000003
  0
ARC
  5
22C
330
1F
100
AcDbEntity
  8
0
  6
Continuous
 62
     7
 48
2500.0
370
    25
100
AcDbCircle
 10
14314.51276751
 20
13148.3774132105
 30
0.0
 40
2.000000000017083
100
AcDbArc
 50
235.0000000006
 51
325.0000000002
  0
LINE
  5
22D
330
1F
100
AcDbEntity
  8
0
  6
Continuous
 62
     7
 48
50.0
370
    25
100
AcDbLine
 10
14278.1429980522
 20
13171.402896602
 30
0.0
 11
14277.2808764702
 21
13170.1742064546
 31
0.0
  0
LINE
  5
22E
330
1F
100
AcDbEntity
  8
0
  6
Continuous
 62
     7
 48
50.0
370
    25
100
AcDbLine
 10
14312.505791021
 20
13145.510400493
 30
0.0
 11
14277.2808764702
 21
13170.1742064546
 31
0.0
  0
LINE
  5
22F
330
1F
100
AcDbEntity
  8
0
  6
Continuous
 62
     7
 48
50.0
370
    25
100
AcDbLine
 10
14313.3660052544
 20
13146.7390906404
 30
0.0
 11
14278.1429980522
 21
13171.402896602
 31
0.0
  0
ARC
  5
230
330
1F
100
AcDbEntity
  8
0
  6
Continuous
 62
     7
 48
2500.0
370
    25
100
AcDbCircle
 10
14279.2892296056
 20
13173.0411999736
 30
0.0
 40
3.500000000009075
100
AcDbArc
 50
144.9999999997
 51
234.9999999999
  0
LINE
  5
231
330
1F
100
AcDbEntity
  8
0
  6
Continuous
 62
     7
 48
50.0
370
    25
100
AcDbLine
 10
14276.4225695854
 20
13175.0486743043
 30
0.0
 11
14277.650902105
 21
13174.1883408616
 31
0.0
  0
ARC
  5
232
330
1F
100
AcDbEntity
  8
0
  6
Continuous
 62
     7
 48
2500.0
370
    25
100
AcDbCircle
 10
14279.2892296056
 20
13173.0411999736
 30
0.0
 40
1.999999999991456
100
AcDbArc
 50
144.9999999998
 51
235.0000000006
  0
LINE
  5
233
330
1F
100
AcDbEntity
  8
0
  6
Continuous
 62
     7
 48
50.0
370
    25
100
AcDbLine
 10
14370.7218859917
 20
13222.5510727952
 30
0.0
 11
14317.3790667778
 21
13146.3698994707
 31
0.0
  0
LINE
  5
234
330
1F
100
AcDbEntity
  8
0
  6
Continuous
 62
     7
 48
50.0
370
    25
100
AcDbLine
 10
14369.4935534722
 20
13223.4114062379
 30
0.0
 11
14316.1507342583
 21
13147.2302329133
 31
0.0
  0
LINE
  5
235
330
1F
100
AcDbEntity
  8
0
  6
Continuous
 62
     7
 48
50.0
370
    25
100
AcDbLine
 10
14287.115166021
 20
13187.7044093202
 30
0.0
 11
14285.8868335015
 21
13188.5647427629
 31
0.0
  0
LINE
  5
236
330
1F
100
AcDbEntity
  8
0
  6
Continuous
 62
     7
 48
50.0
370
    25
100
AcDbLine
 10
14277.650902105
 20
13174.1883408616
 30
0.0
 11
14287.115166021
 21
13187.7044093202
 31
0.0
  0
LINE
  5
237
330
1F
100
AcDbEntity
  8
0
  6
Continuous
 62
     7
 48
50.0
370
    25
100
AcDbLine
 10
14276.4225695854
 20
13175.0486743043
 30
0.0
 11
14285.8868335015
 21
13188.5647427629
 31
0.0
  0
ARC
  5
238
330
1F
100
AcDbEntity
  8
0
  6
Continuous
 62
     7
 48
2500.0
370
    25
100
AcDbCircle
 10
14332.6318381862
 20
13249.2223400925
 30
0.0
 40
3.500000000018312
100
AcDbArc
 50
55.0000000002
 51
144.9999999998
  0
ARC
  5
239
330
1F
100
AcDbEntity
  8
0
  6
Continuous
 62
     7
 48
2500.0
370
    25
100
AcDbCircle
 10
14332.6318381862
 20
13249.2223400925
 30
0.0
 40
2.000000000016489
100
AcDbArc
 50
55.0
 51
144.999999999
  0
LINE
  5
23A
330
1F
100
AcDbEntity
  8
0
  6
Continuous
 62
     7
 48
50.0
370
    25
100
AcDbLine
 10
13699.3828509575
 20
13672.4847209047
 30
0.0
 11
13708.8471148735
 21
13686.0009085725
 31
0.0
  0
LINE
  5
23B
330
1F
100
AcDbEntity
  8
0
  6
Continuous
 62
     7
 48
50.0
370
    25
100
AcDbLine
 10
13710.0754473931
 20
13685.1404559205
 30
0.0
 11
13708.8471148735
 21
13686.0009085725
 31
0.0
  0
LINE
  5
23C
330
1F
100
AcDbEntity
  8
0
  6
Continuous
 62
     7
 48
50.0
370
    25
100
AcDbLine
 10
13700.6130908257
 20
13671.6245066713
 30
0.0
 11
13710.0754473931
 21
13685.1404559205
 31
0.0
  0
LINE
  5
23D
330
1F
100
AcDbEntity
  8
0
  6
Continuous
 62
     7
 48
50.0
370
    25
100
AcDbLine
 10
13699.3828509575
 20
13672.4847209047
 30
0.0
 11
13700.6130908257
 21
13671.6245066713
 31
0.0
  0
LINE
  5
23E
330
1F
100
AcDbEntity
  8
0
  6
Continuous
 62
     7
 48
50.0
370
    25
100
AcDbLine
 10
13748.0850909477
 20
13660.9679114412
 30
0.0
 11
13748.9453051811
 21
13662.1964823793
 31
0.0
  0
LINE
  5
23F
330
1F
100
AcDbEntity
  8
0
  6
Continuous
 62
     7
 48
50.0
370
    25
100
AcDbLine
 10
13713.722297979
 20
13686.8604075502
 30
0.0
 11
13712.8620837456
 21
13685.6315981935
 31
0.0
  0
LINE
  5
240
330
1F
100
AcDbEntity
  8
0
  6
Continuous
 62
     7
 48
50.0
370
    25
100
AcDbLine
 10
13713.722297979
 20
13686.8604075502
 30
0.0
 11
13748.9453051811
 21
13662.1964823793
 31
0.0
  0
LINE
  5
241
330
1F
100
AcDbEntity
  8
0
  6
Continuous
 62
     7
 48
50.0
370
    25
100
AcDbLine
 10
13712.8620837456
 20
13685.6315981935
 30
0.0
 11
13748.0850909477
 21
13660.9679114412
 31
0.0
  0
LINE
  5
242
330
1F
100
AcDbEntity
  8
0
  6
Continuous
 62
     7
 48
50.0
370
    25
100
AcDbLine
 10
13749.8055194145
 20
13657.3220145296
 30
0.0
 11
13748.577186895
 21
13658.1822287629
 31
0.0
  0
ARC
  5
243
330
1F
100
AcDbEntity
  8
0
  6
Continuous
 62
     7
 48
2500.0
370
    25
100
AcDbCircle
 10
13746.9381265197
 20
13659.3294920831
 30
0.0
 40
3.500000000031723
100
AcDbArc
 50
325.000000001
 51
55.0000000003
  0
ARC
  5
244
330
1F
100
AcDbEntity
  8
0
  6
Continuous
 62
     7
 48
2500.0
370
    25
100
AcDbCircle
 10
13746.9381265197
 20
13659.3294920831
 30
0.0
 40
2.000000000024683
100
AcDbArc
 50
325.0000000006
 51
55.0000000005
  0
LINE
  5
245
330
1F
100
AcDbEntity
  8
0
  6
Continuous
 62
     7
 48
50.0
370
    25
100
AcDbLine
 10
13695.2343676811
 20
13582.0011746477
 30
0.0
 11
13696.4627002007
 21
13581.140841205
 31
0.0
  0
LINE
  5
246
330
1F
100
AcDbEntity
  8
0
  6
Continuous
 62
     7
 48
50.0
370
    25
100
AcDbLine
 10
13691.5875170952
 20
13580.2813422273
 30
0.0
 11
13692.4477313286
 21
13581.5100323747
 31
0.0
  0
ARC
  5
247
330
1F
100
AcDbEntity
  8
0
  6
Continuous
 62
     7
 48
2500.0
370
    25
100
AcDbCircle
 10
13693.5955179391
 20
13583.1483519642
 30
0.0
 40
3.500000000008925
100
AcDbArc
 50
235.0
 51
325.0000000003
  0
ARC
  5
248
330
1F
100
AcDbEntity
  8
0
  6
Continuous
 62
     7
 48
2500.0
370
    25
100
AcDbCircle
 10
13693.5955179391
 20
13583.1483519642
 30
0.0
 40
2.000000000016486
100
AcDbArc
 50
235.0000000007
 51
325.0000000002
  0
LINE
  5
249
330
1F
100
AcDbEntity
  8
0
  6
Continuous
 62
     7
 48
50.0
370
    25
100
AcDbLine
 10
13657.2247241265
 20
13606.1738383363
 30
0.0
 11
13656.3645098931
 21
13604.9451481889
 31
0.0
  0
LINE
  5
24A
330
1F
100
AcDbEntity
  8
0
  6
Continuous
 62
     7
 48
50.0
370
    25
100
AcDbLine
 10
13691.5875170952
 20
13580.2813422273
 30
0.0
 11
13656.3645098931
 21
13604.9451481889
 31
0.0
  0
LINE
  5
24B
330
1F
100
AcDbEntity
  8
0
  6
Continuous
 62
     7
 48
50.0
370
    25
100
AcDbLine
 10
13692.4477313286
 20
13581.5100323747
 30
0.0
 11
13657.2247241265
 21
13606.1738383363
 31
0.0
  0
ARC
  5
24C
330
1F
100
AcDbEntity
  8
0
  6
Continuous
 62
     7
 48
2500.0
370
    25
100
AcDbCircle
 10
13658.3719800347
 20
13607.8121387273
 30
0.0
 40
1.999999999992052
100
AcDbArc
 50
144.9999999997
 51
235.0000000007
  0
ARC
  5
24D
330
1F
100
AcDbEntity
  8
0
  6
Continuous
 62
     7
 48
2500.0
370
    25
100
AcDbCircle
 10
13658.3719800347
 20
13607.8121387273
 30
0.0
 40
3.500000000009075
100
AcDbArc
 50
144.9999999997
 51
234.9999999999
  0
LINE
  5
24E
330
1F
100
AcDbEntity
  8
0
  6
Continuous
 62
     7
 48
50.0
370
    25
100
AcDbLine
 10
13655.5042956597
 20
13609.8196160386
 30
0.0
 11
13656.7345355278
 21
13608.959282596
 31
0.0
  0
LINE
  5
24F
330
1F
100
AcDbEntity
  8
0
  6
Continuous
 62
     7
 48
50.0
370
    25
100
AcDbLine
 10
13749.8055194145
 20
13657.3220145296
 30
0.0
 11
13696.4627002007
 21
13581.140841205
 31
0.0
  0
LINE
  5
250
330
1F
100
AcDbEntity
  8
0
  6
Continuous
 62
     7
 48
50.0
370
    25
100
AcDbLine
 10
13748.577186895
 20
13658.1822287629
 30
0.0
 11
13695.2343676811
 21
13582.0011746477
 31
0.0
  0
LINE
  5
251
330
1F
100
AcDbEntity
  8
0
  6
Continuous
 62
     7
 48
50.0
370
    25
100
AcDbLine
 10
13666.1968920952
 20
13622.4753510545
 30
0.0
 11
13664.9685595757
 21
13623.3356844972
 31
0.0
  0
LINE
  5
252
330
1F
100
AcDbEntity
  8
0
  6
Continuous
 62
     7
 48
50.0
370
    25
100
AcDbLine
 10
13656.7345355278
 20
13608.959282596
 30
0.0
 11
13666.1968920952
 21
13622.4753510545
 31
0.0
  0
LINE
  5
253
330
1F
100
AcDbEntity
  8
0
  6
Continuous
 62
     7
 48
50.0
370
    25
100
AcDbLine
 10
13655.5042956597
 20
13609.8196160386
 30
0.0
 11
13664.9685595757
 21
13623.3356844972
 31
0.0
  0
ARC
  5
254
330
1F
100
AcDbEntity
  8
0
  6
Continuous
 62
     7
 48
2500.0
370
    25
100
AcDbCircle
 10
13711.7145886153
 20
13683.9932788462
 30
0.0
 40
3.500000000013245
100
AcDbArc
 50
55.0000000002
 51
144.9999999999
  0
ARC
  5
255
330
1F
100
AcDbEntity
  8
0
  6
Continuous
 62
     7
 48
2500.0
370
    25
100
AcDbCircle
 10
13711.7145886153
 20
13683.9932788462
 30
0.0
 40
2.000000000016489
100
AcDbArc
 50
55.0
 51
144.9999999991
  0
LINE
  5
256
330
1F
100
AcDbEntity
  8
0
  6
Continuous
 62
     7
 48
50.0
370
    25
100
AcDbLine
 10
15435.1673815972
 20
12457.0763361047
 30
0.0
 11
15436.3957141167
 21
12456.2159430574
 31
0.0
  0
LINE
  5
257
330
1F
100
AcDbEntity
  8
0
  6
Continuous
 62
     7
 48
50.0
370
    25
100
AcDbLine
 10
15435.1673815972
 20
12457.0763361047
 30
0.0
 11
15444.6316455132
 21
12470.5923449586
 31
0.0
  0
LINE
  5
258
330
1F
100
AcDbEntity
  8
0
  6
Continuous
 62
     7
 48
50.0
370
    25
100
AcDbLine
 10
15445.8599780327
 20
12469.7319519113
 30
0.0
 11
15444.6316455132
 21
12470.5923449586
 31
0.0
  0
LINE
  5
259
330
1F
100
AcDbEntity
  8
0
  6
Continuous
 62
     7
 48
50.0
370
    25
100
AcDbLine
 10
15436.3957141167
 20
12456.2159430574
 30
0.0
 11
15445.8599780327
 21
12469.7319519113
 31
0.0
  0
LINE
  5
25A
330
1F
100
AcDbEntity
  8
0
  6
Continuous
 62
     7
 48
50.0
370
    25
100
AcDbLine
 10
15483.8677142388
 20
12445.5593478273
 30
0.0
 11
15484.7279284722
 21
12446.7880379747
 31
0.0
  0
LINE
  5
25B
330
1F
100
AcDbEntity
  8
0
  6
Continuous
 62
     7
 48
50.0
370
    25
100
AcDbLine
 10
15449.50492127
 20
12471.4518439363
 30
0.0
 11
15448.6447070366
 21
12470.2230941842
 31
0.0
  0
LINE
  5
25C
330
1F
100
AcDbEntity
  8
0
  6
Continuous
 62
     7
 48
50.0
370
    25
100
AcDbLine
 10
15449.50492127
 20
12471.4518439363
 30
0.0
 11
15484.7279284722
 21
12446.7880379747
 31
0.0
  0
LINE
  5
25D
330
1F
100
AcDbEntity
  8
0
  6
Continuous
 62
     7
 48
50.0
370
    25
100
AcDbLine
 10
15448.6447070366
 20
12470.2230941842
 30
0.0
 11
15483.8677142388
 21
12445.5593478273
 31
0.0
  0
LINE
  5
25E
330
1F
100
AcDbEntity
  8
0
  6
Continuous
 62
     7
 48
50.0
370
    25
100
AcDbLine
 10
15485.5881427056
 20
12441.9135105203
 30
0.0
 11
15484.359810186
 21
12442.773843963
 31
0.0
  0
ARC
  5
25F
330
1F
100
AcDbEntity
  8
0
  6
Continuous
 62
     7
 48
2500.0
370
    25
100
AcDbCircle
 10
15482.7213083679
 20
12443.9210234554
 30
0.0
 40
3.500000000034256
100
AcDbArc
 50
325.000000001
 51
55.0000000003
  0
ARC
  5
260
330
1F
100
AcDbEntity
  8
0
  6
Continuous
 62
     7
 48
2500.0
370
    25
100
AcDbCircle
 10
15482.7213083679
 20
12443.9210234554
 30
0.0
 40
2.000000000027216
100
AcDbArc
 50
325.0000000006
 51
55.0000000005
  0
LINE
  5
261
330
1F
100
AcDbEntity
  8
0
  6
Continuous
 62
     7
 48
50.0
370
    25
100
AcDbLine
 10
15431.0169909722
 20
12366.5927302431
 30
0.0
 11
15432.2453234917
 21
12365.7323371957
 31
0.0
  0
LINE
  5
262
330
1F
100
AcDbEntity
  8
0
  6
Continuous
 62
     7
 48
50.0
370
    25
100
AcDbLine
 10
15427.3720477349
 20
12364.8728382181
 30
0.0
 11
15428.2322619683
 21
12366.1015879701
 31
0.0
  0
ARC
  5
263
330
1F
100
AcDbEntity
  8
0
  6
Continuous
 62
     7
 48
2500.0
370
    25
100
AcDbCircle
 10
15429.3786997872
 20
12367.7398833366
 30
0.0
 40
3.500000000011458
100
AcDbArc
 50
235.0
 51
325.0000000003
  0
ARC
  5
264
330
1F
100
AcDbEntity
  8
0
  6
Continuous
 62
     7
 48
2500.0
370
    25
100
AcDbCircle
 10
15429.3786997872
 20
12367.7398833366
 30
0.0
 40
2.00000000001753
100
AcDbArc
 50
235.0000000006
 51
325.0000000002
  0
LINE
  5
265
330
1F
100
AcDbEntity
  8
0
  6
Continuous
 62
     7
 48
50.0
370
    25
100
AcDbLine
 10
15393.0073474175
 20
12390.7653939317
 30
0.0
 11
15392.1471331841
 21
12389.5366441797
 31
0.0
  0
LINE
  5
266
330
1F
100
AcDbEntity
  8
0
  6
Continuous
 62
     7
 48
50.0
370
    25
100
AcDbLine
 10
15427.3720477349
 20
12364.8728382181
 30
0.0
 11
15392.1471331841
 21
12389.5366441797
 31
0.0
  0
LINE
  5
267
330
1F
100
AcDbEntity
  8
0
  6
Continuous
 62
     7
 48
50.0
370
    25
100
AcDbLine
 10
15428.2322619683
 20
12366.1015879701
 30
0.0
 11
15393.0073474175
 21
12390.7653939317
 31
0.0
  0
ARC
  5
268
330
1F
100
AcDbEntity
  8
0
  6
Continuous
 62
     7
 48
2500.0
370
    25
100
AcDbCircle
 10
15394.1551618828
 20
12392.4036700997
 30
0.0
 40
3.500000000008629
100
AcDbArc
 50
144.9999999997
 51
234.9999999999
  0
LINE
  5
269
330
1F
100
AcDbEntity
  8
0
  6
Continuous
 62
     7
 48
50.0
370
    25
100
AcDbLine
 10
15391.2888262993
 20
12394.411171634
 30
0.0
 11
15392.5171588188
 21
12393.5508381914
 31
0.0
  0
ARC
  5
26A
330
1F
100
AcDbEntity
  8
0
  6
Continuous
 62
     7
 48
2500.0
370
    25
100
AcDbCircle
 10
15394.1551618828
 20
12392.4036700997
 30
0.0
 40
1.999999999993542
100
AcDbArc
 50
144.9999999997
 51
235.0000000006
  0
LINE
  5
26B
330
1F
100
AcDbEntity
  8
0
  6
Continuous
 62
     7
 48
50.0
370
    25
100
AcDbLine
 10
15485.5881427056
 20
12441.9135105203
 30
0.0
 11
15432.2453234917
 21
12365.7323371957
 31
0.0
  0
LINE
  5
26C
330
1F
100
AcDbEntity
  8
0
  6
Continuous
 62
     7
 48
50.0
370
    25
100
AcDbLine
 10
15484.359810186
 20
12442.773843963
 30
0.0
 11
15431.0169909722
 21
12366.5927302431
 31
0.0
  0
LINE
  5
26D
330
1F
100
AcDbEntity
  8
0
  6
Continuous
 62
     7
 48
50.0
370
    25
100
AcDbLine
 10
15401.9814227349
 20
12407.0668470453
 30
0.0
 11
15400.7530902153
 21
12407.927180488
 31
0.0
  0
LINE
  5
26E
330
1F
100
AcDbEntity
  8
0
  6
Continuous
 62
     7
 48
50.0
370
    25
100
AcDbLine
 10
15392.5171588188
 20
12393.5508381914
 30
0.0
 11
15401.9814227349
 21
12407.0668470453
 31
0.0
  0
LINE
  5
26F
330
1F
100
AcDbEntity
  8
0
  6
Continuous
 62
     7
 48
50.0
370
    25
100
AcDbLine
 10
15391.2888262993
 20
12394.411171634
 30
0.0
 11
15400.7530902153
 21
12407.927180488
 31
0.0
  0
ARC
  5
270
330
1F
100
AcDbEntity
  8
0
  6
Continuous
 62
     7
 48
2500.0
370
    25
100
AcDbCircle
 10
15447.4977704634
 20
12468.5848102185
 30
0.0
 40
3.500000000015778
100
AcDbArc
 50
55.0000000002
 51
144.9999999998
  0
ARC
  5
271
330
1F
100
AcDbEntity
  8
0
  6
Continuous
 62
     7
 48
2500.0
370
    25
100
AcDbCircle
 10
15447.4977704634
 20
12468.5848102185
 30
0.0
 40
2.000000000016489
100
AcDbArc
 50
55.0
 51
144.999999999
  0
LINE
  5
272
330
1F
100
AcDbEntity
  8
0
  6
Continuous
 62
     7
 48
50.0
370
    25
100
AcDbLine
 10
12584.5185015923
 20
14453.122223575
 30
0.0
 11
12593.9808581597
 21
14466.6384112428
 31
0.0
  0
LINE
  5
273
330
1F
100
AcDbEntity
  8
0
  6
Continuous
 62
     7
 48
50.0
370
    25
100
AcDbLine
 10
12595.2110980278
 20
14465.7779585908
 30
0.0
 11
12593.9808581597
 21
14466.6384112428
 31
0.0
  0
LINE
  5
274
330
1F
100
AcDbEntity
  8
0
  6
Continuous
 62
     7
 48
50.0
370
    25
100
AcDbLine
 10
12584.5185015923
 20
14453.122223575
 30
0.0
 11
12585.7468341118
 21
14452.2620093416
 31
0.0
  0
LINE
  5
275
330
1F
100
AcDbEntity
  8
0
  6
Continuous
 62
     7
 48
50.0
370
    25
100
AcDbLine
 10
12585.7468341118
 20
14452.2620093416
 30
0.0
 11
12595.2110980278
 21
14465.7779585908
 31
0.0
  0
LINE
  5
276
330
1F
100
AcDbEntity
  8
0
  6
Continuous
 62
     7
 48
50.0
370
    25
100
AcDbLine
 10
12633.2188342339
 20
14441.6054141115
 30
0.0
 11
12634.0790484673
 21
14442.8339850496
 31
0.0
  0
LINE
  5
277
330
1F
100
AcDbEntity
  8
0
  6
Continuous
 62
     7
 48
50.0
370
    25
100
AcDbLine
 10
12634.9392627007
 20
14437.9595171998
 30
0.0
 11
12633.7109301811
 21
14438.8199698518
 31
0.0
  0
ARC
  5
278
330
1F
100
AcDbEntity
  8
0
  6
Continuous
 62
     7
 48
2500.0
370
    25
100
AcDbCircle
 10
12632.0721942424
 20
14439.9670219568
 30
0.0
 40
3.500000000036789
100
AcDbArc
 50
325.000000001
 51
55.0000000003
  0
ARC
  5
279
330
1F
100
AcDbEntity
  8
0
  6
Continuous
 62
     7
 48
2500.0
370
    25
100
AcDbCircle
 10
12632.0721942424
 20
14439.9670219568
 30
0.0
 40
2.00000000002975
100
AcDbArc
 50
325.0000000006
 51
55.0000000005
  0
LINE
  5
27A
330
1F
100
AcDbEntity
  8
0
  6
Continuous
 62
     7
 48
50.0
370
    25
100
AcDbLine
 10
12598.8560412651
 20
14467.4979102205
 30
0.0
 11
12597.9958270317
 21
14466.2691008638
 31
0.0
  0
LINE
  5
27B
330
1F
100
AcDbEntity
  8
0
  6
Continuous
 62
     7
 48
50.0
370
    25
100
AcDbLine
 10
12598.8560412651
 20
14467.4979102205
 30
0.0
 11
12634.0790484673
 21
14442.8339850496
 31
0.0
  0
LINE
  5
27C
330
1F
100
AcDbEntity
  8
0
  6
Continuous
 62
     7
 48
50.0
370
    25
100
AcDbLine
 10
12597.9958270317
 20
14466.2691008638
 30
0.0
 11
12633.2188342339
 21
14441.6054141115
 31
0.0
  0
LINE
  5
27D
330
1F
100
AcDbEntity
  8
0
  6
Continuous
 62
     7
 48
50.0
370
    25
100
AcDbLine
 10
12542.3584674126
 20
14386.8113410066
 30
0.0
 11
12541.4982531792
 21
14385.5825316499
 31
0.0
  0
LINE
  5
27E
330
1F
100
AcDbEntity
  8
0
  6
Continuous
 62
     7
 48
50.0
370
    25
100
AcDbLine
 10
12576.7212603813
 20
14360.9188448976
 30
0.0
 11
12577.5833819634
 21
14362.1476542543
 31
0.0
  0
LINE
  5
27F
330
1F
100
AcDbEntity
  8
0
  6
Continuous
 62
     7
 48
50.0
370
    25
100
AcDbLine
 10
12576.7212603813
 20
14360.9188448976
 30
0.0
 11
12541.4982531792
 21
14385.5825316499
 31
0.0
  0
LINE
  5
280
330
1F
100
AcDbEntity
  8
0
  6
Continuous
 62
     7
 48
50.0
370
    25
100
AcDbLine
 10
12577.5833819634
 20
14362.1476542543
 30
0.0
 11
12542.3584674126
 21
14386.8113410066
 31
0.0
  0
LINE
  5
281
330
1F
100
AcDbEntity
  8
0
  6
Continuous
 62
     7
 48
50.0
370
    25
100
AcDbLine
 10
12580.3681109673
 20
14362.6387965272
 30
0.0
 11
12581.5964434868
 21
14361.7783438753
 31
0.0
  0
ARC
  5
282
330
1F
100
AcDbEntity
  8
0
  6
Continuous
 62
     7
 48
2500.0
370
    25
100
AcDbCircle
 10
12578.7295856618
 20
14363.785881838
 30
0.0
 40
3.500000000011458
100
AcDbArc
 50
235.0
 51
325.0000000002
  0
ARC
  5
283
330
1F
100
AcDbEntity
  8
0
  6
Continuous
 62
     7
 48
2500.0
370
    25
100
AcDbCircle
 10
12578.7295856618
 20
14363.785881838
 30
0.0
 40
2.000000000019019
100
AcDbArc
 50
235.0000000007
 51
325.0000000001
  0
ARC
  5
284
330
1F
100
AcDbEntity
  8
0
  6
Continuous
 62
     7
 48
2500.0
370
    25
100
AcDbCircle
 10
12543.5060477573
 20
14388.4496686011
 30
0.0
 40
1.999999999993542
100
AcDbArc
 50
144.9999999997
 51
235.0000000006
  0
ARC
  5
285
330
1F
100
AcDbEntity
  8
0
  6
Continuous
 62
     7
 48
2500.0
370
    25
100
AcDbCircle
 10
12543.5060477573
 20
14388.4496686011
 30
0.0
 40
3.500000000011162
100
AcDbArc
 50
144.9999999997
 51
234.9999999999
  0
LINE
  5
286
330
1F
100
AcDbEntity
  8
0
  6
Continuous
 62
     7
 48
50.0
370
    25
100
AcDbLine
 10
12540.6399462944
 20
14390.4572379182
 30
0.0
 11
12541.868278814
 21
14389.5967852662
 31
0.0
  0
LINE
  5
287
330
1F
100
AcDbEntity
  8
0
  6
Continuous
 62
     7
 48
50.0
370
    25
100
AcDbLine
 10
12634.9392627007
 20
14437.9595171998
 30
0.0
 11
12581.5964434868
 21
14361.7783438753
 31
0.0
  0
LINE
  5
288
330
1F
100
AcDbEntity
  8
0
  6
Continuous
 62
     7
 48
50.0
370
    25
100
AcDbLine
 10
12633.7109301811
 20
14438.8199698518
 30
0.0
 11
12580.3681109673
 21
14362.6387965272
 31
0.0
  0
LINE
  5
289
330
1F
100
AcDbEntity
  8
0
  6
Continuous
 62
     7
 48
50.0
370
    25
100
AcDbLine
 10
12551.33254273
 20
14403.1127345155
 30
0.0
 11
12550.1023028618
 21
14403.9731871675
 31
0.0
  0
LINE
  5
28A
330
1F
100
AcDbEntity
  8
0
  6
Continuous
 62
     7
 48
50.0
370
    25
100
AcDbLine
 10
12541.868278814
 20
14389.5967852662
 30
0.0
 11
12551.33254273
 21
14403.1127345155
 31
0.0
  0
LINE
  5
28B
330
1F
100
AcDbEntity
  8
0
  6
Continuous
 62
     7
 48
50.0
370
    25
100
AcDbLine
 10
12540.6399462944
 20
14390.4572379182
 30
0.0
 11
12550.1023028618
 21
14403.9731871675
 31
0.0
  0
ARC
  5
28C
330
1F
100
AcDbEntity
  8
0
  6
Continuous
 62
     7
 48
2500.0
370
    25
100
AcDbCircle
 10
12596.848656338
 20
14464.6308087199
 30
0.0
 40
3.500000000015332
100
AcDbArc
 50
55.0000000001
 51
144.9999999998
  0
ARC
  5
28D
330
1F
100
AcDbEntity
  8
0
  6
Continuous
 62
     7
 48
2500.0
370
    25
100
AcDbCircle
 10
12596.848656338
 20
14464.6308087199
 30
0.0
 40
2.000000000017533
100
AcDbArc
 50
55.0
 51
144.999999999
  0
LINE
  5
28E
330
1F
100
AcDbEntity
  8
0
  6
Continuous
 62
     7
 48
50.0
370
    25
100
AcDbLine
 10
13981.8535540825
 20
13371.5415846895
 30
0.0
 11
15439.9452899224
 21
12350.5755316804
 31
0.0
  0
LWPOLYLINE
  5
28F
330
1F
100
AcDbEntity
  8
0
  6
Continuous
 62
     7
 48
50.0
370
    25
100
AcDbPolyline
 90
        9
 70
   128
 43
0.0
 10
13984.4341967827
 20
13375.227774341
 10
13984.3846057183
 20
13375.156964023
 10
13984.2377398735
 20
13374.9471556733
 10
13983.9993212944
 20
13374.6064555238
 10
13983.6788867241
 20
13374.1480958055
 10
13983.2878802544
 20
13373.5894810747
 10
13982.8415606743
 20
13372.9521882127
 10
13982.3570941216
 20
13372.260655124
 10
13981.8535540825
 20
13371.5415846895
  0
LINE
  5
290
330
1F
100
AcDbEntity
  8
0
  6
Continuous
 62
     7
 48
50.0
370
    25
100
AcDbLine
 10
13984.4341967827
 20
13375.227774341
 30
0.0
 11
14277.2808764702
 21
13170.1742064546
 31
0.0
  0
LINE
  5
291
330
1F
100
AcDbEntity
  8
0
  6
Continuous
 62
     7
 48
50.0
370
    25
100
AcDbLine
 10
14312.505791021
 20
13145.510400493
 30
0.0
 11
15392.1471331841
 21
12389.5366441797
 31
0.0
  0
LINE
  5
292
330
1F
100
AcDbEntity
  8
0
  6
Continuous
 62
     7
 48
50.0
370
    25
100
AcDbLine
 10
15427.3720477349
 20
12364.8728382181
 30
0.0
 11
15442.5259326225
 21
12354.2616617273
 31
0.0
  0
LWPOLYLINE
  5
293
330
1F
100
AcDbEntity
  8
0
  6
Continuous
 62
     7
 48
50.0
370
    25
100
AcDbPolyline
 90
        9
 70
   128
 43
0.0
 10
15442.5259326225
 20
12354.2616617273
 10
15442.4763415581
 20
12354.1908514093
 10
15442.3294757134
 20
12353.9811026643
 10
15442.0910571343
 20
12353.6404621194
 10
15441.7687152153
 20
12353.1820427965
 10
15441.3777087456
 20
12352.6234280656
 10
15440.9313891655
 20
12351.9861352037
 10
15440.4488299614
 20
12351.2946617196
 10
15439.9452899224
 20
12350.5755316804
  0
LINE
  5
294
330
1F
100
AcDbEntity
  8
0
  6
Continuous
 62
     7
 48
50.0
370
    25
100
AcDbLine
 10
13918.4742663628
 20
13281.0252558778
 30
0.0
 11
15376.564094854
 21
12260.0592028688
 31
0.0
  0
LWPOLYLINE
  5
295
330
1F
100
AcDbEntity
  8
0
  6
Continuous
 62
     7
 48
50.0
370
    25
100
AcDbPolyline
 90
        9
 70
   128
 43
0.0
 10
13921.054909063
 20
13284.7114455293
 10
13920.5513690239
 20
13283.9922558854
 10
13920.0669024712
 20
13283.3008420061
 10
13919.6205828911
 20
13282.6635491441
 10
13919.2295764214
 20
13282.1049344133
 10
13918.9091418511
 20
13281.6464554857
 10
13918.670723272
 20
13281.3058745454
 10
13918.5238574272
 20
13281.0960661958
 10
13918.4742663628
 20
13281.0252558778
  0
LINE
  5
296
330
1F
100
AcDbEntity
  8
0
  6
Continuous
 62
     7
 48
50.0
370
    25
100
AcDbLine
 10
13921.054909063
 20
13284.7114455293
 30
0.0
 11
15379.1447375542
 21
12263.7453925203
 31
0.0
  0
LWPOLYLINE
  5
297
330
1F
100
AcDbEntity
  8
0
  6
Continuous
 62
     7
 48
50.0
370
    25
100
AcDbPolyline
 90
        9
 70
   128
 43
0.0
 10
15379.1447375542
 20
12263.7453925203
 10
15378.6411975151
 20
12263.0262624811
 10
15378.1567309624
 20
12262.3347293924
 10
15377.7104113823
 20
12261.6974365304
 10
15377.3194049126
 20
12261.1388814042
 10
15376.9989703423
 20
12260.6804620813
 10
15376.7605517632
 20
12260.3398215364
 10
15376.6136859184
 20
12260.1300131868
 10
15376.564094854
 20
12260.0592028688
  0
LINE
  5
298
330
1F
100
AcDbEntity
  8
0
  6
Continuous
 62
     7
 48
50.0
370
    25
100
AcDbLine
 10
13929.9450610405
 20
13297.4083077501
 30
0.0
 11
13921.054909063
 21
13284.7114455293
 31
0.0
  0
LINE
  5
299
330
1F
100
AcDbEntity
  8
0
  6
Continuous
 62
     7
 48
50.0
370
    25
100
AcDbLine
 10
15388.0348895317
 20
12276.442254741
 30
0.0
 11
15379.1447375542
 21
12263.7453925203
 31
0.0
  0
LINE
  5
29A
330
1F
100
AcDbEntity
  8
0
  6
Continuous
 62
     7
 48
50.0
370
    25
100
AcDbLine
 10
13929.9450610405
 20
13297.4083077501
 30
0.0
 11
15388.0348895317
 21
12276.442254741
 31
0.0
  0
LINE
  5
29B
330
1F
100
AcDbEntity
  8
0
  6
Continuous
 62
     7
 48
50.0
370
    25
100
AcDbLine
 10
15439.9452899224
 20
12350.5755316804
 30
0.0
 11
15431.0532305962
 21
12337.8786694597
 31
0.0
  0
LINE
  5
29C
330
1F
100
AcDbEntity
  8
0
  6
Continuous
 62
     7
 48
50.0
370
    25
100
AcDbLine
 10
13981.8535540825
 20
13371.5415846895
 30
0.0
 11
13972.963402105
 21
13358.8447224687
 31
0.0
  0
LINE
  5
29D
330
1F
100
AcDbEntity
  8
0
  6
Continuous
 62
     7
 48
50.0
370
    25
100
AcDbLine
 10
13972.963402105
 20
13358.8447224687
 30
0.0
 11
15431.0532305962
 21
12337.8786694597
 31
0.0
  0
LINE
  5
29E
330
1F
100
AcDbEntity
  8
0
  6
Continuous
 62
     7
 48
50.0
370
    25
100
AcDbLine
 10
13929.9450610405
 20
13297.4083077501
 30
0.0
 11
13972.963402105
 21
13358.8447224687
 31
0.0
  0
LINE
  5
29F
330
1F
100
AcDbEntity
  8
0
  6
Continuous
 62
     7
 48
50.0
370
    25
100
AcDbLine
 10
15388.0348895317
 20
12276.442254741
 30
0.0
 11
15431.0532305962
 21
12337.8786694597
 31
0.0
  0
ARC
  5
2A0
330
1F
100
AcDbEntity
  8
0
  6
Continuous
 62
     7
 48
2500.0
370
    25
100
AcDbCircle
 10
14355.7057450114
 20
13045.0665299281
 30
0.0
 40
6.500000000014813
100
AcDbArc
 50
234.9999999997
 51
55.0000000002
  0
LINE
  5
2A1
330
1F
100
AcDbEntity
  8
0
  6
Continuous
 62
     7
 48
50.0
370
    25
100
AcDbLine
 10
14288.1680224663
 20
13100.2921711992
 30
0.0
 11
14359.4341967827
 21
13050.3910433839
 31
0.0
  0
ARC
  5
2A2
330
1F
100
AcDbEntity
  8
0
  6
Continuous
 62
     7
 48
2500.0
370
    25
100
AcDbCircle
 10
14284.4395171583
 20
13094.9676798907
 30
0.0
 40
6.499999999998414
100
AcDbArc
 50
55.0000000002
 51
235.0000000002
  0
LINE
  5
2A3
330
1F
100
AcDbEntity
  8
0
  6
Continuous
 62
     7
 48
50.0
370
    25
100
AcDbLine
 10
14351.978370977
 20
13039.7420775483
 30
0.0
 11
14280.7121966606
 21
13089.6432053636
 31
0.0
  0
CIRCLE
  5
2A4
330
1F
100
AcDbEntity
  8
0
  6
Continuous
 62
     7
 48
2500.0
370
    25
100
AcDbCircle
 10
15403.4054597908
 20
12341.9786565785
 30
0.0
 40
6.50000000000244
  0
CIRCLE
  5
2A5
330
1F
100
AcDbEntity
  8
0
  6
Continuous
 62
     7
 48
2500.0
370
    25
100
AcDbCircle
 10
15374.7266379732
 20
12301.0210543641
 30
0.0
 40
6.49999999999797
  0
CIRCLE
  5
2A6
330
1F
100
AcDbEntity
  8
0
  6
Continuous
 62
     7
 48
2500.0
370
    25
100
AcDbCircle
 10
15280.5326531474
 20
12428.0151220312
 30
0.0
 40
6.49999999999797
  0
CIRCLE
  5
2A7
330
1F
100
AcDbEntity
  8
0
  6
Continuous
 62
     7
 48
2500.0
370
    25
100
AcDbCircle
 10
15251.8538313299
 20
12387.0575198167
 30
0.0
 40
6.50000000000095
  0
ARC
  5
2A8
330
1F
100
AcDbEntity
  8
0
  6
Continuous
 62
     7
 48
2500.0
370
    25
100
AcDbCircle
 10
14716.1326444986
 20
12792.6928979337
 30
0.0
 40
6.500000000002437
100
AcDbArc
 50
235.0000000002
 51
55.0
  0
LINE
  5
2A9
330
1F
100
AcDbEntity
  8
0
  6
Continuous
 62
     7
 48
50.0
370
    25
100
AcDbLine
 10
14648.593971563
 20
12847.9185950349
 30
0.0
 11
14719.8601458794
 21
12798.0173480104
 31
0.0
  0
ARC
  5
2AA
330
1F
100
AcDbEntity
  8
0
  6
Continuous
 62
     7
 48
2500.0
370
    25
100
AcDbCircle
 10
14644.8664166455
 20
12842.5940478962
 30
0.0
 40
6.50000000000736
100
AcDbArc
 50
54.9999999999
 51
234.9999999999
  0
LINE
  5
2AB
330
1F
100
AcDbEntity
  8
0
  6
Continuous
 62
     7
 48
50.0
370
    25
100
AcDbLine
 10
14712.4043200737
 20
12787.3683821748
 30
0.0
 11
14641.1381457573
 21
12837.2695099901
 31
0.0
  0
ARC
  5
2AC
330
1F
100
AcDbEntity
  8
0
  6
Continuous
 62
     7
 48
2500.0
370
    25
100
AcDbCircle
 10
14018.2151027644
 20
13281.3800217048
 30
0.0
 40
6.500000000020177
100
AcDbArc
 50
55.0000000003
 51
234.9999999998
  0
LINE
  5
2AD
330
1F
100
AcDbEntity
  8
0
  6
Continuous
 62
     7
 48
50.0
370
    25
100
AcDbLine
 10
14044.7960589653
 20
13254.8331868242
 30
0.0
 11
14014.4863818413
 21
13276.0555398057
 31
0.0
  0
ARC
  5
2AE
330
1F
100
AcDbEntity
  8
0
  6
Continuous
 62
     7
 48
2500.0
370
    25
100
AcDbCircle
 10
14048.523728403
 20
13260.1576935598
 30
0.0
 40
6.500000000001547
100
AcDbArc
 50
235.0000000001
 51
55.0
  0
LINE
  5
2AF
330
1F
100
AcDbEntity
  8
0
  6
Continuous
 62
     7
 48
50.0
370
    25
100
AcDbLine
 10
14021.9441149956
 20
13286.7045056413
 30
0.0
 11
14052.251884771
 21
13265.4821526597
 31
0.0
  0
ARC
  5
2B0
330
1F
100
AcDbEntity
  8
0
  6
Continuous
 62
     7
 48
2500.0
370
    25
100
AcDbCircle
 10
15005.2933161326
 20
12590.2204159018
 30
0.0
 40
6.500000000037764
100
AcDbArc
 50
54.9999999996
 51
235.0000000001
  0
LINE
  5
2B1
330
1F
100
AcDbEntity
  8
0
  6
Continuous
 62
     7
 48
50.0
370
    25
100
AcDbLine
 10
15072.832176519
 20
12534.9948060106
 30
0.0
 11
15001.5660022026
 21
12584.8959338258
 31
0.0
  0
ARC
  5
2B2
330
1F
100
AcDbEntity
  8
0
  6
Continuous
 62
     7
 48
2500.0
370
    25
100
AcDbCircle
 10
15076.5595439857
 20
12540.3192659392
 30
0.0
 40
6.500000000014361
100
AcDbArc
 50
235.0000000003
 51
55.0000000001
  0
LINE
  5
2B3
330
1F
100
AcDbEntity
  8
0
  6
Continuous
 62
     7
 48
50.0
370
    25
100
AcDbLine
 10
15009.0218280083
 20
12595.5448996614
 30
0.0
 11
15080.2880023247
 21
12545.6437718461
 31
0.0
  0
ARC
  5
2B4
330
1F
100
AcDbEntity
  8
0
  6
Continuous
 62
     7
 48
2500.0
370
    25
100
AcDbCircle
 10
15342.7839583797
 20
12353.9069241251
 30
0.0
 40
6.500000000007207
100
AcDbArc
 50
234.9999999999
 51
55.0000000001
  0
LINE
  5
2B5
330
1F
100
AcDbEntity
  8
0
  6
Continuous
 62
     7
 48
50.0
370
    25
100
AcDbLine
 10
15316.20414002
 20
12380.4537307809
 30
0.0
 11
15346.5119097954
 21
12359.231437404
 31
0.0
  0
ARC
  5
2B6
330
1F
100
AcDbEntity
  8
0
  6
Continuous
 62
     7
 48
2500.0
370
    25
100
AcDbCircle
 10
15312.475332741
 20
12375.1292522701
 30
0.0
 40
6.500000000018535
100
AcDbArc
 50
55.0
 51
235.0
  0
LINE
  5
2B7
330
1F
100
AcDbEntity
  8
0
  6
Continuous
 62
     7
 48
50.0
370
    25
100
AcDbLine
 10
15339.0560839897
 20
12348.5824119638
 30
0.0
 11
15308.7464068657
 21
12369.8047649454
 31
0.0
  0
CIRCLE
  5
2B8
330
1F
100
AcDbEntity
  8
0
  6
Continuous
 62
     7
 48
2500.0
370
    25
100
AcDbCircle
 10
13957.5936013533
 20
13293.3082892514
 30
0.0
 40
6.499999999999907
  0
CIRCLE
  5
2B9
330
1F
100
AcDbEntity
  8
0
  6
Continuous
 62
     7
 48
2500.0
370
    25
100
AcDbCircle
 10
13986.2724231708
 20
13334.2658914659
 30
0.0
 40
6.500000000001397
  0
CIRCLE
  5
2BA
330
1F
100
AcDbEntity
  8
0
  6
Continuous
 62
     7
 48
2500.0
370
    25
100
AcDbCircle
 10
14109.1452298141
 20
13248.2294260132
 30
0.0
 40
6.49999999999946
  0
CIRCLE
  5
2BB
330
1F
100
AcDbEntity
  8
0
  6
Continuous
 62
     7
 48
2500.0
370
    25
100
AcDbCircle
 10
14080.4664079966
 20
13207.2718237987
 30
0.0
 40
6.50000000000095
  0
LINE
  5
2BC
330
1F
100
AcDbEntity
  8
0
  6
Continuous
 62
     7
 48
50.0
370
    25
100
AcDbLine
 10
12523.7637255913
 20
14392.5076376985
 30
0.0
 11
13981.8535540825
 21
13371.5415846895
 31
0.0
  0
LWPOLYLINE
  5
2BD
330
1F
100
AcDbEntity
  8
0
  6
Continuous
 62
     7
 48
50.0
370
    25
100
AcDbPolyline
 90
        9
 70
   128
 43
0.0
 10
12526.3443682915
 20
14396.19382735
 10
12526.294777227
 20
14396.123017032
 10
12526.1479113823
 20
14395.9132086824
 10
12525.9094928032
 20
14395.5725085328
 10
12525.5890582329
 20
14395.1140296052
 10
12525.1980517632
 20
14394.555653293
 10
12524.7517321831
 20
14393.918360431
 10
12524.2672656304
 20
14393.2267081331
 10
12523.7637255913
 20
14392.5076376985
  0
LINE
  5
2BE
330
1F
100
AcDbEntity
  8
0
  6
Continuous
 62
     7
 48
50.0
370
    25
100
AcDbLine
 10
12526.3443682915
 20
14396.19382735
 30
0.0
 11
12541.4982531792
 21
14385.5825316499
 31
0.0
  0
LINE
  5
2BF
330
1F
100
AcDbEntity
  8
0
  6
Continuous
 62
     7
 48
50.0
370
    25
100
AcDbLine
 10
12576.7212603813
 20
14360.9188448976
 30
0.0
 11
13656.3645098931
 21
13604.9451481889
 31
0.0
  0
LINE
  5
2C0
330
1F
100
AcDbEntity
  8
0
  6
Continuous
 62
     7
 48
50.0
370
    25
100
AcDbLine
 10
13691.5875170952
 20
13580.2813422273
 30
0.0
 11
13984.4341967827
 21
13375.227774341
 31
0.0
  0
LWPOLYLINE
  5
2C1
330
1F
100
AcDbEntity
  8
0
  6
Continuous
 62
     7
 48
50.0
370
    25
100
AcDbPolyline
 90
        9
 70
   128
 43
0.0
 10
13984.4341967827
 20
13375.227774341
 10
13984.3846057183
 20
13375.156964023
 10
13984.2377398735
 20
13374.9471556733
 10
13983.9993212944
 20
13374.6064555238
 10
13983.6788867241
 20
13374.1480958055
 10
13983.2878802544
 20
13373.5894810747
 10
13982.8415606743
 20
13372.9521882127
 10
13982.3570941216
 20
13372.260655124
 10
13981.8535540825
 20
13371.5415846895
  0
LINE
  5
2C2
330
1F
100
AcDbEntity
  8
0
  6
Continuous
 62
     7
 48
50.0
370
    25
100
AcDbLine
 10
12460.3825305229
 20
14301.9913088869
 30
0.0
 11
13918.4742663628
 21
13281.0252558778
 31
0.0
  0
LWPOLYLINE
  5
2C3
330
1F
100
AcDbEntity
  8
0
  6
Continuous
 62
     7
 48
50.0
370
    25
100
AcDbPolyline
 90
        9
 70
   128
 43
0.0
 10
12462.9631732231
 20
14305.6774985383
 10
12462.4596331841
 20
14304.9584281038
 10
12461.97707398
 20
14304.2667758058
 10
12461.5307543999
 20
14303.6294829439
 10
12461.1397479302
 20
14303.070868213
 10
12460.8174060112
 20
14302.612627704
 10
12460.5789874321
 20
14302.2719275545
 10
12460.4321215874
 20
14302.0621192048
 10
12460.3825305229
 20
14301.9913088869
  0
LINE
  5
2C4
330
1F
100
AcDbEntity
  8
0
  6
Continuous
 62
     7
 48
50.0
370
    25
100
AcDbLine
 10
12462.9631732231
 20
14305.6774985383
 30
0.0
 11
13921.054909063
 21
13284.7114455293
 31
0.0
  0
LWPOLYLINE
  5
2C5
330
1F
100
AcDbEntity
  8
0
  6
Continuous
 62
     7
 48
50.0
370
    25
100
AcDbPolyline
 90
        9
 70
   128
 43
0.0
 10
13921.054909063
 20
13284.7114455293
 10
13920.5513690239
 20
13283.9922558854
 10
13920.0669024712
 20
13283.3008420061
 10
13919.6205828911
 20
13282.6635491441
 10
13919.2295764214
 20
13282.1049344133
 10
13918.9091418511
 20
13281.6464554857
 10
13918.670723272
 20
13281.3058745454
 10
13918.5238574272
 20
13281.0960661958
 10
13918.4742663628
 20
13281.0252558778
  0
LINE
  5
2C6
330
1F
100
AcDbEntity
  8
0
  6
Continuous
 62
     7
 48
50.0
370
    25
100
AcDbLine
 10
12471.8552325493
 20
14318.3742415498
 30
0.0
 11
12462.9631732231
 21
14305.6774985383
 31
0.0
  0
LINE
  5
2C7
330
1F
100
AcDbEntity
  8
0
  6
Continuous
 62
     7
 48
50.0
370
    25
100
AcDbLine
 10
12471.8552325493
 20
14318.3742415498
 30
0.0
 11
13929.9450610405
 21
13297.4083077501
 31
0.0
  0
LINE
  5
2C8
330
1F
100
AcDbEntity
  8
0
  6
Continuous
 62
     7
 48
50.0
370
    25
100
AcDbLine
 10
12514.8735736138
 20
14379.8106562684
 30
0.0
 11
13972.963402105
 21
13358.8447224687
 31
0.0
  0
LINE
  5
2C9
330
1F
100
AcDbEntity
  8
0
  6
Continuous
 62
     7
 48
50.0
370
    25
100
AcDbLine
 10
12523.7637255913
 20
14392.5076376985
 30
0.0
 11
12514.8735736138
 21
14379.8106562684
 31
0.0
  0
LINE
  5
2CA
330
1F
100
AcDbEntity
  8
0
  6
Continuous
 62
     7
 48
50.0
370
    25
100
AcDbLine
 10
12471.8552325493
 20
14318.3742415498
 30
0.0
 11
12514.8735736138
 21
14379.8106562684
 31
0.0
  0
ARC
  5
2CB
330
1F
100
AcDbEntity
  8
0
  6
Continuous
 62
     7
 48
2500.0
370
    25
100
AcDbCircle
 10
12897.6151061772
 20
14066.0325866327
 30
0.0
 40
6.500000000013614
100
AcDbArc
 50
234.9999999997
 51
55.0000000002
  0
LINE
  5
2CC
330
1F
100
AcDbEntity
  8
0
  6
Continuous
 62
     7
 48
50.0
370
    25
100
AcDbLine
 10
12830.0762866265
 20
14121.2583434175
 30
0.0
 11
12901.3424609429
 21
14071.357096393
 31
0.0
  0
ARC
  5
2CD
330
1F
100
AcDbEntity
  8
0
  6
Continuous
 62
     7
 48
2500.0
370
    25
100
AcDbCircle
 10
12826.348878324
 20
14115.9337365952
 30
0.0
 40
6.499999999996477
100
AcDbArc
 50
55.0000000002
 51
235.0000000002
  0
LINE
  5
2CE
330
1F
100
AcDbEntity
  8
0
  6
Continuous
 62
     7
 48
50.0
370
    25
100
AcDbLine
 10
12893.8866351372
 20
14060.7081305574
 30
0.0
 11
12822.6204608208
 21
14110.6091391633
 31
0.0
  0
CIRCLE
  5
2CF
330
1F
100
AcDbEntity
  8
0
  6
Continuous
 62
     7
 48
2500.0
370
    25
100
AcDbCircle
 10
13945.3148209565
 20
13362.944713283
 30
0.0
 40
6.500000000001397
  0
CIRCLE
  5
2D0
330
1F
100
AcDbEntity
  8
0
  6
Continuous
 62
     7
 48
2500.0
370
    25
100
AcDbCircle
 10
13916.635999139
 20
13321.9871110686
 30
0.0
 40
6.499999999996927
  0
CIRCLE
  5
2D1
330
1F
100
AcDbEntity
  8
0
  6
Continuous
 62
     7
 48
2500.0
370
    25
100
AcDbCircle
 10
13822.4420143132
 20
13448.9811787357
 30
0.0
 40
6.499999999995884
  0
CIRCLE
  5
2D2
330
1F
100
AcDbEntity
  8
0
  6
Continuous
 62
     7
 48
2500.0
370
    25
100
AcDbCircle
 10
13793.7631924956
 20
13408.0235765212
 30
0.0
 40
6.499999999999907
  0
ARC
  5
2D3
330
1F
100
AcDbEntity
  8
0
  6
Continuous
 62
     7
 48
2500.0
370
    25
100
AcDbCircle
 10
13258.0420056643
 20
13813.6589546382
 30
0.0
 40
6.500000000002437
100
AcDbArc
 50
235.0000000002
 51
55.0
  0
LINE
  5
2D4
330
1F
100
AcDbEntity
  8
0
  6
Continuous
 62
     7
 48
50.0
370
    25
100
AcDbLine
 10
13190.5041430718
 20
13868.884648044
 30
0.0
 11
13261.7703173882
 21
13818.9834010194
 31
0.0
  0
ARC
  5
2D5
330
1F
100
AcDbEntity
  8
0
  6
Continuous
 62
     7
 48
2500.0
370
    25
100
AcDbCircle
 10
13186.7757778112
 20
13863.5601046008
 30
0.0
 40
6.50000000000438
100
AcDbArc
 50
54.9999999999
 51
234.9999999998
  0
LINE
  5
2D6
330
1F
100
AcDbEntity
  8
0
  6
Continuous
 62
     7
 48
50.0
370
    25
100
AcDbLine
 10
13254.3144915825
 20
13808.3344351838
 30
0.0
 11
13183.0483172661
 21
13858.2356822084
 31
0.0
  0
ARC
  5
2D7
330
1F
100
AcDbEntity
  8
0
  6
Continuous
 62
     7
 48
2500.0
370
    25
100
AcDbCircle
 10
12560.1244639301
 20
14302.3460784093
 30
0.0
 40
6.500000000023157
100
AcDbArc
 50
55.0000000003
 51
234.9999999998
  0
LINE
  5
2D8
330
1F
100
AcDbEntity
  8
0
  6
Continuous
 62
     7
 48
50.0
370
    25
100
AcDbLine
 10
12586.7043231255
 20
14275.7993590425
 30
0.0
 11
12556.3965533501
 21
14297.0214736055
 31
0.0
  0
ARC
  5
2D9
330
1F
100
AcDbEntity
  8
0
  6
Continuous
 62
     7
 48
2500.0
370
    25
100
AcDbCircle
 10
12590.4330895688
 20
14281.1237502643
 30
0.0
 40
6.500000000000057
100
AcDbArc
 50
235.0000000001
 51
55.0
  0
LINE
  5
2DA
330
1F
100
AcDbEntity
  8
0
  6
Continuous
 62
     7
 48
50.0
370
    25
100
AcDbLine
 10
12563.8523791558
 20
14307.6706778596
 30
0.0
 11
12594.1620562798
 21
14286.4483248781
 31
0.0
  0
ARC
  5
2DB
330
1F
100
AcDbEntity
  8
0
  6
Continuous
 62
     7
 48
2500.0
370
    25
100
AcDbCircle
 10
13547.2026772983
 20
13611.1864726063
 30
0.0
 40
6.500000000039254
100
AcDbArc
 50
54.9999999996
 51
235.0000000001
  0
LINE
  5
2DC
330
1F
100
AcDbEntity
  8
0
  6
Continuous
 62
     7
 48
50.0
370
    25
100
AcDbLine
 10
13614.7404406792
 20
13555.9608590196
 30
0.0
 11
13543.4742663628
 21
13605.8619868348
 31
0.0
  0
ARC
  5
2DD
330
1F
100
AcDbEntity
  8
0
  6
Continuous
 62
     7
 48
2500.0
370
    25
100
AcDbCircle
 10
13618.4689051515
 20
13561.2853226437
 30
0.0
 40
6.500000000014361
100
AcDbArc
 50
235.0000000002
 51
55.0000000001
  0
LINE
  5
2DE
330
1F
100
AcDbEntity
  8
0
  6
Continuous
 62
     7
 48
50.0
370
    25
100
AcDbLine
 10
13550.9300921684
 20
13616.5109526704
 30
0.0
 11
13622.1962664849
 21
13566.6098248552
 31
0.0
  0
ARC
  5
2DF
330
1F
100
AcDbEntity
  8
0
  6
Continuous
 62
     7
 48
2500.0
370
    25
100
AcDbCircle
 10
13884.6933195454
 20
13374.8729808296
 30
0.0
 40
6.500000000007207
100
AcDbArc
 50
234.9999999999
 51
55.0000000001
  0
LINE
  5
2E0
330
1F
100
AcDbEntity
  8
0
  6
Continuous
 62
     7
 48
50.0
370
    25
100
AcDbLine
 10
13858.1124041802
 20
13401.4198433946
 30
0.0
 11
13888.4220813042
 21
13380.197490413
 31
0.0
  0
ARC
  5
2E1
330
1F
100
AcDbEntity
  8
0
  6
Continuous
 62
     7
 48
2500.0
370
    25
100
AcDbCircle
 10
13854.3846939067
 20
13396.0953089746
 30
0.0
 40
6.500000000018535
100
AcDbArc
 50
55.0
 51
235.0
  0
LINE
  5
2E2
330
1F
100
AcDbEntity
  8
0
  6
Continuous
 62
     7
 48
50.0
370
    25
100
AcDbLine
 10
13880.9643481499
 20
13369.5485245775
 30
0.0
 11
13850.6565783745
 21
13390.770877559
 31
0.0
  0
CIRCLE
  5
2E3
330
1F
100
AcDbEntity
  8
0
  6
Continuous
 62
     7
 48
2500.0
370
    25
100
AcDbCircle
 10
12499.502962519
 20
14314.2743459559
 30
0.0
 40
6.50000000000095
  0
CIRCLE
  5
2E4
330
1F
100
AcDbEntity
  8
0
  6
Continuous
 62
     7
 48
2500.0
370
    25
100
AcDbCircle
 10
12528.1817843366
 20
14355.2319481704
 30
0.0
 40
6.500000000001397
  0
CIRCLE
  5
2E5
330
1F
100
AcDbEntity
  8
0
  6
Continuous
 62
     7
 48
2500.0
370
    25
100
AcDbCircle
 10
12651.0545909799
 20
14269.1954827177
 30
0.0
 40
6.499999999998417
  0
CIRCLE
  5
2E6
330
1F
100
AcDbEntity
  8
0
  6
Continuous
 62
     7
 48
2500.0
370
    25
100
AcDbCircle
 10
12622.3757691624
 20
14228.2378805032
 30
0.0
 40
6.499999999998864
  0
LINE
  5
2E7
330
1F
100
AcDbEntity
  8
0
  6
Continuous
 62
     7
 48
50.0
370
    25
100
AcDbLine
 10
12910.9268878227
 20
14140.269840915
 30
0.0
 11
12891.8419574028
 21
14140.269840915
 31
0.0
  0
LINE
  5
2E8
330
1F
100
AcDbEntity
  8
0
  6
Continuous
 62
     7
 48
50.0
370
    25
100
AcDbLine
 10
12867.4259875542
 20
14095.1059710573
 30
0.0
 11
12867.4259875542
 21
14079.2358767579
 31
0.0
  0
LINE
  5
2E9
330
1F
100
AcDbEntity
  8
0
  6
Continuous
 62
     7
 48
50.0
370
    25
100
AcDbLine
 10
12854.4254992729
 20
14104.2085539888
 30
0.0
 11
12854.4254992729
 21
14088.338698108
 31
0.0
  0
ARC
  5
2EA
330
1F
100
AcDbEntity
  8
0
  6
Continuous
 62
     7
 48
2500.0
370
    25
100
AcDbCircle
 10
12860.9264300587
 20
13057.769840915
 30
0.0
 40
6.500000000021828
100
AcDbArc
 50
179.9999999992
 51
0.000000001
  0
LINE
  5
2EB
330
1F
100
AcDbEntity
  8
0
  6
Continuous
 62
     7
 48
50.0
370
    25
100
AcDbLine
 10
12867.4259875542
 20
13062.7698552202
 30
0.0
 11
12867.4259875542
 21
13057.7698599885
 31
0.0
  0
ARC
  5
2EC
330
1F
100
AcDbEntity
  8
0
  6
Continuous
 62
     7
 48
2500.0
370
    25
100
AcDbCircle
 10
12860.9264300587
 20
13062.769840915
 30
0.0
 40
6.500000000045475
100
AcDbArc
 50
359.9999999918
 51
180.0000000019
  0
LINE
  5
2ED
330
1F
100
AcDbEntity
  8
0
  6
Continuous
 62
     7
 48
50.0
370
    25
100
AcDbLine
 10
12854.4254992729
 20
13062.7698552202
 30
0.0
 11
12854.4254992729
 21
13057.7698599885
 31
0.0
  0
ARC
  5
2EE
330
1F
100
AcDbEntity
  8
0
  6
Continuous
 62
     7
 48
2500.0
370
    25
100
AcDbCircle
 10
12860.9264300587
 20
13132.769840915
 30
0.0
 40
6.499999999996362
100
AcDbArc
 50
0.0000000039
 51
180.0000000038
  0
LINE
  5
2EF
330
1F
100
AcDbEntity
  8
0
  6
Continuous
 62
     7
 48
50.0
370
    25
100
AcDbLine
 10
12854.4254992729
 20
13127.7697932313
 30
0.0
 11
12854.4254992729
 21
13132.769788463
 31
0.0
  0
ARC
  5
2F0
330
1F
100
AcDbEntity
  8
0
  6
Continuous
 62
     7
 48
2500.0
370
    25
100
AcDbCircle
 10
12860.9264300587
 20
13127.769840915
 30
0.0
 40
6.5
100
AcDbArc
 50
180.0000000078
 51
0.0000000056
  0
LINE
  5
2F1
330
1F
100
AcDbEntity
  8
0
  6
Continuous
 62
     7
 48
50.0
370
    25
100
AcDbLine
 10
12867.4259875542
 20
13127.7697932313
 30
0.0
 11
12867.4259875542
 21
13132.769788463
 31
0.0
  0
ARC
  5
2F2
330
1F
100
AcDbEntity
  8
0
  6
Continuous
 62
     7
 48
2500.0
370
    25
100
AcDbCircle
 10
12860.9264300587
 20
13202.769840915
 30
0.0
 40
6.499999999990905
100
AcDbArc
 50
359.9999999922
 51
180.0000000054
  0
LINE
  5
2F3
330
1F
100
AcDbEntity
  8
0
  6
Continuous
 62
     7
 48
50.0
370
    25
100
AcDbLine
 10
12854.4254992729
 20
13197.7698456834
 30
0.0
 11
12854.4254992729
 21
13202.769840915
 31
0.0
  0
ARC
  5
2F4
330
1F
100
AcDbEntity
  8
0
  6
Continuous
 62
     7
 48
2500.0
370
    25
100
AcDbCircle
 10
12860.9264300587
 20
13197.769840915
 30
0.0
 40
6.500000000009095
100
AcDbArc
 50
180.0000000074
 51
0.0000000075
  0
LINE
  5
2F5
330
1F
100
AcDbEntity
  8
0
  6
Continuous
 62
     7
 48
50.0
370
    25
100
AcDbLine
 10
12867.4259875542
 20
13197.7698456834
 30
0.0
 11
12867.4259875542
 21
13202.769840915
 31
0.0
  0
ARC
  5
2F6
330
1F
100
AcDbEntity
  8
0
  6
Continuous
 62
     7
 48
2500.0
370
    25
100
AcDbCircle
 10
12860.9264300587
 20
13967.769840915
 30
0.0
 40
6.500000000016371
100
AcDbArc
 50
180.0000000008
 51
359.9999999981
  0
LINE
  5
2F7
330
1F
100
AcDbEntity
  8
0
  6
Continuous
 62
     7
 48
50.0
370
    25
100
AcDbLine
 10
12867.4259875542
 20
13972.7698218416
 30
0.0
 11
12867.4259875542
 21
13967.7699458192
 31
0.0
  0
ARC
  5
2F8
330
1F
100
AcDbEntity
  8
0
  6
Continuous
 62
     7
 48
2500.0
370
    25
100
AcDbCircle
 10
12860.9264300587
 20
13972.769840915
 30
0.0
 40
6.500000000001819
100
AcDbArc
 50
0.0000000045
 51
179.9999999953
  0
LINE
  5
2F9
330
1F
100
AcDbEntity
  8
0
  6
Continuous
 62
     7
 48
50.0
370
    25
100
AcDbLine
 10
12854.4254992729
 20
13972.7698218416
 30
0.0
 11
12854.4254992729
 21
13967.7699458192
 31
0.0
  0
ARC
  5
2FA
330
1F
100
AcDbEntity
  8
0
  6
Continuous
 62
     7
 48
2500.0
370
    25
100
AcDbCircle
 10
12860.9264300587
 20
13917.769840915
 30
0.0
 40
6.500000000012733
100
AcDbArc
 50
179.9999999997
 51
359.9999999976
  0
LINE
  5
2FB
330
1F
100
AcDbEntity
  8
0
  6
Continuous
 62
     7
 48
50.0
370
    25
100
AcDbLine
 10
12867.4259875542
 20
13922.7698695253
 30
0.0
 11
12867.4259875542
 21
13917.7697550844
 31
0.0
  0
ARC
  5
2FC
330
1F
100
AcDbEntity
  8
0
  6
Continuous
 62
     7
 48
2500.0
370
    25
100
AcDbCircle
 10
12860.9264300587
 20
13922.769840915
 30
0.0
 40
6.499999999987267
100
AcDbArc
 50
0.0000000046
 51
179.9999999979
  0
LINE
  5
2FD
330
1F
100
AcDbEntity
  8
0
  6
Continuous
 62
     7
 48
50.0
370
    25
100
AcDbLine
 10
12854.4254992729
 20
13922.7698695253
 30
0.0
 11
12854.4254992729
 21
13917.7697550844
 31
0.0
  0
LINE
  5
2FE
330
1F
100
AcDbEntity
  8
0
  6
Continuous
 62
     7
 48
50.0
370
    25
100
AcDbLine
 10
12915.4263232475
 20
14140.269840915
 30
0.0
 11
12910.9268878227
 21
14140.269840915
 31
0.0
  0
LINE
  5
2FF
330
1F
100
AcDbEntity
  8
0
  6
Continuous
 62
     7
 48
50.0
370
    25
100
AcDbLine
 10
12915.4263232475
 20
14140.269840915
 30
0.0
 11
12915.4263232475
 21
14123.755539615
 31
0.0
  0
LINE
  5
300
330
1F
100
AcDbEntity
  8
0
  6
Continuous
 62
     7
 48
50.0
370
    25
100
AcDbLine
 10
12915.4263232475
 20
13983.3663355897
 30
0.0
 11
12915.4263232475
 21
12610.2698695253
 31
0.0
  0
LINE
  5
301
330
1F
100
AcDbEntity
  8
0
  6
Continuous
 62
     7
 48
50.0
370
    25
100
AcDbLine
 10
12806.4270709282
 20
14059.6891295503
 30
0.0
 11
12806.4270709282
 21
12610.2698695253
 31
0.0
  0
LINE
  5
302
330
1F
100
AcDbEntity
  8
0
  6
Continuous
 62
     7
 48
50.0
370
    25
100
AcDbLine
 10
15093.9255450493
 20
12610.2698695253
 30
0.0
 11
15076.9081805474
 21
12610.2698695253
 31
0.0
  0
LINE
  5
303
330
1F
100
AcDbEntity
  8
0
  6
Continuous
 62
     7
 48
50.0
370
    25
100
AcDbLine
 10
15093.9255450493
 20
10240.2698647569
 30
0.0
 11
14987.9265521294
 21
10240.2698647569
 31
0.0
  0
LINE
  5
304
330
1F
100
AcDbEntity
  8
0
  6
Continuous
 62
     7
 48
50.0
370
    25
100
AcDbLine
 10
15038.4255145317
 20
12473.7698685716
 30
0.0
 11
15043.426582647
 21
12473.7698685716
 31
0.0
  0
ARC
  5
305
330
1F
100
AcDbEntity
  8
0
  6
Continuous
 62
     7
 48
2500.0
370
    25
100
AcDbCircle
 10
15043.4264300591
 20
12480.269840915
 30
0.0
 40
6.500000000001819
100
AcDbArc
 50
270.0
 51
90.0
  0
LINE
  5
306
330
1F
100
AcDbEntity
  8
0
  6
Continuous
 62
     7
 48
50.0
370
    25
100
AcDbLine
 10
15043.426582647
 20
12486.7698204111
 30
0.0
 11
15038.4255145317
 21
12486.7698204111
 31
0.0
  0
ARC
  5
307
330
1F
100
AcDbEntity
  8
0
  6
Continuous
 62
     7
 48
2500.0
370
    25
100
AcDbCircle
 10
15038.4264300591
 20
12480.269840915
 30
0.0
 40
6.500000000009095
100
AcDbArc
 50
89.9999999999
 51
270.0000000004
  0
LINE
  5
308
330
1F
100
AcDbEntity
  8
0
  6
Continuous
 62
     7
 48
50.0
370
    25
100
AcDbLine
 10
15043.426582647
 20
11746.7698406766
 30
0.0
 11
15038.4255145317
 21
11746.7698406766
 31
0.0
  0
ARC
  5
309
330
1F
100
AcDbEntity
  8
0
  6
Continuous
 62
     7
 48
2500.0
370
    25
100
AcDbCircle
 10
15038.4264300591
 20
11740.269840915
 30
0.0
 40
6.500000000016371
100
AcDbArc
 50
90.0000000001
 51
270.0000000002
  0
LINE
  5
30A
330
1F
100
AcDbEntity
  8
0
  6
Continuous
 62
     7
 48
50.0
370
    25
100
AcDbLine
 10
15038.4255145317
 20
11733.7698441337
 30
0.0
 11
15043.426582647
 21
11733.7698441337
 31
0.0
  0
ARC
  5
30B
330
1F
100
AcDbEntity
  8
0
  6
Continuous
 62
     7
 48
2500.0
370
    25
100
AcDbCircle
 10
15043.4264300591
 20
11740.269840915
 30
0.0
 40
6.499999999998181
100
AcDbArc
 50
270.0
 51
90.0000000001
  0
LINE
  5
30C
330
1F
100
AcDbEntity
  8
0
  6
Continuous
 62
     7
 48
50.0
370
    25
100
AcDbLine
 10
15043.426582647
 20
11886.7698412727
 30
0.0
 11
15038.4255145317
 21
11886.7698412727
 31
0.0
  0
ARC
  5
30D
330
1F
100
AcDbEntity
  8
0
  6
Continuous
 62
     7
 48
2500.0
370
    25
100
AcDbCircle
 10
15038.4264300591
 20
11880.269840915
 30
0.0
 40
6.5
100
AcDbArc
 50
89.9999999999
 51
269.9999999999
  0
LINE
  5
30E
330
1F
100
AcDbEntity
  8
0
  6
Continuous
 62
     7
 48
50.0
370
    25
100
AcDbLine
 10
15038.4255145317
 20
11873.7698447297
 30
0.0
 11
15043.426582647
 21
11873.7698447297
 31
0.0
  0
ARC
  5
30F
330
1F
100
AcDbEntity
  8
0
  6
Continuous
 62
     7
 48
2500.0
370
    25
100
AcDbCircle
 10
15043.4264300591
 20
11880.269840915
 30
0.0
 40
6.5
100
AcDbArc
 50
270.0
 51
89.9999999996
  0
LINE
  5
310
330
1F
100
AcDbEntity
  8
0
  6
Continuous
 62
     7
 48
50.0
370
    25
100
AcDbLine
 10
15038.4255145317
 20
11803.7698369811
 30
0.0
 11
15043.426582647
 21
11803.7698369811
 31
0.0
  0
ARC
  5
311
330
1F
100
AcDbEntity
  8
0
  6
Continuous
 62
     7
 48
2500.0
370
    25
100
AcDbCircle
 10
15043.426430059
 20
11810.269840915
 30
0.0
 40
6.5
100
AcDbArc
 50
270.0000000005
 51
89.9999999994
  0
LINE
  5
312
330
1F
100
AcDbEntity
  8
0
  6
Continuous
 62
     7
 48
50.0
370
    25
100
AcDbLine
 10
15043.426582647
 20
11816.7698335241
 30
0.0
 11
15038.4255145317
 21
11816.7698335241
 31
0.0
  0
ARC
  5
313
330
1F
100
AcDbEntity
  8
0
  6
Continuous
 62
     7
 48
2500.0
370
    25
100
AcDbCircle
 10
15038.4264300591
 20
11810.269840915
 30
0.0
 40
6.500000000003638
100
AcDbArc
 50
89.9999999999
 51
270.0000000003
  0
LINE
  5
314
330
1F
100
AcDbEntity
  8
0
  6
Continuous
 62
     7
 48
50.0
370
    25
100
AcDbLine
 10
15038.4255145317
 20
12423.7698566507
 30
0.0
 11
15043.426582647
 21
12423.7698566507
 31
0.0
  0
ARC
  5
315
330
1F
100
AcDbEntity
  8
0
  6
Continuous
 62
     7
 48
2500.0
370
    25
100
AcDbCircle
 10
15043.4264300591
 20
12430.269840915
 30
0.0
 40
6.500000000007276
100
AcDbArc
 50
269.9999999999
 51
90.0
  0
LINE
  5
316
330
1F
100
AcDbEntity
  8
0
  6
Continuous
 62
     7
 48
50.0
370
    25
100
AcDbLine
 10
15043.426582647
 20
12436.7698680948
 30
0.0
 11
15038.4255145317
 21
12436.7698680948
 31
0.0
  0
ARC
  5
317
330
1F
100
AcDbEntity
  8
0
  6
Continuous
 62
     7
 48
2500.0
370
    25
100
AcDbCircle
 10
15038.4264300591
 20
12430.269840915
 30
0.0
 40
6.50000000001819
100
AcDbArc
 50
90.0000000002
 51
269.9999999995
  0
LINE
  5
318
330
1F
100
AcDbEntity
  8
0
  6
Continuous
 62
     7
 48
50.0
370
    25
100
AcDbLine
 10
15034.4258044487
 20
12577.756251056
 30
0.0
 11
15034.4258044487
 21
12561.8861567567
 31
0.0
  0
LINE
  5
319
330
1F
100
AcDbEntity
  8
0
  6
Continuous
 62
     7
 48
50.0
370
    25
100
AcDbLine
 10
15047.42629273
 20
12552.7834546159
 30
0.0
 11
15047.42629273
 21
12568.6535489152
 31
0.0
  0
LINE
  5
31A
330
1F
100
AcDbEntity
  8
0
  6
Continuous
 62
     7
 48
50.0
370
    25
100
AcDbLine
 10
15098.4268878227
 20
12610.2698695253
 30
0.0
 11
15093.9255450493
 21
12610.2698695253
 31
0.0
  0
LINE
  5
31B
330
1F
100
AcDbEntity
  8
0
  6
Continuous
 62
     7
 48
50.0
370
    25
100
AcDbLine
 10
15098.4268878227
 20
12610.2698695253
 30
0.0
 11
15098.4268878227
 21
12595.2024709772
 31
0.0
  0
LINE
  5
31C
330
1F
100
AcDbEntity
  8
0
  6
Continuous
 62
     7
 48
50.0
370
    25
100
AcDbLine
 10
15098.4268878227
 20
12454.8133861612
 30
0.0
 11
15098.4268878227
 21
10240.2698647569
 31
0.0
  0
LINE
  5
31D
330
1F
100
AcDbEntity
  8
0
  6
Continuous
 62
     7
 48
50.0
370
    25
100
AcDbLine
 10
15098.4268878227
 20
10240.2698647569
 30
0.0
 11
15093.9255450493
 21
10240.2698647569
 31
0.0
  0
LINE
  5
31E
330
1F
100
AcDbEntity
  8
0
  6
Continuous
 62
     7
 48
50.0
370
    25
100
AcDbLine
 10
14983.4271167046
 20
12535.3372346948
 30
0.0
 11
14983.4271167046
 21
10240.2698647569
 31
0.0
  0
LINE
  5
31F
330
1F
100
AcDbEntity
  8
0
  6
Continuous
 62
     7
 48
50.0
370
    25
100
AcDbLine
 10
14987.9265521294
 20
10240.2698647569
 30
0.0
 11
14983.4271167046
 21
10240.2698647569
 31
0.0
  0
LINE
  5
320
330
1F
100
AcDbEntity
  8
0
  6
Continuous
 62
     7
 48
50.0
370
    25
100
AcDbLine
 10
12807.9262469536
 20
12610.2698695253
 30
0.0
 11
12807.9262469536
 21
10240.2698647569
 31
0.0
  0
LINE
  5
321
330
1F
100
AcDbEntity
  8
0
  6
Continuous
 62
     7
 48
50.0
370
    25
100
AcDbLine
 10
12913.9271472222
 20
12610.2698695253
 30
0.0
 11
12807.9262469536
 21
12610.2698695253
 31
0.0
  0
LINE
  5
322
330
1F
100
AcDbEntity
  8
0
  6
Continuous
 62
     7
 48
50.0
370
    25
100
AcDbLine
 10
12913.9271472222
 20
12610.2698695253
 30
0.0
 11
12913.9271472222
 21
10240.2698647569
 31
0.0
  0
LINE
  5
323
330
1F
100
AcDbEntity
  8
0
  6
Continuous
 62
     7
 48
50.0
370
    25
100
AcDbLine
 10
12913.9271472222
 20
10240.2698647569
 30
0.0
 11
12807.9262469536
 21
10240.2698647569
 31
0.0
  0
LINE
  5
324
330
1F
100
AcDbEntity
  8
0
  6
Continuous
 62
     7
 48
50.0
370
    25
100
AcDbLine
 10
12858.4271167046
 20
12473.7698685716
 30
0.0
 11
12863.4262774712
 21
12473.7698685716
 31
0.0
  0
ARC
  5
325
330
1F
100
AcDbEntity
  8
0
  6
Continuous
 62
     7
 48
2500.0
370
    25
100
AcDbCircle
 10
12863.4264300594
 20
12480.269840915
 30
0.0
 40
6.5
100
AcDbArc
 50
270.0
 51
90.0000000001
  0
LINE
  5
326
330
1F
100
AcDbEntity
  8
0
  6
Continuous
 62
     7
 48
50.0
370
    25
100
AcDbLine
 10
12863.4262774712
 20
12486.7698204111
 30
0.0
 11
12858.4271167046
 21
12486.7698204111
 31
0.0
  0
ARC
  5
327
330
1F
100
AcDbEntity
  8
0
  6
Continuous
 62
     7
 48
2500.0
370
    25
100
AcDbCircle
 10
12858.4264300595
 20
12480.269840915
 30
0.0
 40
6.500000000009095
100
AcDbArc
 50
89.9999999999
 51
270.0000000004
  0
LINE
  5
328
330
1F
100
AcDbEntity
  8
0
  6
Continuous
 62
     7
 48
50.0
370
    25
100
AcDbLine
 10
12863.4262774712
 20
11746.7698406766
 30
0.0
 11
12858.4271167046
 21
11746.7698406766
 31
0.0
  0
ARC
  5
329
330
1F
100
AcDbEntity
  8
0
  6
Continuous
 62
     7
 48
2500.0
370
    25
100
AcDbCircle
 10
12858.4264300595
 20
11740.269840915
 30
0.0
 40
6.500000000016371
100
AcDbArc
 50
90.0000000001
 51
270.0000000002
  0
LINE
  5
32A
330
1F
100
AcDbEntity
  8
0
  6
Continuous
 62
     7
 48
50.0
370
    25
100
AcDbLine
 10
12858.4271167046
 20
11733.7698441337
 30
0.0
 11
12863.4262774712
 21
11733.7698441337
 31
0.0
  0
ARC
  5
32B
330
1F
100
AcDbEntity
  8
0
  6
Continuous
 62
     7
 48
2500.0
370
    25
100
AcDbCircle
 10
12863.4264300595
 20
11740.269840915
 30
0.0
 40
6.499999999998181
100
AcDbArc
 50
270.0
 51
90.0000000001
  0
LINE
  5
32C
330
1F
100
AcDbEntity
  8
0
  6
Continuous
 62
     7
 48
50.0
370
    25
100
AcDbLine
 10
12863.4262774712
 20
11886.7698412727
 30
0.0
 11
12858.4271167046
 21
11886.7698412727
 31
0.0
  0
ARC
  5
32D
330
1F
100
AcDbEntity
  8
0
  6
Continuous
 62
     7
 48
2500.0
370
    25
100
AcDbCircle
 10
12858.4264300595
 20
11880.269840915
 30
0.0
 40
6.500000000001819
100
AcDbArc
 50
89.9999999999
 51
269.9999999999
  0
LINE
  5
32E
330
1F
100
AcDbEntity
  8
0
  6
Continuous
 62
     7
 48
50.0
370
    25
100
AcDbLine
 10
12858.4271167046
 20
11873.7698447297
 30
0.0
 11
12863.4262774712
 21
11873.7698447297
 31
0.0
  0
ARC
  5
32F
330
1F
100
AcDbEntity
  8
0
  6
Continuous
 62
     7
 48
2500.0
370
    25
100
AcDbCircle
 10
12863.4264300595
 20
11880.269840915
 30
0.0
 40
6.5
100
AcDbArc
 50
270.0
 51
89.9999999996
  0
LINE
  5
330
330
1F
100
AcDbEntity
  8
0
  6
Continuous
 62
     7
 48
50.0
370
    25
100
AcDbLine
 10
12858.4271167046
 20
11803.7698369811
 30
0.0
 11
12863.4262774712
 21
11803.7698369811
 31
0.0
  0
ARC
  5
331
330
1F
100
AcDbEntity
  8
0
  6
Continuous
 62
     7
 48
2500.0
370
    25
100
AcDbCircle
 10
12863.4264300594
 20
11810.269840915
 30
0.0
 40
6.500000000001819
100
AcDbArc
 50
270.0000000006
 51
89.9999999994
  0
LINE
  5
332
330
1F
100
AcDbEntity
  8
0
  6
Continuous
 62
     7
 48
50.0
370
    25
100
AcDbLine
 10
12863.4262774712
 20
11816.7698335241
 30
0.0
 11
12858.4271167046
 21
11816.7698335241
 31
0.0
  0
ARC
  5
333
330
1F
100
AcDbEntity
  8
0
  6
Continuous
 62
     7
 48
2500.0
370
    25
100
AcDbCircle
 10
12858.4264300595
 20
11810.269840915
 30
0.0
 40
6.500000000003638
100
AcDbArc
 50
89.9999999999
 51
270.0000000003
  0
LINE
  5
334
330
1F
100
AcDbEntity
  8
0
  6
Continuous
 62
     7
 48
50.0
370
    25
100
AcDbLine
 10
12858.4271167046
 20
12423.7698566507
 30
0.0
 11
12863.4262774712
 21
12423.7698566507
 31
0.0
  0
ARC
  5
335
330
1F
100
AcDbEntity
  8
0
  6
Continuous
 62
     7
 48
2500.0
370
    25
100
AcDbCircle
 10
12863.4264300595
 20
12430.269840915
 30
0.0
 40
6.500000000003638
100
AcDbArc
 50
269.9999999999
 51
90.0000000001
  0
LINE
  5
336
330
1F
100
AcDbEntity
  8
0
  6
Continuous
 62
     7
 48
50.0
370
    25
100
AcDbLine
 10
12863.4262774712
 20
12436.7698680948
 30
0.0
 11
12858.4271167046
 21
12436.7698680948
 31
0.0
  0
ARC
  5
337
330
1F
100
AcDbEntity
  8
0
  6
Continuous
 62
     7
 48
2500.0
370
    25
100
AcDbCircle
 10
12858.4264300595
 20
12430.269840915
 30
0.0
 40
6.500000000021828
100
AcDbArc
 50
90.0000000003
 51
269.9999999995
  0
LINE
  5
338
330
1F
100
AcDbEntity
  8
0
  6
Continuous
 62
     7
 48
50.0
370
    25
100
AcDbLine
 10
12854.4254992729
 20
12588.7698185037
 30
0.0
 11
12854.4254992729
 21
12541.7698275636
 31
0.0
  0
ARC
  5
339
330
1F
100
AcDbEntity
  8
0
  6
Continuous
 62
     7
 48
2500.0
370
    25
100
AcDbCircle
 10
12860.9264300595
 20
12541.769840915
 30
0.0
 40
6.50000000001819
100
AcDbArc
 50
179.9999999946
 51
0.0000000056
  0
LINE
  5
33A
330
1F
100
AcDbEntity
  8
0
  6
Continuous
 62
     7
 48
50.0
370
    25
100
AcDbLine
 10
12867.4259875542
 20
12541.7698275636
 30
0.0
 11
12867.4259875542
 21
12588.7698185037
 31
0.0
  0
ARC
  5
33B
330
1F
100
AcDbEntity
  8
0
  6
Continuous
 62
     7
 48
2500.0
370
    25
100
AcDbCircle
 10
12860.9264300595
 20
12588.769840915
 30
0.0
 40
6.500000000009095
100
AcDbArc
 50
0.0000000056
 51
179.9999999991
  0
LINE
  5
33C
330
1F
100
AcDbEntity
  8
0
  6
Continuous
 62
     7
 48
50.0
370
    25
100
AcDbLine
 10
12918.426582647
 20
12610.2698695253
 30
0.0
 11
12913.9271472222
 21
12610.2698695253
 31
0.0
  0
LINE
  5
33D
330
1F
100
AcDbEntity
  8
0
  6
Continuous
 62
     7
 48
50.0
370
    25
100
AcDbLine
 10
12918.426582647
 20
12610.2698695253
 30
0.0
 11
12918.426582647
 21
10240.2698647569
 31
0.0
  0
LINE
  5
33E
330
1F
100
AcDbEntity
  8
0
  6
Continuous
 62
     7
 48
50.0
370
    25
100
AcDbLine
 10
12918.426582647
 20
10240.2698647569
 30
0.0
 11
12913.9271472222
 21
10240.2698647569
 31
0.0
  0
LINE
  5
33F
330
1F
100
AcDbEntity
  8
0
  6
Continuous
 62
     7
 48
50.0
370
    25
100
AcDbLine
 10
12803.4268115288
 20
12610.2698695253
 30
0.0
 11
12803.4268115288
 21
10240.2698647569
 31
0.0
  0
LINE
  5
340
330
1F
100
AcDbEntity
  8
0
  6
Continuous
 62
     7
 48
50.0
370
    25
100
AcDbLine
 10
12807.9262469536
 20
12610.2698695253
 30
0.0
 11
12803.4268115288
 21
12610.2698695253
 31
0.0
  0
LINE
  5
341
330
1F
100
AcDbEntity
  8
0
  6
Continuous
 62
     7
 48
50.0
370
    25
100
AcDbLine
 10
12807.9262469536
 20
10240.2698647569
 30
0.0
 11
12803.4268115288
 21
10240.2698647569
 31
0.0
  0
LINE
  5
342
330
1F
100
AcDbEntity
  8
0
  6
Continuous
 62
     8
 48
50.0
370
    25
100
AcDbLine
 10
12978.4985278374
 20
12376.0312449525
 30
0.0
 11
12987.2914050347
 21
12385.4958664964
 31
0.0
  0
LINE
  5
343
330
1F
100
AcDbEntity
  8
0
  6
Continuous
 62
     8
 48
50.0
370
    25
100
AcDbLine
 10
13018.4269641167
 20
12419.0089356492
 30
0.0
 11
13858.3718035942
 21
13323.1094729494
 31
0.0
  0
LINE
  5
344
330
1F
100
AcDbEntity
  8
0
  6
Continuous
 62
     8
 48
50.0
370
    25
100
AcDbLine
 10
12979.5609210259
 20
12455.0438177179
 30
0.0
 11
12988.3537982231
 21
12464.5083796571
 31
0.0
  0
LINE
  5
345
330
1F
100
AcDbEntity
  8
0
  6
Continuous
 62
     8
 48
50.0
370
    25
100
AcDbLine
 10
13010.4275439507
 20
12488.2681619714
 30
0.0
 11
13814.5409320122
 21
13353.7997853349
 31
0.0
  0
LINE
  5
346
330
1F
100
AcDbEntity
  8
0
  6
Continuous
 62
     8
 48
50.0
370
    25
100
AcDbLine
 10
13849.6742938286
 20
13391.6165482591
 30
0.0
 11
13858.518669439
 21
13401.1361252855
 31
0.0
  0
LINE
  5
347
330
1F
100
AcDbEntity
  8
0
  6
Continuous
 62
     8
 48
50.0
370
    25
100
AcDbLine
 10
12810.926506353
 20
14056.5381896089
 30
0.0
 11
12810.926506353
 21
12610.2698695253
 31
0.0
  0
LINE
  5
348
330
1F
100
AcDbEntity
  8
0
  6
Continuous
 62
     8
 48
50.0
370
    25
100
AcDbLine
 10
12910.9268878227
 20
14140.269840915
 30
0.0
 11
12910.9268878227
 21
14126.9064795564
 31
0.0
  0
LINE
  5
349
330
1F
100
AcDbEntity
  8
0
  6
Continuous
 62
     8
 48
50.0
370
    25
100
AcDbLine
 10
12910.9268878227
 20
13986.5172755311
 30
0.0
 11
12910.9268878227
 21
12610.2698695253
 31
0.0
  0
LINE
  5
34A
330
1F
100
AcDbEntity
  8
0
  6
Continuous
 62
     8
 48
50.0
370
    25
100
AcDbLine
 10
14987.9265521294
 20
12532.1862947534
 30
0.0
 11
14987.9265521294
 21
10240.2698647569
 31
0.0
  0
LINE
  5
34B
330
1F
100
AcDbEntity
  8
0
  6
Continuous
 62
     8
 48
50.0
370
    25
100
AcDbLine
 10
15093.9255450493
 20
12610.2698695253
 30
0.0
 11
15093.9255450493
 21
12598.3533513139
 31
0.0
  0
LINE
  5
34C
330
1F
100
AcDbEntity
  8
0
  6
Continuous
 62
     8
 48
50.0
370
    25
100
AcDbLine
 10
15093.9255450493
 20
12457.9643261026
 30
0.0
 11
15093.9255450493
 21
10240.2698647569
 31
0.0
  0
LINE
  5
34D
330
1F
100
AcDbEntity
  8
0
  6
Continuous
 62
     7
 48
50.0
370
    18
100
AcDbLine
 10
16242.8203480525
 20
11640.269840915
 30
0.0
 11
7753.7886731297
 21
11640.269840915
 31
0.0
  0
DIMENSION
  5
34E
330
1F
100
AcDbEntity
  8
0
  6
Continuous
 62
     7
 48
50.0
370
    18
100
AcDbDimension
  2
_D_2
 10
11571.511928173
 20
11640.269840915
 30
0.0
 11
11571.511928173
 21
13040.0902634913
 31
0.0
 70
   160
  1
<>
 71
     2
 42
-1.0
  3
SLDDIMSTYLE1
100
AcDbAlignedDimension
 13
12129.0724764656
 23
14796.4439271224
 33
0.0
 14
7753.7886731299
 24
11640.269840915
 34
0.0
 50
90.0
100
AcDbRotatedDimension
  0
DIMENSION
  5
358
330
1F
100
AcDbEntity
  8
0
  6
Continuous
 62
     7
 48
50.0
370
    18
100
AcDbDimension
  2
_D_3
 10
16738.951318608
 20
11640.269840915
 30
0.0
 11
16738.951318608
 21
11984.6695918446
 31
0.0
 70
   160
  1
<>
 71
     2
 42
-1.0
  3
SLDDIMSTYLE2
100
AcDbAlignedDimension
 13
15484.7288258952
 23
12446.7880556105
 33
0.0
 14
16242.8203480527
 24
11640.269840915
 34
0.0
 50
90.0
100
AcDbRotatedDimension
  0
DIMENSION
  5
365
330
1F
100
AcDbEntity
  8
0
  6
Continuous
 62
     7
 48
50.0
370
    18
100
AcDbDimension
  2
_D_4
 10
16323.157613764
 20
11640.269840915
 30
0.0
 11
16323.157613764
 21
11899.4467183803
 31
0.0
 70
   160
  1
<>
 71
     2
 42
-1.0
  3
SLDDIMSTYLE2
100
AcDbAlignedDimension
 13
15902.912744719
 23
12202.8035068425
 33
0.0
 14
16242.8203480527
 24
11640.269840915
 34
0.0
 50
90.0
100
AcDbRotatedDimension
  0
DIMENSION
  5
371
330
1F
100
AcDbEntity
  8
0
  6
Continuous
 62
     7
 48
50.0
370
    18
100
AcDbDimension
  2
_D_5
 10
16242.8203480527
 20
11640.269840915
 30
0.0
 11
13953.4264300602
 21
12364.334191938
 31
0.0
 70
   162
  1
<>
 71
     1
 42
-1.0
  3
SLDDIMSTYLE3
100
AcDb2LineAngularDimension
 13
13921.0546600284
 23
13284.7114429201
 33
0.0
 14
15379.1452988627
 24
12263.7453862152
 34
0.0
 15
7753.7886731299
 25
11640.269840915
 35
0.0
 16
13955.2004821488
 26
12369.9848008029
 36
0.0
  0
DIMENSION
  5
37A
330
1F
100
AcDbEntity
  8
0
  6
Continuous
 62
     7
 48
50.0
370
    18
100
AcDbDimension
  2
_D_6
 10
14120.2629579719
 20
13665.0999503136
 30
0.0
 11
13270.8589290787
 21
14259.8590543303
 31
0.0
 70
   160
  1
<>
 71
     2
 42
-1.0
  3
SLDDIMSTYLE1
100
AcDbAlignedDimension
 13
12152.0155339195
 23
14829.210008894
 33
0.0
 14
14019.6821948984
 24
13521.4557340136
 34
0.0
 50
-35.0
100
AcDbRotatedDimension
  0
DIMENSION
  5
384
330
1F
100
AcDbEntity
  8
0
  6
Continuous
 62
     7
 48
50.0
370
    18
100
AcDbDimension
  2
_D_7
 10
15442.5254950794
 20
15332.1454845343
 30
0.0
 11
13984.4348562451
 21
15332.1454845343
 31
0.0
 70
   160
  1
<>
 71
     2
 42
-1.0
  3
SLDDIMSTYLE1
100
AcDbAlignedDimension
 13
12526.3442174108
 23
14396.1938005185
 33
0.0
 14
15442.5254950794
 24
12354.2616871092
 34
0.0
100
AcDbRotatedDimension
  0
DIMENSION
  5
38E
330
1F
100
AcDbEntity
  8
0
  6
Continuous
 62
     7
 48
50.0
370
    18
100
AcDbDimension
  2
_D_8
 10
15902.9127447188
 20
15932.1454845343
 30
0.0
 11
14027.4641393192
 21
15932.1454845343
 31
0.0
 70
   160
  1
<>
 71
     2
 42
-1.0
  3
SLDDIMSTYLE1
100
AcDbAlignedDimension
 13
12152.0155339195
 23
14829.210008894
 33
0.0
 14
15902.9127447188
 24
12202.8035068425
 34
0.0
100
AcDbRotatedDimension
  0
DIMENSION
  5
398
330
1F
100
AcDbEntity
  8
0
  6
Continuous
 62
     7
 48
50.0
370
    18
100
AcDbDimension
  2
_D_9
 10
15043.4264300591
 20
9740.269840915
 30
0.0
 11
13953.4264300593
 21
9740.269840915
 31
0.0
 70
   160
  1
<>
 71
     2
 42
-1.0
  3
SLDDIMSTYLE1
100
AcDbAlignedDimension
 13
12863.4264300595
 23
11740.269840915
 33
0.0
 14
15043.4264300591
 24
11740.269840915
 34
0.0
 50
0.0
100
AcDbRotatedDimension
  0
LINE
  5
3A2
330
1F
100
AcDbEntity
  8
0
  6
Continuous
 62
     7
 48
50.0
370
    25
100
AcDbLine
 10
8332.0172746415
 20
5835.319437114
 30
0.0
 11
8367.6172216172
 21
5835.319437114
 31
0.0
  0
LINE
  5
3A3
330
1F
100
AcDbEntity
  8
0
  6
Continuous
 62
     7
 48
50.0
370
    25
100
AcDbLine
 10
9507.4172933335
 20
5835.319437114
 30
0.0
 11
9526.6172905201
 21
5835.319437114
 31
0.0
  0
LINE
  5
3A4
330
1F
100
AcDbEntity
  8
0
  6
Continuous
 62
     7
 48
50.0
370
    25
100
AcDbLine
 10
10666.4172728295
 20
5835.319437114
 30
0.0
 11
10702.0172794098
 21
5835.319437114
 31
0.0
  0
LINE
  5
3A5
330
1F
100
AcDbEntity
  8
0
  6
Continuous
 62
     7
 48
50.0
370
    25
100
AcDbLine
 10
10702.0172794098
 20
5930.8852330124
 30
0.0
 11
10666.4172728295
 21
5930.8852330124
 31
0.0
  0
LINE
  5
3A6
330
1F
100
AcDbEntity
  8
0
  6
Continuous
 62
     7
 48
50.0
370
    25
100
AcDbLine
 10
9526.6172905201
 20
5930.8852330124
 30
0.0
 11
9507.4172933335
 21
5930.8852330124
 31
0.0
  0
LINE
  5
3A7
330
1F
100
AcDbEntity
  8
0
  6
Continuous
 62
     7
 48
50.0
370
    25
100
AcDbLine
 10
8367.6172216172
 20
5930.8852330124
 30
0.0
 11
8332.0172746415
 21
5930.8852330124
 31
0.0
  0
LINE
  5
3A8
330
1F
100
AcDbEntity
  8
0
  6
Continuous
 62
     7
 48
50.0
370
    25
100
AcDbLine
 10
8332.0172746415
 20
6456.2358036911
 30
0.0
 11
8367.6172216172
 21
6456.2358036911
 31
0.0
  0
LINE
  5
3A9
330
1F
100
AcDbEntity
  8
0
  6
Continuous
 62
     7
 48
50.0
370
    25
100
AcDbLine
 10
9507.4172933335
 20
6456.2358036911
 30
0.0
 11
9526.6172905201
 21
6456.2358036911
 31
0.0
  0
LINE
  5
3AA
330
1F
100
AcDbEntity
  8
0
  6
Continuous
 62
     7
 48
50.0
370
    25
100
AcDbLine
 10
10666.4172728295
 20
6456.2358036911
 30
0.0
 11
10702.0172794098
 21
6456.2358036911
 31
0.0
  0
LINE
  5
3AB
330
1F
100
AcDbEntity
  8
0
  6
Continuous
 62
     7
 48
50.0
370
    25
100
AcDbLine
 10
10702.0172794098
 20
6551.8035069382
 30
0.0
 11
10666.4172728295
 21
6551.8035069382
 31
0.0
  0
LINE
  5
3AC
330
1F
100
AcDbEntity
  8
0
  6
Continuous
 62
     7
 48
50.0
370
    25
100
AcDbLine
 10
9526.6172905201
 20
6551.8035069382
 30
0.0
 11
9507.4172933335
 21
6551.8035069382
 31
0.0
  0
LINE
  5
3AD
330
1F
100
AcDbEntity
  8
0
  6
Continuous
 62
     7
 48
50.0
370
    25
100
AcDbLine
 10
8367.6172216172
 20
6551.8035069382
 30
0.0
 11
8332.0172746415
 21
6551.8035069382
 31
0.0
  0
LINE
  5
3AE
330
1F
100
AcDbEntity
  8
0
  6
Continuous
 62
     7
 48
50.0
370
    25
100
AcDbLine
 10
8332.0172746415
 20
4720.4531804001
 30
0.0
 11
8367.6172216172
 21
4720.4531804001
 31
0.0
  0
LINE
  5
3AF
330
1F
100
AcDbEntity
  8
0
  6
Continuous
 62
     7
 48
50.0
370
    25
100
AcDbLine
 10
9507.4172933335
 20
4720.4531804001
 30
0.0
 11
9526.6172905201
 21
4720.4531804001
 31
0.0
  0
LINE
  5
3B0
330
1F
100
AcDbEntity
  8
0
  6
Continuous
 62
     7
 48
50.0
370
    25
100
AcDbLine
 10
10666.4172728295
 20
4720.4531804001
 30
0.0
 11
10702.0172794098
 21
4720.4531804001
 31
0.0
  0
LINE
  5
3B1
330
1F
100
AcDbEntity
  8
0
  6
Continuous
 62
     7
 48
50.0
370
    25
100
AcDbLine
 10
10702.0172794098
 20
4816.0189762985
 30
0.0
 11
10666.5172894234
 21
4816.0189762985
 31
0.0
  0
LINE
  5
3B2
330
1F
100
AcDbEntity
  8
0
  6
Continuous
 62
     7
 48
50.0
370
    25
100
AcDbLine
 10
9526.5172739262
 20
4816.0189762985
 30
0.0
 11
9507.5172801251
 21
4816.0189762985
 31
0.0
  0
LINE
  5
3B3
330
1F
100
AcDbEntity
  8
0
  6
Continuous
 62
     7
 48
50.0
370
    25
100
AcDbLine
 10
8367.5173242325
 20
4816.0189762985
 30
0.0
 11
8332.0172746415
 21
4816.0189762985
 31
0.0
  0
LINE
  5
3B4
330
1F
100
AcDbEntity
  8
0
  6
Continuous
 62
     7
 48
50.0
370
    25
100
AcDbLine
 10
8332.0172746415
 20
7571.102060405
 30
0.0
 11
8367.5173242325
 21
7571.102060405
 31
0.0
  0
LINE
  5
3B5
330
1F
100
AcDbEntity
  8
0
  6
Continuous
 62
     7
 48
50.0
370
    25
100
AcDbLine
 10
9507.5172801251
 20
7571.102060405
 30
0.0
 11
9526.5172739262
 21
7571.102060405
 31
0.0
  0
LINE
  5
3B6
330
1F
100
AcDbEntity
  8
0
  6
Continuous
 62
     7
 48
50.0
370
    25
100
AcDbLine
 10
10666.5172894234
 20
7571.102060405
 30
0.0
 11
10702.0172794098
 21
7571.102060405
 31
0.0
  0
LINE
  5
3B7
330
1F
100
AcDbEntity
  8
0
  6
Continuous
 62
     7
 48
50.0
370
    25
100
AcDbLine
 10
10702.0172794098
 20
7666.6678563034
 30
0.0
 11
10666.4172728295
 21
7666.6678563034
 31
0.0
  0
LINE
  5
3B8
330
1F
100
AcDbEntity
  8
0
  6
Continuous
 62
     7
 48
50.0
370
    25
100
AcDbLine
 10
9526.6172905201
 20
7666.6678563034
 30
0.0
 11
9507.4172933335
 21
7666.6678563034
 31
0.0
  0
LINE
  5
3B9
330
1F
100
AcDbEntity
  8
0
  6
Continuous
 62
     7
 48
50.0
370
    25
100
AcDbLine
 10
8367.6172216172
 20
7666.6678563034
 30
0.0
 11
8332.0172746415
 21
7666.6678563034
 31
0.0
  0
LINE
  5
3BA
330
1F
100
AcDbEntity
  8
0
  6
Continuous
 62
     7
 48
50.0
370
    25
100
AcDbLine
 10
8367.5173242325
 20
4303.7623539841
 30
0.0
 11
9507.5172801251
 21
4303.7623539841
 31
0.0
  0
LINE
  5
3BB
330
1F
100
AcDbEntity
  8
0
  6
Continuous
 62
     7
 48
50.0
370
    25
100
AcDbLine
 10
8367.5173242325
 20
4537.2199192917
 30
0.0
 11
8367.5173242325
 21
4303.7623539841
 31
0.0
  0
LINE
  5
3BC
330
1F
100
AcDbEntity
  8
0
  6
Continuous
 62
     7
 48
50.0
370
    25
100
AcDbLine
 10
8367.6172216172
 20
4537.2199192917
 30
0.0
 11
8367.5173242325
 21
4537.2199192917
 31
0.0
  0
LINE
  5
3BD
330
1F
100
AcDbEntity
  8
0
  6
Continuous
 62
     7
 48
50.0
370
    25
100
AcDbLine
 10
8367.6172216172
 20
4537.2199192917
 30
0.0
 11
8367.6172216172
 21
4770.6793919479
 31
0.0
  0
LINE
  5
3BE
330
1F
100
AcDbEntity
  8
0
  6
Continuous
 62
     7
 48
50.0
370
    25
100
AcDbLine
 10
8367.6172216172
 20
4770.6793919479
 30
0.0
 11
8367.5173242325
 21
4770.6793919479
 31
0.0
  0
LINE
  5
3BF
330
1F
100
AcDbEntity
  8
0
  6
Continuous
 62
     7
 48
50.0
370
    25
100
AcDbLine
 10
8367.5173242325
 20
5704.511560527
 30
0.0
 11
8367.5173242325
 21
4770.6793919479
 31
0.0
  0
LINE
  5
3C0
330
1F
100
AcDbEntity
  8
0
  6
Continuous
 62
     7
 48
50.0
370
    25
100
AcDbLine
 10
8367.6172216172
 20
5704.511560527
 30
0.0
 11
8367.5173242325
 21
5704.511560527
 31
0.0
  0
LINE
  5
3C1
330
1F
100
AcDbEntity
  8
0
  6
Continuous
 62
     7
 48
50.0
370
    25
100
AcDbLine
 10
8367.6172216172
 20
5704.511560527
 30
0.0
 11
8367.6172216172
 21
5937.9710331833
 31
0.0
  0
LINE
  5
3C2
330
1F
100
AcDbEntity
  8
0
  6
Continuous
 62
     7
 48
50.0
370
    25
100
AcDbLine
 10
8367.6172216172
 20
5937.9710331833
 30
0.0
 11
8367.5173242325
 21
5937.9710331833
 31
0.0
  0
LINE
  5
3C3
330
1F
100
AcDbEntity
  8
0
  6
Continuous
 62
     7
 48
50.0
370
    25
100
AcDbLine
 10
8367.5173242325
 20
6171.4285984909
 30
0.0
 11
8367.5173242325
 21
5937.9710331833
 31
0.0
  0
LINE
  5
3C4
330
1F
100
AcDbEntity
  8
0
  6
Continuous
 62
     7
 48
50.0
370
    25
100
AcDbLine
 10
9507.5172801251
 20
6171.4285984909
 30
0.0
 11
8367.5173242325
 21
6171.4285984909
 31
0.0
  0
LINE
  5
3C5
330
1F
100
AcDbEntity
  8
0
  6
Continuous
 62
     7
 48
50.0
370
    25
100
AcDbLine
 10
9507.5172801251
 20
5937.9710331833
 30
0.0
 11
9507.5172801251
 21
6171.4285984909
 31
0.0
  0
LINE
  5
3C6
330
1F
100
AcDbEntity
  8
0
  6
Continuous
 62
     7
 48
50.0
370
    25
100
AcDbLine
 10
9507.4172933335
 20
5937.9710331833
 30
0.0
 11
9507.5172801251
 21
5937.9710331833
 31
0.0
  0
LINE
  5
3C7
330
1F
100
AcDbEntity
  8
0
  6
Continuous
 62
     7
 48
50.0
370
    25
100
AcDbLine
 10
9507.4172933335
 20
5704.511560527
 30
0.0
 11
9507.4172933335
 21
5937.9710331833
 31
0.0
  0
LINE
  5
3C8
330
1F
100
AcDbEntity
  8
0
  6
Continuous
 62
     7
 48
50.0
370
    25
100
AcDbLine
 10
9507.4172933335
 20
5704.511560527
 30
0.0
 11
9507.5172801251
 21
5704.511560527
 31
0.0
  0
LINE
  5
3C9
330
1F
100
AcDbEntity
  8
0
  6
Continuous
 62
     7
 48
50.0
370
    25
100
AcDbLine
 10
9507.5172801251
 20
4770.6793919479
 30
0.0
 11
9507.5172801251
 21
5704.511560527
 31
0.0
  0
LINE
  5
3CA
330
1F
100
AcDbEntity
  8
0
  6
Continuous
 62
     7
 48
50.0
370
    25
100
AcDbLine
 10
9507.4172933335
 20
4770.6793919479
 30
0.0
 11
9507.5172801251
 21
4770.6793919479
 31
0.0
  0
LINE
  5
3CB
330
1F
100
AcDbEntity
  8
0
  6
Continuous
 62
     7
 48
50.0
370
    25
100
AcDbLine
 10
9507.4172933335
 20
4537.2199192917
 30
0.0
 11
9507.4172933335
 21
4770.6793919479
 31
0.0
  0
LINE
  5
3CC
330
1F
100
AcDbEntity
  8
0
  6
Continuous
 62
     7
 48
50.0
370
    25
100
AcDbLine
 10
9507.4172933335
 20
4537.2199192917
 30
0.0
 11
9507.5172801251
 21
4537.2199192917
 31
0.0
  0
LINE
  5
3CD
330
1F
100
AcDbEntity
  8
0
  6
Continuous
 62
     7
 48
50.0
370
    25
100
AcDbLine
 10
9507.5172801251
 20
4303.7623539841
 30
0.0
 11
9507.5172801251
 21
4537.2199192917
 31
0.0
  0
LINE
  5
3CE
330
1F
100
AcDbEntity
  8
0
  6
Continuous
 62
     7
 48
50.0
370
    25
100
AcDbLine
 10
8376.5172679657
 20
6164.0566960251
 30
0.0
 11
9498.5172767872
 21
6164.0566960251
 31
0.0
  0
LINE
  5
3CF
330
1F
100
AcDbEntity
  8
0
  6
Continuous
 62
     7
 48
50.0
370
    25
100
AcDbLine
 10
8376.5172679657
 20
4311.1323491013
 30
0.0
 11
8376.5172679657
 21
6164.0566960251
 31
0.0
  0
LINE
  5
3D0
330
1F
100
AcDbEntity
  8
0
  6
Continuous
 62
     7
 48
50.0
370
    25
100
AcDbLine
 10
9498.5172767872
 20
4311.1323491013
 30
0.0
 11
8376.5172679657
 21
4311.1323491013
 31
0.0
  0
LINE
  5
3D1
330
1F
100
AcDbEntity
  8
0
  6
Continuous
 62
     7
 48
50.0
370
    25
100
AcDbLine
 10
9498.5172767872
 20
6164.0566960251
 30
0.0
 11
9498.5172767872
 21
4311.1323491013
 31
0.0
  0
LINE
  5
3D2
330
1F
100
AcDbEntity
  8
0
  6
Continuous
 62
     7
 48
50.0
370
    25
100
AcDbLine
 10
9507.5172801251
 20
6186.9925633347
 30
0.0
 11
9507.5172801251
 21
6171.4285984909
 31
0.0
  0
LINE
  5
3D3
330
1F
100
AcDbEntity
  8
0
  6
Continuous
 62
     7
 48
50.0
370
    25
100
AcDbLine
 10
8367.5173242325
 20
6186.9925633347
 30
0.0
 11
8367.5173242325
 21
6171.4285984909
 31
0.0
  0
LINE
  5
3D4
330
1F
100
AcDbEntity
  8
0
  6
Continuous
 62
     7
 48
50.0
370
    25
100
AcDbLine
 10
9497.5172896618
 20
6163.5684147751
 30
0.0
 11
8377.5173146958
 21
6163.5684147751
 31
0.0
  0
LINE
  5
3D5
330
1F
100
AcDbEntity
  8
0
  6
Continuous
 62
     7
 48
50.0
370
    25
100
AcDbLine
 10
8377.5173146958
 20
6163.5684147751
 30
0.0
 11
8376.5172679657
 21
6164.0566960251
 31
0.0
  0
LINE
  5
3D6
330
1F
100
AcDbEntity
  8
0
  6
Continuous
 62
     7
 48
50.0
370
    25
100
AcDbLine
 10
9498.5172767872
 20
6164.0566960251
 30
0.0
 11
9497.5172896618
 21
6163.5684147751
 31
0.0
  0
LINE
  5
3D7
330
1F
100
AcDbEntity
  8
0
  6
Continuous
 62
     7
 48
50.0
370
    25
100
AcDbLine
 10
9498.5172767872
 20
4311.1323491013
 30
0.0
 11
9497.5172896618
 21
4312.2843876755
 31
0.0
  0
LINE
  5
3D8
330
1F
100
AcDbEntity
  8
0
  6
Continuous
 62
     7
 48
50.0
370
    25
100
AcDbLine
 10
9497.5172896618
 20
4312.2843876755
 30
0.0
 11
9497.5172896618
 21
6163.5684147751
 31
0.0
  0
LINE
  5
3D9
330
1F
100
AcDbEntity
  8
0
  6
Continuous
 62
     7
 48
50.0
370
    25
100
AcDbLine
 10
8377.5173146958
 20
6163.5684147751
 30
0.0
 11
8377.5173146958
 21
4312.2843876755
 31
0.0
  0
LINE
  5
3DA
330
1F
100
AcDbEntity
  8
0
  6
Continuous
 62
     7
 48
50.0
370
    25
100
AcDbLine
 10
8377.5173146958
 20
4312.2843876755
 30
0.0
 11
8376.5172679657
 21
4311.1323491013
 31
0.0
  0
LINE
  5
3DB
330
1F
100
AcDbEntity
  8
0
  6
Continuous
 62
     7
 48
50.0
370
    25
100
AcDbLine
 10
8377.5173146958
 20
4312.8146305954
 30
0.0
 11
9497.5172896618
 21
4312.8146305954
 31
0.0
  0
LINE
  5
3DC
330
1F
100
AcDbEntity
  8
0
  6
Continuous
 62
     7
 48
50.0
370
    25
100
AcDbLine
 10
8367.5173242325
 20
5727.4550572311
 30
0.0
 11
8367.5173242325
 21
5704.511560527
 31
0.0
  0
LINE
  5
3DD
330
1F
100
AcDbEntity
  8
0
  6
Continuous
 62
     7
 48
50.0
370
    25
100
AcDbLine
 10
8367.6172216172
 20
5727.4550572311
 30
0.0
 11
8367.5173242325
 21
5727.4550572311
 31
0.0
  0
LINE
  5
3DE
330
1F
100
AcDbEntity
  8
0
  6
Continuous
 62
     7
 48
50.0
370
    25
100
AcDbLine
 10
9507.5172801251
 20
5727.4550572311
 30
0.0
 11
9507.5172801251
 21
5704.511560527
 31
0.0
  0
LINE
  5
3DF
330
1F
100
AcDbEntity
  8
0
  6
Continuous
 62
     7
 48
50.0
370
    25
100
AcDbLine
 10
9507.4172933335
 20
5727.4550572311
 30
0.0
 11
9507.5172801251
 21
5727.4550572311
 31
0.0
  0
LINE
  5
3E0
330
1F
100
AcDbEntity
  8
0
  6
Continuous
 62
     7
 48
50.0
370
    25
100
AcDbLine
 10
8367.5173242325
 20
4560.1634159958
 30
0.0
 11
8367.5173242325
 21
4537.2199192917
 31
0.0
  0
LINE
  5
3E1
330
1F
100
AcDbEntity
  8
0
  6
Continuous
 62
     7
 48
50.0
370
    25
100
AcDbLine
 10
8367.6172216172
 20
4560.1634159958
 30
0.0
 11
8367.5173242325
 21
4560.1634159958
 31
0.0
  0
LINE
  5
3E2
330
1F
100
AcDbEntity
  8
0
  6
Continuous
 62
     7
 48
50.0
370
    25
100
AcDbLine
 10
9507.5172801251
 20
4560.1634159958
 30
0.0
 11
9507.5172801251
 21
4537.2199192917
 31
0.0
  0
LINE
  5
3E3
330
1F
100
AcDbEntity
  8
0
  6
Continuous
 62
     7
 48
50.0
370
    25
100
AcDbLine
 10
9507.4172933335
 20
4560.1634159958
 30
0.0
 11
9507.5172801251
 21
4560.1634159958
 31
0.0
  0
LINE
  5
3E4
330
1F
100
AcDbEntity
  8
0
  6
Continuous
 62
     7
 48
50.0
370
    25
100
AcDbLine
 10
8377.5173146958
 20
4312.2843876755
 30
0.0
 11
9497.5172896618
 21
4312.2843876755
 31
0.0
  0
LINE
  5
3E5
330
1F
100
AcDbEntity
  8
0
  6
Continuous
 62
     7
 48
50.0
370
    25
100
AcDbLine
 10
9526.5172739262
 20
4303.7623539841
 30
0.0
 11
10666.5172894234
 21
4303.7623539841
 31
0.0
  0
LINE
  5
3E6
330
1F
100
AcDbEntity
  8
0
  6
Continuous
 62
     7
 48
50.0
370
    25
100
AcDbLine
 10
9526.5172739262
 20
4537.2199192917
 30
0.0
 11
9526.5172739262
 21
4303.7623539841
 31
0.0
  0
LINE
  5
3E7
330
1F
100
AcDbEntity
  8
0
  6
Continuous
 62
     7
 48
50.0
370
    25
100
AcDbLine
 10
9526.6172905201
 20
4537.2199192917
 30
0.0
 11
9526.5172739262
 21
4537.2199192917
 31
0.0
  0
LINE
  5
3E8
330
1F
100
AcDbEntity
  8
0
  6
Continuous
 62
     7
 48
50.0
370
    25
100
AcDbLine
 10
9526.6172905201
 20
4537.2199192917
 30
0.0
 11
9526.6172905201
 21
4770.6793919479
 31
0.0
  0
LINE
  5
3E9
330
1F
100
AcDbEntity
  8
0
  6
Continuous
 62
     7
 48
50.0
370
    25
100
AcDbLine
 10
9526.6172905201
 20
4770.6793919479
 30
0.0
 11
9526.5172739262
 21
4770.6793919479
 31
0.0
  0
LINE
  5
3EA
330
1F
100
AcDbEntity
  8
0
  6
Continuous
 62
     7
 48
50.0
370
    25
100
AcDbLine
 10
9526.5172739262
 20
5704.511560527
 30
0.0
 11
9526.5172739262
 21
4770.6793919479
 31
0.0
  0
LINE
  5
3EB
330
1F
100
AcDbEntity
  8
0
  6
Continuous
 62
     7
 48
50.0
370
    25
100
AcDbLine
 10
9526.6172905201
 20
5704.511560527
 30
0.0
 11
9526.5172739262
 21
5704.511560527
 31
0.0
  0
LINE
  5
3EC
330
1F
100
AcDbEntity
  8
0
  6
Continuous
 62
     7
 48
50.0
370
    25
100
AcDbLine
 10
9526.6172905201
 20
5704.511560527
 30
0.0
 11
9526.6172905201
 21
5937.9710331833
 31
0.0
  0
LINE
  5
3ED
330
1F
100
AcDbEntity
  8
0
  6
Continuous
 62
     7
 48
50.0
370
    25
100
AcDbLine
 10
9526.6172905201
 20
5937.9710331833
 30
0.0
 11
9526.5172739262
 21
5937.9710331833
 31
0.0
  0
LINE
  5
3EE
330
1F
100
AcDbEntity
  8
0
  6
Continuous
 62
     7
 48
50.0
370
    25
100
AcDbLine
 10
9526.5172739262
 20
6171.4285984909
 30
0.0
 11
9526.5172739262
 21
5937.9710331833
 31
0.0
  0
LINE
  5
3EF
330
1F
100
AcDbEntity
  8
0
  6
Continuous
 62
     7
 48
50.0
370
    25
100
AcDbLine
 10
10666.5172894234
 20
6171.4285984909
 30
0.0
 11
9526.5172739262
 21
6171.4285984909
 31
0.0
  0
LINE
  5
3F0
330
1F
100
AcDbEntity
  8
0
  6
Continuous
 62
     7
 48
50.0
370
    25
100
AcDbLine
 10
10666.5172894234
 20
5937.9710331833
 30
0.0
 11
10666.5172894234
 21
6171.4285984909
 31
0.0
  0
LINE
  5
3F1
330
1F
100
AcDbEntity
  8
0
  6
Continuous
 62
     7
 48
50.0
370
    25
100
AcDbLine
 10
10666.4172728295
 20
5937.9710331833
 30
0.0
 11
10666.5172894234
 21
5937.9710331833
 31
0.0
  0
LINE
  5
3F2
330
1F
100
AcDbEntity
  8
0
  6
Continuous
 62
     7
 48
50.0
370
    25
100
AcDbLine
 10
10666.4172728295
 20
5704.511560527
 30
0.0
 11
10666.4172728295
 21
5937.9710331833
 31
0.0
  0
LINE
  5
3F3
330
1F
100
AcDbEntity
  8
0
  6
Continuous
 62
     7
 48
50.0
370
    25
100
AcDbLine
 10
10666.4172728295
 20
5704.511560527
 30
0.0
 11
10666.5172894234
 21
5704.511560527
 31
0.0
  0
LINE
  5
3F4
330
1F
100
AcDbEntity
  8
0
  6
Continuous
 62
     7
 48
50.0
370
    25
100
AcDbLine
 10
10666.5172894234
 20
4770.6793919479
 30
0.0
 11
10666.5172894234
 21
5704.511560527
 31
0.0
  0
LINE
  5
3F5
330
1F
100
AcDbEntity
  8
0
  6
Continuous
 62
     7
 48
50.0
370
    25
100
AcDbLine
 10
10666.4172728295
 20
4770.6793919479
 30
0.0
 11
10666.5172894234
 21
4770.6793919479
 31
0.0
  0
LINE
  5
3F6
330
1F
100
AcDbEntity
  8
0
  6
Continuous
 62
     7
 48
50.0
370
    25
100
AcDbLine
 10
10666.4172728295
 20
4537.2199192917
 30
0.0
 11
10666.4172728295
 21
4770.6793919479
 31
0.0
  0
LINE
  5
3F7
330
1F
100
AcDbEntity
  8
0
  6
Continuous
 62
     7
 48
50.0
370
    25
100
AcDbLine
 10
10666.4172728295
 20
4537.2199192917
 30
0.0
 11
10666.5172894234
 21
4537.2199192917
 31
0.0
  0
LINE
  5
3F8
330
1F
100
AcDbEntity
  8
0
  6
Continuous
 62
     7
 48
50.0
370
    25
100
AcDbLine
 10
10666.5172894234
 20
4303.7623539841
 30
0.0
 11
10666.5172894234
 21
4537.2199192917
 31
0.0
  0
LINE
  5
3F9
330
1F
100
AcDbEntity
  8
0
  6
Continuous
 62
     7
 48
50.0
370
    25
100
AcDbLine
 10
9535.5172772641
 20
6164.0566960251
 30
0.0
 11
10657.5172860855
 21
6164.0566960251
 31
0.0
  0
LINE
  5
3FA
330
1F
100
AcDbEntity
  8
0
  6
Continuous
 62
     7
 48
50.0
370
    25
100
AcDbLine
 10
9535.5172772641
 20
4311.1323491013
 30
0.0
 11
9535.5172772641
 21
6164.0566960251
 31
0.0
  0
LINE
  5
3FB
330
1F
100
AcDbEntity
  8
0
  6
Continuous
 62
     7
 48
50.0
370
    25
100
AcDbLine
 10
10657.5172860855
 20
4311.1323491013
 30
0.0
 11
9535.5172772641
 21
4311.1323491013
 31
0.0
  0
LINE
  5
3FC
330
1F
100
AcDbEntity
  8
0
  6
Continuous
 62
     7
 48
50.0
370
    25
100
AcDbLine
 10
10657.5172860855
 20
6164.0566960251
 30
0.0
 11
10657.5172860855
 21
4311.1323491013
 31
0.0
  0
LINE
  5
3FD
330
1F
100
AcDbEntity
  8
0
  6
Continuous
 62
     7
 48
50.0
370
    25
100
AcDbLine
 10
10666.5172894234
 20
6186.9925633347
 30
0.0
 11
10666.5172894234
 21
6171.4285984909
 31
0.0
  0
LINE
  5
3FE
330
1F
100
AcDbEntity
  8
0
  6
Continuous
 62
     7
 48
50.0
370
    25
100
AcDbLine
 10
9526.5172739262
 20
6186.9925633347
 30
0.0
 11
9526.5172739262
 21
6171.4285984909
 31
0.0
  0
LINE
  5
3FF
330
1F
100
AcDbEntity
  8
0
  6
Continuous
 62
     7
 48
50.0
370
    25
100
AcDbLine
 10
10656.5172989601
 20
6163.5684147751
 30
0.0
 11
9536.5172941918
 21
6163.5684147751
 31
0.0
  0
LINE
  5
400
330
1F
100
AcDbEntity
  8
0
  6
Continuous
 62
     7
 48
50.0
370
    25
100
AcDbLine
 10
9536.5172941918
 20
6163.5684147751
 30
0.0
 11
9535.5172772641
 21
6164.0566960251
 31
0.0
  0
LINE
  5
401
330
1F
100
AcDbEntity
  8
0
  6
Continuous
 62
     7
 48
50.0
370
    25
100
AcDbLine
 10
10657.5172860855
 20
6164.0566960251
 30
0.0
 11
10656.5172989601
 21
6163.5684147751
 31
0.0
  0
LINE
  5
402
330
1F
100
AcDbEntity
  8
0
  6
Continuous
 62
     7
 48
50.0
370
    25
100
AcDbLine
 10
10657.5172860855
 20
4311.1323491013
 30
0.0
 11
10656.5172989601
 21
4312.2843876755
 31
0.0
  0
LINE
  5
403
330
1F
100
AcDbEntity
  8
0
  6
Continuous
 62
     7
 48
50.0
370
    25
100
AcDbLine
 10
10656.5172989601
 20
4312.2843876755
 30
0.0
 11
10656.5172989601
 21
6163.5684147751
 31
0.0
  0
LINE
  5
404
330
1F
100
AcDbEntity
  8
0
  6
Continuous
 62
     7
 48
50.0
370
    25
100
AcDbLine
 10
9536.5172941918
 20
6163.5684147751
 30
0.0
 11
9536.5172941918
 21
4312.2843876755
 31
0.0
  0
LINE
  5
405
330
1F
100
AcDbEntity
  8
0
  6
Continuous
 62
     7
 48
50.0
370
    25
100
AcDbLine
 10
9536.5172941918
 20
4312.2843876755
 30
0.0
 11
9535.5172772641
 21
4311.1323491013
 31
0.0
  0
LINE
  5
406
330
1F
100
AcDbEntity
  8
0
  6
Continuous
 62
     7
 48
50.0
370
    25
100
AcDbLine
 10
9536.5172941918
 20
4312.8146305954
 30
0.0
 11
10656.5172989601
 21
4312.8146305954
 31
0.0
  0
LINE
  5
407
330
1F
100
AcDbEntity
  8
0
  6
Continuous
 62
     7
 48
50.0
370
    25
100
AcDbLine
 10
9526.5172739262
 20
5727.4550572311
 30
0.0
 11
9526.5172739262
 21
5704.511560527
 31
0.0
  0
LINE
  5
408
330
1F
100
AcDbEntity
  8
0
  6
Continuous
 62
     7
 48
50.0
370
    25
100
AcDbLine
 10
9526.6172905201
 20
5727.4550572311
 30
0.0
 11
9526.5172739262
 21
5727.4550572311
 31
0.0
  0
LINE
  5
409
330
1F
100
AcDbEntity
  8
0
  6
Continuous
 62
     7
 48
50.0
370
    25
100
AcDbLine
 10
10666.5172894234
 20
5727.4550572311
 30
0.0
 11
10666.5172894234
 21
5704.511560527
 31
0.0
  0
LINE
  5
40A
330
1F
100
AcDbEntity
  8
0
  6
Continuous
 62
     7
 48
50.0
370
    25
100
AcDbLine
 10
10666.4172728295
 20
5727.4550572311
 30
0.0
 11
10666.5172894234
 21
5727.4550572311
 31
0.0
  0
LINE
  5
40B
330
1F
100
AcDbEntity
  8
0
  6
Continuous
 62
     7
 48
50.0
370
    25
100
AcDbLine
 10
9526.5172739262
 20
4560.1634159958
 30
0.0
 11
9526.5172739262
 21
4537.2199192917
 31
0.0
  0
LINE
  5
40C
330
1F
100
AcDbEntity
  8
0
  6
Continuous
 62
     7
 48
50.0
370
    25
100
AcDbLine
 10
9526.6172905201
 20
4560.1634159958
 30
0.0
 11
9526.5172739262
 21
4560.1634159958
 31
0.0
  0
LINE
  5
40D
330
1F
100
AcDbEntity
  8
0
  6
Continuous
 62
     7
 48
50.0
370
    25
100
AcDbLine
 10
10666.5172894234
 20
4560.1634159958
 30
0.0
 11
10666.5172894234
 21
4537.2199192917
 31
0.0
  0
LINE
  5
40E
330
1F
100
AcDbEntity
  8
0
  6
Continuous
 62
     7
 48
50.0
370
    25
100
AcDbLine
 10
10666.4172728295
 20
4560.1634159958
 30
0.0
 11
10666.5172894234
 21
4560.1634159958
 31
0.0
  0
LINE
  5
40F
330
1F
100
AcDbEntity
  8
0
  6
Continuous
 62
     7
 48
50.0
370
    25
100
AcDbLine
 10
9536.5172941918
 20
4312.2843876755
 30
0.0
 11
10656.5172989601
 21
4312.2843876755
 31
0.0
  0
LINE
  5
410
330
1F
100
AcDbEntity
  8
0
  6
Continuous
 62
     7
 48
50.0
370
    25
100
AcDbLine
 10
8367.5173242325
 20
6186.9925633347
 30
0.0
 11
9507.5172801251
 21
6186.9925633347
 31
0.0
  0
LINE
  5
411
330
1F
100
AcDbEntity
  8
0
  6
Continuous
 62
     7
 48
50.0
370
    25
100
AcDbLine
 10
8367.5173242325
 20
6420.4501286423
 30
0.0
 11
8367.5173242325
 21
6186.9925633347
 31
0.0
  0
LINE
  5
412
330
1F
100
AcDbEntity
  8
0
  6
Continuous
 62
     7
 48
50.0
370
    25
100
AcDbLine
 10
8367.6172216172
 20
6420.4501286423
 30
0.0
 11
8367.5173242325
 21
6420.4501286423
 31
0.0
  0
LINE
  5
413
330
1F
100
AcDbEntity
  8
0
  6
Continuous
 62
     7
 48
50.0
370
    25
100
AcDbLine
 10
8367.6172216172
 20
6420.4501286423
 30
0.0
 11
8367.6172216172
 21
6653.9096012985
 31
0.0
  0
LINE
  5
414
330
1F
100
AcDbEntity
  8
0
  6
Continuous
 62
     7
 48
50.0
370
    25
100
AcDbLine
 10
8367.6172216172
 20
6653.9096012985
 30
0.0
 11
8367.5173242325
 21
6653.9096012985
 31
0.0
  0
LINE
  5
415
330
1F
100
AcDbEntity
  8
0
  6
Continuous
 62
     7
 48
50.0
370
    25
100
AcDbLine
 10
8367.5173242325
 20
7587.7417698776
 30
0.0
 11
8367.5173242325
 21
6653.9096012985
 31
0.0
  0
LINE
  5
416
330
1F
100
AcDbEntity
  8
0
  6
Continuous
 62
     7
 48
50.0
370
    25
100
AcDbLine
 10
8367.6172216172
 20
7587.7417698776
 30
0.0
 11
8367.5173242325
 21
7587.7417698776
 31
0.0
  0
LINE
  5
417
330
1F
100
AcDbEntity
  8
0
  6
Continuous
 62
     7
 48
50.0
370
    25
100
AcDbLine
 10
8367.6172216172
 20
7587.7417698776
 30
0.0
 11
8367.6172216172
 21
7821.2012425339
 31
0.0
  0
LINE
  5
418
330
1F
100
AcDbEntity
  8
0
  6
Continuous
 62
     7
 48
50.0
370
    25
100
AcDbLine
 10
8367.6172216172
 20
7821.2012425339
 30
0.0
 11
8367.5173242325
 21
7821.2012425339
 31
0.0
  0
LINE
  5
419
330
1F
100
AcDbEntity
  8
0
  6
Continuous
 62
     7
 48
50.0
370
    25
100
AcDbLine
 10
8367.5173242325
 20
8054.6588078415
 30
0.0
 11
8367.5173242325
 21
7821.2012425339
 31
0.0
  0
LINE
  5
41A
330
1F
100
AcDbEntity
  8
0
  6
Continuous
 62
     7
 48
50.0
370
    25
100
AcDbLine
 10
9507.5172801251
 20
8054.6588078415
 30
0.0
 11
8367.5173242325
 21
8054.6588078415
 31
0.0
  0
LINE
  5
41B
330
1F
100
AcDbEntity
  8
0
  6
Continuous
 62
     7
 48
50.0
370
    25
100
AcDbLine
 10
9507.5172801251
 20
7821.2012425339
 30
0.0
 11
9507.5172801251
 21
8054.6588078415
 31
0.0
  0
LINE
  5
41C
330
1F
100
AcDbEntity
  8
0
  6
Continuous
 62
     7
 48
50.0
370
    25
100
AcDbLine
 10
9507.4172933335
 20
7821.2012425339
 30
0.0
 11
9507.5172801251
 21
7821.2012425339
 31
0.0
  0
LINE
  5
41D
330
1F
100
AcDbEntity
  8
0
  6
Continuous
 62
     7
 48
50.0
370
    25
100
AcDbLine
 10
9507.4172933335
 20
7587.7417698776
 30
0.0
 11
9507.4172933335
 21
7821.2012425339
 31
0.0
  0
LINE
  5
41E
330
1F
100
AcDbEntity
  8
0
  6
Continuous
 62
     7
 48
50.0
370
    25
100
AcDbLine
 10
9507.4172933335
 20
7587.7417698776
 30
0.0
 11
9507.5172801251
 21
7587.7417698776
 31
0.0
  0
LINE
  5
41F
330
1F
100
AcDbEntity
  8
0
  6
Continuous
 62
     7
 48
50.0
370
    25
100
AcDbLine
 10
9507.5172801251
 20
6653.9096012985
 30
0.0
 11
9507.5172801251
 21
7587.7417698776
 31
0.0
  0
LINE
  5
420
330
1F
100
AcDbEntity
  8
0
  6
Continuous
 62
     7
 48
50.0
370
    25
100
AcDbLine
 10
9507.4172933335
 20
6653.9096012985
 30
0.0
 11
9507.5172801251
 21
6653.9096012985
 31
0.0
  0
LINE
  5
421
330
1F
100
AcDbEntity
  8
0
  6
Continuous
 62
     7
 48
50.0
370
    25
100
AcDbLine
 10
9507.4172933335
 20
6420.4501286423
 30
0.0
 11
9507.4172933335
 21
6653.9096012985
 31
0.0
  0
LINE
  5
422
330
1F
100
AcDbEntity
  8
0
  6
Continuous
 62
     7
 48
50.0
370
    25
100
AcDbLine
 10
9507.4172933335
 20
6420.4501286423
 30
0.0
 11
9507.5172801251
 21
6420.4501286423
 31
0.0
  0
LINE
  5
423
330
1F
100
AcDbEntity
  8
0
  6
Continuous
 62
     7
 48
50.0
370
    25
100
AcDbLine
 10
9507.5172801251
 20
6186.9925633347
 30
0.0
 11
9507.5172801251
 21
6420.4501286423
 31
0.0
  0
LINE
  5
424
330
1F
100
AcDbEntity
  8
0
  6
Continuous
 62
     7
 48
50.0
370
    25
100
AcDbLine
 10
8376.5172679657
 20
8047.2869053757
 30
0.0
 11
9498.5172767872
 21
8047.2869053757
 31
0.0
  0
LINE
  5
425
330
1F
100
AcDbEntity
  8
0
  6
Continuous
 62
     7
 48
50.0
370
    25
100
AcDbLine
 10
8376.5172679657
 20
6194.3644658005
 30
0.0
 11
8376.5172679657
 21
8047.2869053757
 31
0.0
  0
LINE
  5
426
330
1F
100
AcDbEntity
  8
0
  6
Continuous
 62
     7
 48
50.0
370
    25
100
AcDbLine
 10
9498.5172767872
 20
6194.3644658005
 30
0.0
 11
8376.5172679657
 21
6194.3644658005
 31
0.0
  0
LINE
  5
427
330
1F
100
AcDbEntity
  8
0
  6
Continuous
 62
     7
 48
50.0
370
    25
100
AcDbLine
 10
9498.5172767872
 20
8047.2869053757
 30
0.0
 11
9498.5172767872
 21
6194.3644658005
 31
0.0
  0
LINE
  5
428
330
1F
100
AcDbEntity
  8
0
  6
Continuous
 62
     7
 48
50.0
370
    25
100
AcDbLine
 10
9507.5172801251
 20
8077.6023045456
 30
0.0
 11
8367.5173242325
 21
8077.6023045456
 31
0.0
  0
LINE
  5
429
330
1F
100
AcDbEntity
  8
0
  6
Continuous
 62
     7
 48
50.0
370
    25
100
AcDbLine
 10
9507.5172801251
 20
8077.6023045456
 30
0.0
 11
9507.5172801251
 21
8054.6588078415
 31
0.0
  0
LINE
  5
42A
330
1F
100
AcDbEntity
  8
0
  6
Continuous
 62
     7
 48
50.0
370
    25
100
AcDbLine
 10
8367.5173242325
 20
8077.6023045456
 30
0.0
 11
8367.5173242325
 21
8054.6588078415
 31
0.0
  0
LINE
  5
42B
330
1F
100
AcDbEntity
  8
0
  6
Continuous
 62
     7
 48
50.0
370
    25
100
AcDbLine
 10
9497.5172896618
 20
8046.7986241257
 30
0.0
 11
8377.5173146958
 21
8046.7986241257
 31
0.0
  0
LINE
  5
42C
330
1F
100
AcDbEntity
  8
0
  6
Continuous
 62
     7
 48
50.0
370
    25
100
AcDbLine
 10
8377.5173146958
 20
8046.7986241257
 30
0.0
 11
8376.5172679657
 21
8047.2869053757
 31
0.0
  0
LINE
  5
42D
330
1F
100
AcDbEntity
  8
0
  6
Continuous
 62
     7
 48
50.0
370
    25
100
AcDbLine
 10
9498.5172767872
 20
8047.2869053757
 30
0.0
 11
9497.5172896618
 21
8046.7986241257
 31
0.0
  0
LINE
  5
42E
330
1F
100
AcDbEntity
  8
0
  6
Continuous
 62
     7
 48
50.0
370
    25
100
AcDbLine
 10
9498.5172767872
 20
6194.3644658005
 30
0.0
 11
9497.5172896618
 21
6195.5145970261
 31
0.0
  0
LINE
  5
42F
330
1F
100
AcDbEntity
  8
0
  6
Continuous
 62
     7
 48
50.0
370
    25
100
AcDbLine
 10
9497.5172896618
 20
6195.5145970261
 30
0.0
 11
9497.5172896618
 21
8046.7986241257
 31
0.0
  0
LINE
  5
430
330
1F
100
AcDbEntity
  8
0
  6
Continuous
 62
     7
 48
50.0
370
    25
100
AcDbLine
 10
8377.5173146958
 20
8046.7986241257
 30
0.0
 11
8377.5173146958
 21
6195.5145970261
 31
0.0
  0
LINE
  5
431
330
1F
100
AcDbEntity
  8
0
  6
Continuous
 62
     7
 48
50.0
370
    25
100
AcDbLine
 10
8377.5173146958
 20
6195.5145970261
 30
0.0
 11
8376.5172679657
 21
6194.3644658005
 31
0.0
  0
LINE
  5
432
330
1F
100
AcDbEntity
  8
0
  6
Continuous
 62
     7
 48
50.0
370
    25
100
AcDbLine
 10
8377.5173146958
 20
6196.044839946
 30
0.0
 11
9497.5172896618
 21
6196.044839946
 31
0.0
  0
LINE
  5
433
330
1F
100
AcDbEntity
  8
0
  6
Continuous
 62
     7
 48
50.0
370
    25
100
AcDbLine
 10
8367.5173242325
 20
7610.6852665817
 30
0.0
 11
8367.5173242325
 21
7587.7417698776
 31
0.0
  0
LINE
  5
434
330
1F
100
AcDbEntity
  8
0
  6
Continuous
 62
     7
 48
50.0
370
    25
100
AcDbLine
 10
8367.6172216172
 20
7610.6852665817
 30
0.0
 11
8367.5173242325
 21
7610.6852665817
 31
0.0
  0
LINE
  5
435
330
1F
100
AcDbEntity
  8
0
  6
Continuous
 62
     7
 48
50.0
370
    25
100
AcDbLine
 10
9507.5172801251
 20
7610.6852665817
 30
0.0
 11
9507.5172801251
 21
7587.7417698776
 31
0.0
  0
LINE
  5
436
330
1F
100
AcDbEntity
  8
0
  6
Continuous
 62
     7
 48
50.0
370
    25
100
AcDbLine
 10
9507.4172933335
 20
7610.6852665817
 30
0.0
 11
9507.5172801251
 21
7610.6852665817
 31
0.0
  0
LINE
  5
437
330
1F
100
AcDbEntity
  8
0
  6
Continuous
 62
     7
 48
50.0
370
    25
100
AcDbLine
 10
8367.5173242325
 20
6443.3936253464
 30
0.0
 11
8367.5173242325
 21
6420.4501286423
 31
0.0
  0
LINE
  5
438
330
1F
100
AcDbEntity
  8
0
  6
Continuous
 62
     7
 48
50.0
370
    25
100
AcDbLine
 10
8367.6172216172
 20
6443.3936253464
 30
0.0
 11
8367.5173242325
 21
6443.3936253464
 31
0.0
  0
LINE
  5
439
330
1F
100
AcDbEntity
  8
0
  6
Continuous
 62
     7
 48
50.0
370
    25
100
AcDbLine
 10
9507.5172801251
 20
6443.3936253464
 30
0.0
 11
9507.5172801251
 21
6420.4501286423
 31
0.0
  0
LINE
  5
43A
330
1F
100
AcDbEntity
  8
0
  6
Continuous
 62
     7
 48
50.0
370
    25
100
AcDbLine
 10
9507.4172933335
 20
6443.3936253464
 30
0.0
 11
9507.5172801251
 21
6443.3936253464
 31
0.0
  0
LINE
  5
43B
330
1F
100
AcDbEntity
  8
0
  6
Continuous
 62
     7
 48
50.0
370
    25
100
AcDbLine
 10
8377.5173146958
 20
6195.5145970261
 30
0.0
 11
9497.5172896618
 21
6195.5145970261
 31
0.0
  0
LINE
  5
43C
330
1F
100
AcDbEntity
  8
0
  6
Continuous
 62
     7
 48
50.0
370
    25
100
AcDbLine
 10
9526.5172739262
 20
6186.9925633347
 30
0.0
 11
10666.5172894234
 21
6186.9925633347
 31
0.0
  0
LINE
  5
43D
330
1F
100
AcDbEntity
  8
0
  6
Continuous
 62
     7
 48
50.0
370
    25
100
AcDbLine
 10
9526.5172739262
 20
6420.4501286423
 30
0.0
 11
9526.5172739262
 21
6186.9925633347
 31
0.0
  0
LINE
  5
43E
330
1F
100
AcDbEntity
  8
0
  6
Continuous
 62
     7
 48
50.0
370
    25
100
AcDbLine
 10
9526.6172905201
 20
6420.4501286423
 30
0.0
 11
9526.5172739262
 21
6420.4501286423
 31
0.0
  0
LINE
  5
43F
330
1F
100
AcDbEntity
  8
0
  6
Continuous
 62
     7
 48
50.0
370
    25
100
AcDbLine
 10
9526.6172905201
 20
6420.4501286423
 30
0.0
 11
9526.6172905201
 21
6653.9096012985
 31
0.0
  0
LINE
  5
440
330
1F
100
AcDbEntity
  8
0
  6
Continuous
 62
     7
 48
50.0
370
    25
100
AcDbLine
 10
9526.6172905201
 20
6653.9096012985
 30
0.0
 11
9526.5172739262
 21
6653.9096012985
 31
0.0
  0
LINE
  5
441
330
1F
100
AcDbEntity
  8
0
  6
Continuous
 62
     7
 48
50.0
370
    25
100
AcDbLine
 10
9526.5172739262
 20
7587.7417698776
 30
0.0
 11
9526.5172739262
 21
6653.9096012985
 31
0.0
  0
LINE
  5
442
330
1F
100
AcDbEntity
  8
0
  6
Continuous
 62
     7
 48
50.0
370
    25
100
AcDbLine
 10
9526.6172905201
 20
7587.7417698776
 30
0.0
 11
9526.5172739262
 21
7587.7417698776
 31
0.0
  0
LINE
  5
443
330
1F
100
AcDbEntity
  8
0
  6
Continuous
 62
     7
 48
50.0
370
    25
100
AcDbLine
 10
9526.6172905201
 20
7587.7417698776
 30
0.0
 11
9526.6172905201
 21
7821.2012425339
 31
0.0
  0
LINE
  5
444
330
1F
100
AcDbEntity
  8
0
  6
Continuous
 62
     7
 48
50.0
370
    25
100
AcDbLine
 10
9526.6172905201
 20
7821.2012425339
 30
0.0
 11
9526.5172739262
 21
7821.2012425339
 31
0.0
  0
LINE
  5
445
330
1F
100
AcDbEntity
  8
0
  6
Continuous
 62
     7
 48
50.0
370
    25
100
AcDbLine
 10
9526.5172739262
 20
8054.6588078415
 30
0.0
 11
9526.5172739262
 21
7821.2012425339
 31
0.0
  0
LINE
  5
446
330
1F
100
AcDbEntity
  8
0
  6
Continuous
 62
     7
 48
50.0
370
    25
100
AcDbLine
 10
10666.5172894234
 20
8054.6588078415
 30
0.0
 11
9526.5172739262
 21
8054.6588078415
 31
0.0
  0
LINE
  5
447
330
1F
100
AcDbEntity
  8
0
  6
Continuous
 62
     7
 48
50.0
370
    25
100
AcDbLine
 10
10666.5172894234
 20
7821.2012425339
 30
0.0
 11
10666.5172894234
 21
8054.6588078415
 31
0.0
  0
LINE
  5
448
330
1F
100
AcDbEntity
  8
0
  6
Continuous
 62
     7
 48
50.0
370
    25
100
AcDbLine
 10
10666.4172728295
 20
7821.2012425339
 30
0.0
 11
10666.5172894234
 21
7821.2012425339
 31
0.0
  0
LINE
  5
449
330
1F
100
AcDbEntity
  8
0
  6
Continuous
 62
     7
 48
50.0
370
    25
100
AcDbLine
 10
10666.4172728295
 20
7587.7417698776
 30
0.0
 11
10666.4172728295
 21
7821.2012425339
 31
0.0
  0
LINE
  5
44A
330
1F
100
AcDbEntity
  8
0
  6
Continuous
 62
     7
 48
50.0
370
    25
100
AcDbLine
 10
10666.4172728295
 20
7587.7417698776
 30
0.0
 11
10666.5172894234
 21
7587.7417698776
 31
0.0
  0
LINE
  5
44B
330
1F
100
AcDbEntity
  8
0
  6
Continuous
 62
     7
 48
50.0
370
    25
100
AcDbLine
 10
10666.5172894234
 20
6653.9096012985
 30
0.0
 11
10666.5172894234
 21
7587.7417698776
 31
0.0
  0
LINE
  5
44C
330
1F
100
AcDbEntity
  8
0
  6
Continuous
 62
     7
 48
50.0
370
    25
100
AcDbLine
 10
10666.4172728295
 20
6653.9096012985
 30
0.0
 11
10666.5172894234
 21
6653.9096012985
 31
0.0
  0
LINE
  5
44D
330
1F
100
AcDbEntity
  8
0
  6
Continuous
 62
     7
 48
50.0
370
    25
100
AcDbLine
 10
10666.4172728295
 20
6420.4501286423
 30
0.0
 11
10666.4172728295
 21
6653.9096012985
 31
0.0
  0
LINE
  5
44E
330
1F
100
AcDbEntity
  8
0
  6
Continuous
 62
     7
 48
50.0
370
    25
100
AcDbLine
 10
10666.4172728295
 20
6420.4501286423
 30
0.0
 11
10666.5172894234
 21
6420.4501286423
 31
0.0
  0
LINE
  5
44F
330
1F
100
AcDbEntity
  8
0
  6
Continuous
 62
     7
 48
50.0
370
    25
100
AcDbLine
 10
10666.5172894234
 20
6186.9925633347
 30
0.0
 11
10666.5172894234
 21
6420.4501286423
 31
0.0
  0
LINE
  5
450
330
1F
100
AcDbEntity
  8
0
  6
Continuous
 62
     7
 48
50.0
370
    25
100
AcDbLine
 10
9535.5172772641
 20
8047.2869053757
 30
0.0
 11
10657.5172860855
 21
8047.2869053757
 31
0.0
  0
LINE
  5
451
330
1F
100
AcDbEntity
  8
0
  6
Continuous
 62
     7
 48
50.0
370
    25
100
AcDbLine
 10
9535.5172772641
 20
6194.3644658005
 30
0.0
 11
9535.5172772641
 21
8047.2869053757
 31
0.0
  0
LINE
  5
452
330
1F
100
AcDbEntity
  8
0
  6
Continuous
 62
     7
 48
50.0
370
    25
100
AcDbLine
 10
10657.5172860855
 20
6194.3644658005
 30
0.0
 11
9535.5172772641
 21
6194.3644658005
 31
0.0
  0
LINE
  5
453
330
1F
100
AcDbEntity
  8
0
  6
Continuous
 62
     7
 48
50.0
370
    25
100
AcDbLine
 10
10657.5172860855
 20
8047.2869053757
 30
0.0
 11
10657.5172860855
 21
6194.3644658005
 31
0.0
  0
LINE
  5
454
330
1F
100
AcDbEntity
  8
0
  6
Continuous
 62
     7
 48
50.0
370
    25
100
AcDbLine
 10
10666.5172894234
 20
8077.6023045456
 30
0.0
 11
9526.5172739262
 21
8077.6023045456
 31
0.0
  0
LINE
  5
455
330
1F
100
AcDbEntity
  8
0
  6
Continuous
 62
     7
 48
50.0
370
    25
100
AcDbLine
 10
10666.5172894234
 20
8077.6023045456
 30
0.0
 11
10666.5172894234
 21
8054.6588078415
 31
0.0
  0
LINE
  5
456
330
1F
100
AcDbEntity
  8
0
  6
Continuous
 62
     7
 48
50.0
370
    25
100
AcDbLine
 10
9526.5172739262
 20
8077.6023045456
 30
0.0
 11
9526.5172739262
 21
8054.6588078415
 31
0.0
  0
LINE
  5
457
330
1F
100
AcDbEntity
  8
0
  6
Continuous
 62
     7
 48
50.0
370
    25
100
AcDbLine
 10
10656.5172989601
 20
8046.7986241257
 30
0.0
 11
9536.5172941918
 21
8046.7986241257
 31
0.0
  0
LINE
  5
458
330
1F
100
AcDbEntity
  8
0
  6
Continuous
 62
     7
 48
50.0
370
    25
100
AcDbLine
 10
9536.5172941918
 20
8046.7986241257
 30
0.0
 11
9535.5172772641
 21
8047.2869053757
 31
0.0
  0
LINE
  5
459
330
1F
100
AcDbEntity
  8
0
  6
Continuous
 62
     7
 48
50.0
370
    25
100
AcDbLine
 10
10657.5172860855
 20
8047.2869053757
 30
0.0
 11
10656.5172989601
 21
8046.7986241257
 31
0.0
  0
LINE
  5
45A
330
1F
100
AcDbEntity
  8
0
  6
Continuous
 62
     7
 48
50.0
370
    25
100
AcDbLine
 10
10657.5172860855
 20
6194.3644658005
 30
0.0
 11
10656.5172989601
 21
6195.5145970261
 31
0.0
  0
LINE
  5
45B
330
1F
100
AcDbEntity
  8
0
  6
Continuous
 62
     7
 48
50.0
370
    25
100
AcDbLine
 10
10656.5172989601
 20
6195.5145970261
 30
0.0
 11
10656.5172989601
 21
8046.7986241257
 31
0.0
  0
LINE
  5
45C
330
1F
100
AcDbEntity
  8
0
  6
Continuous
 62
     7
 48
50.0
370
    25
100
AcDbLine
 10
9536.5172941918
 20
8046.7986241257
 30
0.0
 11
9536.5172941918
 21
6195.5145970261
 31
0.0
  0
LINE
  5
45D
330
1F
100
AcDbEntity
  8
0
  6
Continuous
 62
     7
 48
50.0
370
    25
100
AcDbLine
 10
9536.5172941918
 20
6195.5145970261
 30
0.0
 11
9535.5172772641
 21
6194.3644658005
 31
0.0
  0
LINE
  5
45E
330
1F
100
AcDbEntity
  8
0
  6
Continuous
 62
     7
 48
50.0
370
    25
100
AcDbLine
 10
9536.5172941918
 20
6196.044839946
 30
0.0
 11
10656.5172989601
 21
6196.044839946
 31
0.0
  0
LINE
  5
45F
330
1F
100
AcDbEntity
  8
0
  6
Continuous
 62
     7
 48
50.0
370
    25
100
AcDbLine
 10
9526.5172739262
 20
7610.6852665817
 30
0.0
 11
9526.5172739262
 21
7587.7417698776
 31
0.0
  0
LINE
  5
460
330
1F
100
AcDbEntity
  8
0
  6
Continuous
 62
     7
 48
50.0
370
    25
100
AcDbLine
 10
9526.6172905201
 20
7610.6852665817
 30
0.0
 11
9526.5172739262
 21
7610.6852665817
 31
0.0
  0
LINE
  5
461
330
1F
100
AcDbEntity
  8
0
  6
Continuous
 62
     7
 48
50.0
370
    25
100
AcDbLine
 10
10666.5172894234
 20
7610.6852665817
 30
0.0
 11
10666.5172894234
 21
7587.7417698776
 31
0.0
  0
LINE
  5
462
330
1F
100
AcDbEntity
  8
0
  6
Continuous
 62
     7
 48
50.0
370
    25
100
AcDbLine
 10
10666.4172728295
 20
7610.6852665817
 30
0.0
 11
10666.5172894234
 21
7610.6852665817
 31
0.0
  0
LINE
  5
463
330
1F
100
AcDbEntity
  8
0
  6
Continuous
 62
     7
 48
50.0
370
    25
100
AcDbLine
 10
9526.5172739262
 20
6443.3936253464
 30
0.0
 11
9526.5172739262
 21
6420.4501286423
 31
0.0
  0
LINE
  5
464
330
1F
100
AcDbEntity
  8
0
  6
Continuous
 62
     7
 48
50.0
370
    25
100
AcDbLine
 10
9526.6172905201
 20
6443.3936253464
 30
0.0
 11
9526.5172739262
 21
6443.3936253464
 31
0.0
  0
LINE
  5
465
330
1F
100
AcDbEntity
  8
0
  6
Continuous
 62
     7
 48
50.0
370
    25
100
AcDbLine
 10
10666.5172894234
 20
6443.3936253464
 30
0.0
 11
10666.5172894234
 21
6420.4501286423
 31
0.0
  0
LINE
  5
466
330
1F
100
AcDbEntity
  8
0
  6
Continuous
 62
     7
 48
50.0
370
    25
100
AcDbLine
 10
10666.4172728295
 20
6443.3936253464
 30
0.0
 11
10666.5172894234
 21
6443.3936253464
 31
0.0
  0
LINE
  5
467
330
1F
100
AcDbEntity
  8
0
  6
Continuous
 62
     7
 48
50.0
370
    25
100
AcDbLine
 10
9536.5172941918
 20
6195.5145970261
 30
0.0
 11
10656.5172989601
 21
6195.5145970261
 31
0.0
  0
LINE
  5
468
330
1F
100
AcDbEntity
  8
0
  6
Continuous
 62
     7
 48
50.0
370
    25
100
AcDbLine
 10
8332.0172746415
 20
5876.9091740524
 30
0.0
 11
8332.0172746415
 21
5872.0358982956
 31
0.0
  0
LINE
  5
469
330
1F
100
AcDbEntity
  8
0
  6
Continuous
 62
     7
 48
50.0
370
    25
100
AcDbLine
 10
10702.0172794098
 20
5876.9091740524
 30
0.0
 11
10702.0172794098
 21
5872.0358982956
 31
0.0
  0
LINE
  5
46A
330
1F
100
AcDbEntity
  8
0
  6
Continuous
 62
     7
 48
50.0
370
    25
100
AcDbLine
 10
8332.0172746415
 20
5872.0358982956
 30
0.0
 11
8332.0172746415
 21
5836.8109837448
 31
0.0
  0
LINE
  5
46B
330
1F
100
AcDbEntity
  8
0
  6
Continuous
 62
     7
 48
50.0
370
    25
100
AcDbLine
 10
10702.0172794098
 20
5872.0358982956
 30
0.0
 11
10702.0172794098
 21
5836.8109837448
 31
0.0
  0
LINE
  5
46C
330
1F
100
AcDbEntity
  8
0
  6
Continuous
 62
     7
 48
50.0
370
    25
100
AcDbLine
 10
9526.6172905201
 20
5859.748758403
 30
0.0
 11
9507.4172933335
 21
5859.748758403
 31
0.0
  0
LINE
  5
46D
330
1F
100
AcDbEntity
  8
0
  6
Continuous
 62
     7
 48
50.0
370
    25
100
AcDbLine
 10
9507.4172933335
 20
5849.0981236374
 30
0.0
 11
9526.6172905201
 21
5849.0981236374
 31
0.0
  0
LINE
  5
46E
330
1F
100
AcDbEntity
  8
0
  6
Continuous
 62
     7
 48
50.0
370
    25
100
AcDbLine
 10
8332.0172746415
 20
5886.3734379684
 30
0.0
 11
8332.0172746415
 21
5876.9091740524
 31
0.0
  0
LINE
  5
46F
330
1F
100
AcDbEntity
  8
0
  6
Continuous
 62
     7
 48
50.0
370
    25
100
AcDbLine
 10
8332.0172746415
 20
5886.3734379684
 30
0.0
 11
8367.6172216172
 21
5886.3734379684
 31
0.0
  0
LINE
  5
470
330
1F
100
AcDbEntity
  8
0
  6
Continuous
 62
     7
 48
50.0
370
    25
100
AcDbLine
 10
9507.4172933335
 20
5886.3734379684
 30
0.0
 11
9526.6172905201
 21
5886.3734379684
 31
0.0
  0
LINE
  5
471
330
1F
100
AcDbEntity
  8
0
  6
Continuous
 62
     7
 48
50.0
370
    25
100
AcDbLine
 10
10666.4172728295
 20
5886.3734379684
 30
0.0
 11
10702.0172794098
 21
5886.3734379684
 31
0.0
  0
LINE
  5
472
330
1F
100
AcDbEntity
  8
0
  6
Continuous
 62
     7
 48
50.0
370
    25
100
AcDbLine
 10
10702.0172794098
 20
5886.3734379684
 30
0.0
 11
10702.0172794098
 21
5876.9091740524
 31
0.0
  0
LINE
  5
473
330
1F
100
AcDbEntity
  8
0
  6
Continuous
 62
     7
 48
50.0
370
    25
100
AcDbLine
 10
9507.4172933335
 20
5849.9602452194
 30
0.0
 11
9526.6172905201
 21
5849.9602452194
 31
0.0
  0
LINE
  5
474
330
1F
100
AcDbEntity
  8
0
  6
Continuous
 62
     7
 48
50.0
370
    25
100
AcDbLine
 10
8332.0172746415
 20
5835.319437114
 30
0.0
 11
8332.0172746415
 21
5836.8109837448
 31
0.0
  0
LINE
  5
475
330
1F
100
AcDbEntity
  8
0
  6
Continuous
 62
     7
 48
50.0
370
    25
100
AcDbLine
 10
10702.0172794098
 20
5836.8109837448
 30
0.0
 11
10702.0172794098
 21
5835.319437114
 31
0.0
  0
LINE
  5
476
330
1F
100
AcDbEntity
  8
0
  6
Continuous
 62
     7
 48
50.0
370
    25
100
AcDbLine
 10
10702.0172794098
 20
5886.3734379684
 30
0.0
 11
10702.0172794098
 21
5890.5238285934
 31
0.0
  0
LINE
  5
477
330
1F
100
AcDbEntity
  8
0
  6
Continuous
 62
     7
 48
50.0
370
    25
100
AcDbLine
 10
8332.0172746415
 20
5886.3734379684
 30
0.0
 11
8332.0172746415
 21
5890.5238285934
 31
0.0
  0
LINE
  5
478
330
1F
100
AcDbEntity
  8
0
  6
Continuous
 62
     7
 48
50.0
370
    25
100
AcDbLine
 10
8332.0172746415
 20
5919.5593968308
 30
0.0
 11
8367.6172216172
 21
5919.5593968308
 31
0.0
  0
LINE
  5
479
330
1F
100
AcDbEntity
  8
0
  6
Continuous
 62
     7
 48
50.0
370
    25
100
AcDbLine
 10
9507.4172933335
 20
5919.5593968308
 30
0.0
 11
9526.6172905201
 21
5919.5593968308
 31
0.0
  0
LINE
  5
47A
330
1F
100
AcDbEntity
  8
0
  6
Continuous
 62
     7
 48
50.0
370
    25
100
AcDbLine
 10
10666.4172728295
 20
5919.5593968308
 30
0.0
 11
10702.0172794098
 21
5919.5593968308
 31
0.0
  0
LINE
  5
47B
330
1F
100
AcDbEntity
  8
0
  6
Continuous
 62
     7
 48
50.0
370
    25
100
AcDbLine
 10
8332.0172746415
 20
5919.5593968308
 30
0.0
 11
8332.0172746415
 21
5920.7877293503
 31
0.0
  0
LINE
  5
47C
330
1F
100
AcDbEntity
  8
0
  6
Continuous
 62
     7
 48
50.0
370
    25
100
AcDbLine
 10
8332.0172746415
 20
5920.7877293503
 30
0.0
 11
8367.6172216172
 21
5920.7877293503
 31
0.0
  0
LINE
  5
47D
330
1F
100
AcDbEntity
  8
0
  6
Continuous
 62
     7
 48
50.0
370
    25
100
AcDbLine
 10
9507.4172933335
 20
5920.7877293503
 30
0.0
 11
9526.6172905201
 21
5920.7877293503
 31
0.0
  0
LINE
  5
47E
330
1F
100
AcDbEntity
  8
0
  6
Continuous
 62
     7
 48
50.0
370
    25
100
AcDbLine
 10
10666.4172728295
 20
5920.7877293503
 30
0.0
 11
10702.0172794098
 21
5920.7877293503
 31
0.0
  0
LINE
  5
47F
330
1F
100
AcDbEntity
  8
0
  6
Continuous
 62
     7
 48
50.0
370
    25
100
AcDbLine
 10
10702.0172794098
 20
5919.5593968308
 30
0.0
 11
10702.0172794098
 21
5920.7877293503
 31
0.0
  0
LINE
  5
480
330
1F
100
AcDbEntity
  8
0
  6
Continuous
 62
     7
 48
50.0
370
    25
100
AcDbLine
 10
8332.0172746415
 20
5930.2519932663
 30
0.0
 11
8332.0172746415
 21
5920.7877293503
 31
0.0
  0
LINE
  5
481
330
1F
100
AcDbEntity
  8
0
  6
Continuous
 62
     7
 48
50.0
370
    25
100
AcDbLine
 10
10702.0172794098
 20
5930.2519932663
 30
0.0
 11
10702.0172794098
 21
5920.7877293503
 31
0.0
  0
LINE
  5
482
330
1F
100
AcDbEntity
  8
0
  6
Continuous
 62
     7
 48
50.0
370
    25
100
AcDbLine
 10
8332.0172746415
 20
5930.2519932663
 30
0.0
 11
8332.0172746415
 21
5930.8852330124
 31
0.0
  0
LINE
  5
483
330
1F
100
AcDbEntity
  8
0
  6
Continuous
 62
     7
 48
50.0
370
    25
100
AcDbLine
 10
10702.0172794098
 20
5930.2519932663
 30
0.0
 11
10702.0172794098
 21
5930.8852330124
 31
0.0
  0
LINE
  5
484
330
1F
100
AcDbEntity
  8
0
  6
Continuous
 62
     7
 48
50.0
370
    25
100
AcDbLine
 10
8332.0172746415
 20
5893.3085575974
 30
0.0
 11
8332.0172746415
 21
5919.5593968308
 31
0.0
  0
LINE
  5
485
330
1F
100
AcDbEntity
  8
0
  6
Continuous
 62
     7
 48
50.0
370
    25
100
AcDbLine
 10
10702.0172794098
 20
5893.3085575974
 30
0.0
 11
10702.0172794098
 21
5919.5593968308
 31
0.0
  0
LINE
  5
486
330
1F
100
AcDbEntity
  8
0
  6
Continuous
 62
     7
 48
50.0
370
    25
100
AcDbLine
 10
9526.6172905201
 20
5905.5956974899
 30
0.0
 11
9507.4172933335
 21
5905.5956974899
 31
0.0
  0
LINE
  5
487
330
1F
100
AcDbEntity
  8
0
  6
Continuous
 62
     7
 48
50.0
370
    25
100
AcDbLine
 10
9507.4172933335
 20
5916.2444249069
 30
0.0
 11
9526.6172905201
 21
5916.2444249069
 31
0.0
  0
LINE
  5
488
330
1F
100
AcDbEntity
  8
0
  6
Continuous
 62
     7
 48
50.0
370
    25
100
AcDbLine
 10
9526.6172905201
 20
5906.4559117233
 30
0.0
 11
9507.4172933335
 21
5906.4559117233
 31
0.0
  0
LINE
  5
489
330
1F
100
AcDbEntity
  8
0
  6
Continuous
 62
     7
 48
50.0
370
    25
100
AcDbLine
 10
8332.0172746415
 20
5893.3085575974
 30
0.0
 11
8332.0172746415
 21
5890.5238285934
 31
0.0
  0
LINE
  5
48A
330
1F
100
AcDbEntity
  8
0
  6
Continuous
 62
     7
 48
50.0
370
    25
100
AcDbLine
 10
10702.0172794098
 20
5890.5238285934
 30
0.0
 11
10702.0172794098
 21
5893.3085575974
 31
0.0
  0
LINE
  5
48B
330
1F
100
AcDbEntity
  8
0
  6
Continuous
 62
     7
 48
50.0
370
    25
100
AcDbLine
 10
8332.0172746415
 20
6497.8274479782
 30
0.0
 11
8332.0172746415
 21
6492.9522648727
 31
0.0
  0
LINE
  5
48C
330
1F
100
AcDbEntity
  8
0
  6
Continuous
 62
     7
 48
50.0
370
    25
100
AcDbLine
 10
10702.0172794098
 20
6497.8274479782
 30
0.0
 11
10702.0172794098
 21
6492.9522648727
 31
0.0
  0
LINE
  5
48D
330
1F
100
AcDbEntity
  8
0
  6
Continuous
 62
     7
 48
50.0
370
    25
100
AcDbLine
 10
8332.0172746415
 20
6492.9522648727
 30
0.0
 11
8332.0172746415
 21
6457.7292576706
 31
0.0
  0
LINE
  5
48E
330
1F
100
AcDbEntity
  8
0
  6
Continuous
 62
     7
 48
50.0
370
    25
100
AcDbLine
 10
10702.0172794098
 20
6492.9522648727
 30
0.0
 11
10702.0172794098
 21
6457.7292576706
 31
0.0
  0
LINE
  5
48F
330
1F
100
AcDbEntity
  8
0
  6
Continuous
 62
     7
 48
50.0
370
    25
100
AcDbLine
 10
9526.6172905201
 20
6480.6651249802
 30
0.0
 11
9507.4172933335
 21
6480.6651249802
 31
0.0
  0
LINE
  5
490
330
1F
100
AcDbEntity
  8
0
  6
Continuous
 62
     7
 48
50.0
370
    25
100
AcDbLine
 10
9507.4172933335
 20
6470.0163975632
 30
0.0
 11
9526.6172905201
 21
6470.0163975632
 31
0.0
  0
LINE
  5
491
330
1F
100
AcDbEntity
  8
0
  6
Continuous
 62
     7
 48
50.0
370
    25
100
AcDbLine
 10
8332.0172746415
 20
6507.2917118942
 30
0.0
 11
8332.0172746415
 21
6497.8274479782
 31
0.0
  0
LINE
  5
492
330
1F
100
AcDbEntity
  8
0
  6
Continuous
 62
     7
 48
50.0
370
    25
100
AcDbLine
 10
8332.0172746415
 20
6507.2917118942
 30
0.0
 11
8367.6172216172
 21
6507.2917118942
 31
0.0
  0
LINE
  5
493
330
1F
100
AcDbEntity
  8
0
  6
Continuous
 62
     7
 48
50.0
370
    25
100
AcDbLine
 10
9507.4172933335
 20
6507.2917118942
 30
0.0
 11
9526.6172905201
 21
6507.2917118942
 31
0.0
  0
LINE
  5
494
330
1F
100
AcDbEntity
  8
0
  6
Continuous
 62
     7
 48
50.0
370
    25
100
AcDbLine
 10
10666.4172728295
 20
6507.2917118942
 30
0.0
 11
10702.0172794098
 21
6507.2917118942
 31
0.0
  0
LINE
  5
495
330
1F
100
AcDbEntity
  8
0
  6
Continuous
 62
     7
 48
50.0
370
    25
100
AcDbLine
 10
10702.0172794098
 20
6507.2917118942
 30
0.0
 11
10702.0172794098
 21
6497.8274479782
 31
0.0
  0
LINE
  5
496
330
1F
100
AcDbEntity
  8
0
  6
Continuous
 62
     7
 48
50.0
370
    25
100
AcDbLine
 10
9507.4172933335
 20
6470.8766117966
 30
0.0
 11
9526.6172905201
 21
6470.8766117966
 31
0.0
  0
LINE
  5
497
330
1F
100
AcDbEntity
  8
0
  6
Continuous
 62
     7
 48
50.0
370
    25
100
AcDbLine
 10
8332.0172746415
 20
6456.2358036911
 30
0.0
 11
8332.0172746415
 21
6457.7292576706
 31
0.0
  0
LINE
  5
498
330
1F
100
AcDbEntity
  8
0
  6
Continuous
 62
     7
 48
50.0
370
    25
100
AcDbLine
 10
10702.0172794098
 20
6457.7292576706
 30
0.0
 11
10702.0172794098
 21
6456.2358036911
 31
0.0
  0
LINE
  5
499
330
1F
100
AcDbEntity
  8
0
  6
Continuous
 62
     7
 48
50.0
370
    25
100
AcDbLine
 10
10702.0172794098
 20
6507.2917118942
 30
0.0
 11
10702.0172794098
 21
6511.4401951706
 31
0.0
  0
LINE
  5
49A
330
1F
100
AcDbEntity
  8
0
  6
Continuous
 62
     7
 48
50.0
370
    25
100
AcDbLine
 10
8332.0172746415
 20
6507.2917118942
 30
0.0
 11
8332.0172746415
 21
6511.4401951706
 31
0.0
  0
LINE
  5
49B
330
1F
100
AcDbEntity
  8
0
  6
Continuous
 62
     7
 48
50.0
370
    25
100
AcDbLine
 10
8332.0172746415
 20
6540.4776707565
 30
0.0
 11
8367.6172216172
 21
6540.4776707565
 31
0.0
  0
LINE
  5
49C
330
1F
100
AcDbEntity
  8
0
  6
Continuous
 62
     7
 48
50.0
370
    25
100
AcDbLine
 10
9507.4172933335
 20
6540.4776707565
 30
0.0
 11
9526.6172905201
 21
6540.4776707565
 31
0.0
  0
LINE
  5
49D
330
1F
100
AcDbEntity
  8
0
  6
Continuous
 62
     7
 48
50.0
370
    25
100
AcDbLine
 10
10666.4172728295
 20
6540.4776707565
 30
0.0
 11
10702.0172794098
 21
6540.4776707565
 31
0.0
  0
LINE
  5
49E
330
1F
100
AcDbEntity
  8
0
  6
Continuous
 62
     7
 48
50.0
370
    25
100
AcDbLine
 10
8332.0172746415
 20
6540.4776707565
 30
0.0
 11
8332.0172746415
 21
6541.7060032761
 31
0.0
  0
LINE
  5
49F
330
1F
100
AcDbEntity
  8
0
  6
Continuous
 62
     7
 48
50.0
370
    25
100
AcDbLine
 10
8332.0172746415
 20
6541.7060032761
 30
0.0
 11
8367.6172216172
 21
6541.7060032761
 31
0.0
  0
LINE
  5
4A0
330
1F
100
AcDbEntity
  8
0
  6
Continuous
 62
     7
 48
50.0
370
    25
100
AcDbLine
 10
9507.4172933335
 20
6541.7060032761
 30
0.0
 11
9526.6172905201
 21
6541.7060032761
 31
0.0
  0
LINE
  5
4A1
330
1F
100
AcDbEntity
  8
0
  6
Continuous
 62
     7
 48
50.0
370
    25
100
AcDbLine
 10
10666.4172728295
 20
6541.7060032761
 30
0.0
 11
10702.0172794098
 21
6541.7060032761
 31
0.0
  0
LINE
  5
4A2
330
1F
100
AcDbEntity
  8
0
  6
Continuous
 62
     7
 48
50.0
370
    25
100
AcDbLine
 10
10702.0172794098
 20
6540.4776707565
 30
0.0
 11
10702.0172794098
 21
6541.7060032761
 31
0.0
  0
LINE
  5
4A3
330
1F
100
AcDbEntity
  8
0
  6
Continuous
 62
     7
 48
50.0
370
    25
100
AcDbLine
 10
8332.0172746415
 20
6551.1702671921
 30
0.0
 11
8332.0172746415
 21
6541.7060032761
 31
0.0
  0
LINE
  5
4A4
330
1F
100
AcDbEntity
  8
0
  6
Continuous
 62
     7
 48
50.0
370
    25
100
AcDbLine
 10
10702.0172794098
 20
6551.1702671921
 30
0.0
 11
10702.0172794098
 21
6541.7060032761
 31
0.0
  0
LINE
  5
4A5
330
1F
100
AcDbEntity
  8
0
  6
Continuous
 62
     7
 48
50.0
370
    25
100
AcDbLine
 10
8332.0172746415
 20
6551.8035069382
 30
0.0
 11
8332.0172746415
 21
6551.1702671921
 31
0.0
  0
LINE
  5
4A6
330
1F
100
AcDbEntity
  8
0
  6
Continuous
 62
     7
 48
50.0
370
    25
100
AcDbLine
 10
10702.0172794098
 20
6551.8035069382
 30
0.0
 11
10702.0172794098
 21
6551.1702671921
 31
0.0
  0
LINE
  5
4A7
330
1F
100
AcDbEntity
  8
0
  6
Continuous
 62
     7
 48
50.0
370
    25
100
AcDbLine
 10
8332.0172746415
 20
6514.2268315231
 30
0.0
 11
8332.0172746415
 21
6540.4776707565
 31
0.0
  0
LINE
  5
4A8
330
1F
100
AcDbEntity
  8
0
  6
Continuous
 62
     7
 48
50.0
370
    25
100
AcDbLine
 10
10702.0172794098
 20
6514.2268315231
 30
0.0
 11
10702.0172794098
 21
6540.4776707565
 31
0.0
  0
LINE
  5
4A9
330
1F
100
AcDbEntity
  8
0
  6
Continuous
 62
     7
 48
50.0
370
    25
100
AcDbLine
 10
9526.6172905201
 20
6526.5139714157
 30
0.0
 11
9507.4172933335
 21
6526.5139714157
 31
0.0
  0
LINE
  5
4AA
330
1F
100
AcDbEntity
  8
0
  6
Continuous
 62
     7
 48
50.0
370
    25
100
AcDbLine
 10
9507.4172933335
 20
6537.1626988327
 30
0.0
 11
9526.6172905201
 21
6537.1626988327
 31
0.0
  0
LINE
  5
4AB
330
1F
100
AcDbEntity
  8
0
  6
Continuous
 62
     7
 48
50.0
370
    25
100
AcDbLine
 10
9526.6172905201
 20
6527.3741856491
 30
0.0
 11
9507.4172933335
 21
6527.3741856491
 31
0.0
  0
LINE
  5
4AC
330
1F
100
AcDbEntity
  8
0
  6
Continuous
 62
     7
 48
50.0
370
    25
100
AcDbLine
 10
8332.0172746415
 20
6514.2268315231
 30
0.0
 11
8332.0172746415
 21
6511.4401951706
 31
0.0
  0
LINE
  5
4AD
330
1F
100
AcDbEntity
  8
0
  6
Continuous
 62
     7
 48
50.0
370
    25
100
AcDbLine
 10
10702.0172794098
 20
6511.4401951706
 30
0.0
 11
10702.0172794098
 21
6514.2268315231
 31
0.0
  0
LINE
  5
4AE
330
1F
100
AcDbEntity
  8
0
  6
Continuous
 62
     7
 48
50.0
370
    25
100
AcDbLine
 10
8332.0172746415
 20
4762.0429173386
 30
0.0
 11
8332.0172746415
 21
4757.1696415817
 31
0.0
  0
LINE
  5
4AF
330
1F
100
AcDbEntity
  8
0
  6
Continuous
 62
     7
 48
50.0
370
    25
100
AcDbLine
 10
10702.0172794098
 20
4762.0429173386
 30
0.0
 11
10702.0172794098
 21
4757.1696415817
 31
0.0
  0
LINE
  5
4B0
330
1F
100
AcDbEntity
  8
0
  6
Continuous
 62
     7
 48
50.0
370
    25
100
AcDbLine
 10
8332.0172746415
 20
4757.1696415817
 30
0.0
 11
8332.0172746415
 21
4721.9466343796
 31
0.0
  0
LINE
  5
4B1
330
1F
100
AcDbEntity
  8
0
  6
Continuous
 62
     7
 48
50.0
370
    25
100
AcDbLine
 10
10702.0172794098
 20
4757.1696415817
 30
0.0
 11
10702.0172794098
 21
4721.9466343796
 31
0.0
  0
LINE
  5
4B2
330
1F
100
AcDbEntity
  8
0
  6
Continuous
 62
     7
 48
50.0
370
    25
100
AcDbLine
 10
9526.6172905201
 20
4744.8825016891
 30
0.0
 11
9507.4172933335
 21
4744.8825016891
 31
0.0
  0
LINE
  5
4B3
330
1F
100
AcDbEntity
  8
0
  6
Continuous
 62
     7
 48
50.0
370
    25
100
AcDbLine
 10
9507.4172933335
 20
4734.2337742722
 30
0.0
 11
9526.6172905201
 21
4734.2337742722
 31
0.0
  0
LINE
  5
4B4
330
1F
100
AcDbEntity
  8
0
  6
Continuous
 62
     7
 48
50.0
370
    25
100
AcDbLine
 10
8332.0172746415
 20
4771.5071812546
 30
0.0
 11
8332.0172746415
 21
4762.0429173386
 31
0.0
  0
LINE
  5
4B5
330
1F
100
AcDbEntity
  8
0
  6
Continuous
 62
     7
 48
50.0
370
    25
100
AcDbLine
 10
8332.0172746415
 20
4771.5071812546
 30
0.0
 11
8367.5173242325
 21
4771.5071812546
 31
0.0
  0
LINE
  5
4B6
330
1F
100
AcDbEntity
  8
0
  6
Continuous
 62
     7
 48
50.0
370
    25
100
AcDbLine
 10
9507.5172801251
 20
4771.5071812546
 30
0.0
 11
9526.5172739262
 21
4771.5071812546
 31
0.0
  0
LINE
  5
4B7
330
1F
100
AcDbEntity
  8
0
  6
Continuous
 62
     7
 48
50.0
370
    25
100
AcDbLine
 10
10666.5172894234
 20
4771.5071812546
 30
0.0
 11
10702.0172794098
 21
4771.5071812546
 31
0.0
  0
LINE
  5
4B8
330
1F
100
AcDbEntity
  8
0
  6
Continuous
 62
     7
 48
50.0
370
    25
100
AcDbLine
 10
10702.0172794098
 20
4771.5071812546
 30
0.0
 11
10702.0172794098
 21
4762.0429173386
 31
0.0
  0
LINE
  5
4B9
330
1F
100
AcDbEntity
  8
0
  6
Continuous
 62
     7
 48
50.0
370
    25
100
AcDbLine
 10
9507.4172933335
 20
4735.0939885056
 30
0.0
 11
9526.6172905201
 21
4735.0939885056
 31
0.0
  0
LINE
  5
4BA
330
1F
100
AcDbEntity
  8
0
  6
Continuous
 62
     7
 48
50.0
370
    25
100
AcDbLine
 10
8332.0172746415
 20
4720.4531804001
 30
0.0
 11
8332.0172746415
 21
4721.9466343796
 31
0.0
  0
LINE
  5
4BB
330
1F
100
AcDbEntity
  8
0
  6
Continuous
 62
     7
 48
50.0
370
    25
100
AcDbLine
 10
10702.0172794098
 20
4721.9466343796
 30
0.0
 11
10702.0172794098
 21
4720.4531804001
 31
0.0
  0
LINE
  5
4BC
330
1F
100
AcDbEntity
  8
0
  6
Continuous
 62
     7
 48
50.0
370
    25
100
AcDbLine
 10
10702.0172794098
 20
4771.5071812546
 30
0.0
 11
10702.0172794098
 21
4775.6575718796
 31
0.0
  0
LINE
  5
4BD
330
1F
100
AcDbEntity
  8
0
  6
Continuous
 62
     7
 48
50.0
370
    25
100
AcDbLine
 10
8332.0172746415
 20
4771.5071812546
 30
0.0
 11
8332.0172746415
 21
4775.6575718796
 31
0.0
  0
LINE
  5
4BE
330
1F
100
AcDbEntity
  8
0
  6
Continuous
 62
     7
 48
50.0
370
    25
100
AcDbLine
 10
8332.0172746415
 20
4804.6931401169
 30
0.0
 11
8367.5173242325
 21
4804.6931401169
 31
0.0
  0
LINE
  5
4BF
330
1F
100
AcDbEntity
  8
0
  6
Continuous
 62
     7
 48
50.0
370
    25
100
AcDbLine
 10
9507.5172801251
 20
4804.6931401169
 30
0.0
 11
9526.5172739262
 21
4804.6931401169
 31
0.0
  0
LINE
  5
4C0
330
1F
100
AcDbEntity
  8
0
  6
Continuous
 62
     7
 48
50.0
370
    25
100
AcDbLine
 10
10666.5172894234
 20
4804.6931401169
 30
0.0
 11
10702.0172794098
 21
4804.6931401169
 31
0.0
  0
LINE
  5
4C1
330
1F
100
AcDbEntity
  8
0
  6
Continuous
 62
     7
 48
50.0
370
    25
100
AcDbLine
 10
8332.0172746415
 20
4804.6931401169
 30
0.0
 11
8332.0172746415
 21
4805.9214726364
 31
0.0
  0
LINE
  5
4C2
330
1F
100
AcDbEntity
  8
0
  6
Continuous
 62
     7
 48
50.0
370
    25
100
AcDbLine
 10
8332.0172746415
 20
4805.9214726364
 30
0.0
 11
8367.5173242325
 21
4805.9214726364
 31
0.0
  0
LINE
  5
4C3
330
1F
100
AcDbEntity
  8
0
  6
Continuous
 62
     7
 48
50.0
370
    25
100
AcDbLine
 10
9507.5172801251
 20
4805.9214726364
 30
0.0
 11
9526.5172739262
 21
4805.9214726364
 31
0.0
  0
LINE
  5
4C4
330
1F
100
AcDbEntity
  8
0
  6
Continuous
 62
     7
 48
50.0
370
    25
100
AcDbLine
 10
10666.5172894234
 20
4805.9214726364
 30
0.0
 11
10702.0172794098
 21
4805.9214726364
 31
0.0
  0
LINE
  5
4C5
330
1F
100
AcDbEntity
  8
0
  6
Continuous
 62
     7
 48
50.0
370
    25
100
AcDbLine
 10
10702.0172794098
 20
4804.6931401169
 30
0.0
 11
10702.0172794098
 21
4805.9214726364
 31
0.0
  0
LINE
  5
4C6
330
1F
100
AcDbEntity
  8
0
  6
Continuous
 62
     7
 48
50.0
370
    25
100
AcDbLine
 10
8332.0172746415
 20
4815.3857365524
 30
0.0
 11
8332.0172746415
 21
4805.9214726364
 31
0.0
  0
LINE
  5
4C7
330
1F
100
AcDbEntity
  8
0
  6
Continuous
 62
     7
 48
50.0
370
    25
100
AcDbLine
 10
10702.0172794098
 20
4815.3857365524
 30
0.0
 11
10702.0172794098
 21
4805.9214726364
 31
0.0
  0
LINE
  5
4C8
330
1F
100
AcDbEntity
  8
0
  6
Continuous
 62
     7
 48
50.0
370
    25
100
AcDbLine
 10
8332.0172746415
 20
4815.3857365524
 30
0.0
 11
8332.0172746415
 21
4816.0189762985
 31
0.0
  0
LINE
  5
4C9
330
1F
100
AcDbEntity
  8
0
  6
Continuous
 62
     7
 48
50.0
370
    25
100
AcDbLine
 10
10702.0172794098
 20
4815.3857365524
 30
0.0
 11
10702.0172794098
 21
4816.0189762985
 31
0.0
  0
LINE
  5
4CA
330
1F
100
AcDbEntity
  8
0
  6
Continuous
 62
     7
 48
50.0
370
    25
100
AcDbLine
 10
8332.0172746415
 20
4778.4423008835
 30
0.0
 11
8332.0172746415
 21
4804.6931401169
 31
0.0
  0
LINE
  5
4CB
330
1F
100
AcDbEntity
  8
0
  6
Continuous
 62
     7
 48
50.0
370
    25
100
AcDbLine
 10
10702.0172794098
 20
4778.4423008835
 30
0.0
 11
10702.0172794098
 21
4804.6931401169
 31
0.0
  0
LINE
  5
4CC
330
1F
100
AcDbEntity
  8
0
  6
Continuous
 62
     7
 48
50.0
370
    25
100
AcDbLine
 10
9526.5172739262
 20
4790.7294407761
 30
0.0
 11
9507.5172801251
 21
4790.7294407761
 31
0.0
  0
LINE
  5
4CD
330
1F
100
AcDbEntity
  8
0
  6
Continuous
 62
     7
 48
50.0
370
    25
100
AcDbLine
 10
9507.5172801251
 20
4801.3800755417
 30
0.0
 11
9526.5172739262
 21
4801.3800755417
 31
0.0
  0
LINE
  5
4CE
330
1F
100
AcDbEntity
  8
0
  6
Continuous
 62
     7
 48
50.0
370
    25
100
AcDbLine
 10
9526.5172739262
 20
4791.5915623581
 30
0.0
 11
9507.5172801251
 21
4791.5915623581
 31
0.0
  0
LINE
  5
4CF
330
1F
100
AcDbEntity
  8
0
  6
Continuous
 62
     7
 48
50.0
370
    25
100
AcDbLine
 10
8332.0172746415
 20
4778.4423008835
 30
0.0
 11
8332.0172746415
 21
4775.6575718796
 31
0.0
  0
LINE
  5
4D0
330
1F
100
AcDbEntity
  8
0
  6
Continuous
 62
     7
 48
50.0
370
    25
100
AcDbLine
 10
10702.0172794098
 20
4775.6575718796
 30
0.0
 11
10702.0172794098
 21
4778.4423008835
 31
0.0
  0
LINE
  5
4D1
330
1F
100
AcDbEntity
  8
0
  6
Continuous
 62
     7
 48
50.0
370
    25
100
AcDbLine
 10
8332.0172746415
 20
7612.6937046921
 30
0.0
 11
8332.0172746415
 21
7607.8185215866
 31
0.0
  0
LINE
  5
4D2
330
1F
100
AcDbEntity
  8
0
  6
Continuous
 62
     7
 48
50.0
370
    25
100
AcDbLine
 10
10702.0172794098
 20
7612.6937046921
 30
0.0
 11
10702.0172794098
 21
7607.8185215866
 31
0.0
  0
LINE
  5
4D3
330
1F
100
AcDbEntity
  8
0
  6
Continuous
 62
     7
 48
50.0
370
    25
100
AcDbLine
 10
8332.0172746415
 20
7607.8185215866
 30
0.0
 11
8332.0172746415
 21
7572.5955143845
 31
0.0
  0
LINE
  5
4D4
330
1F
100
AcDbEntity
  8
0
  6
Continuous
 62
     7
 48
50.0
370
    25
100
AcDbLine
 10
10702.0172794098
 20
7607.8185215866
 30
0.0
 11
10702.0172794098
 21
7572.5955143845
 31
0.0
  0
LINE
  5
4D5
330
1F
100
AcDbEntity
  8
0
  6
Continuous
 62
     7
 48
50.0
370
    25
100
AcDbLine
 10
9526.5172739262
 20
7595.531381694
 30
0.0
 11
9507.5172801251
 21
7595.531381694
 31
0.0
  0
LINE
  5
4D6
330
1F
100
AcDbEntity
  8
0
  6
Continuous
 62
     7
 48
50.0
370
    25
100
AcDbLine
 10
9507.5172801251
 20
7584.882654277
 30
0.0
 11
9526.5172739262
 21
7584.882654277
 31
0.0
  0
LINE
  5
4D7
330
1F
100
AcDbEntity
  8
0
  6
Continuous
 62
     7
 48
50.0
370
    25
100
AcDbLine
 10
8332.0172746415
 20
7622.1560612595
 30
0.0
 11
8332.0172746415
 21
7612.6937046921
 31
0.0
  0
LINE
  5
4D8
330
1F
100
AcDbEntity
  8
0
  6
Continuous
 62
     7
 48
50.0
370
    25
100
AcDbLine
 10
8332.0172746415
 20
7622.1560612595
 30
0.0
 11
8367.6172216172
 21
7622.1560612595
 31
0.0
  0
LINE
  5
4D9
330
1F
100
AcDbEntity
  8
0
  6
Continuous
 62
     7
 48
50.0
370
    25
100
AcDbLine
 10
9507.4172933335
 20
7622.1560612595
 30
0.0
 11
9526.6172905201
 21
7622.1560612595
 31
0.0
  0
LINE
  5
4DA
330
1F
100
AcDbEntity
  8
0
  6
Continuous
 62
     7
 48
50.0
370
    25
100
AcDbLine
 10
10666.4172728295
 20
7622.1560612595
 30
0.0
 11
10702.0172794098
 21
7622.1560612595
 31
0.0
  0
LINE
  5
4DB
330
1F
100
AcDbEntity
  8
0
  6
Continuous
 62
     7
 48
50.0
370
    25
100
AcDbLine
 10
10702.0172794098
 20
7622.1560612595
 30
0.0
 11
10702.0172794098
 21
7612.6937046921
 31
0.0
  0
LINE
  5
4DC
330
1F
100
AcDbEntity
  8
0
  6
Continuous
 62
     7
 48
50.0
370
    25
100
AcDbLine
 10
9507.5172801251
 20
7585.7428685104
 30
0.0
 11
9526.5172739262
 21
7585.7428685104
 31
0.0
  0
LINE
  5
4DD
330
1F
100
AcDbEntity
  8
0
  6
Continuous
 62
     7
 48
50.0
370
    25
100
AcDbLine
 10
8332.0172746415
 20
7571.102060405
 30
0.0
 11
8332.0172746415
 21
7572.5955143845
 31
0.0
  0
LINE
  5
4DE
330
1F
100
AcDbEntity
  8
0
  6
Continuous
 62
     7
 48
50.0
370
    25
100
AcDbLine
 10
10702.0172794098
 20
7572.5955143845
 30
0.0
 11
10702.0172794098
 21
7571.102060405
 31
0.0
  0
LINE
  5
4DF
330
1F
100
AcDbEntity
  8
0
  6
Continuous
 62
     7
 48
50.0
370
    25
100
AcDbLine
 10
10702.0172794098
 20
7622.1560612595
 30
0.0
 11
10702.0172794098
 21
7626.3064518845
 31
0.0
  0
LINE
  5
4E0
330
1F
100
AcDbEntity
  8
0
  6
Continuous
 62
     7
 48
50.0
370
    25
100
AcDbLine
 10
8332.0172746415
 20
7622.1560612595
 30
0.0
 11
8332.0172746415
 21
7626.3064518845
 31
0.0
  0
LINE
  5
4E1
330
1F
100
AcDbEntity
  8
0
  6
Continuous
 62
     7
 48
50.0
370
    25
100
AcDbLine
 10
8332.0172746415
 20
7655.3420201218
 30
0.0
 11
8367.6172216172
 21
7655.3420201218
 31
0.0
  0
LINE
  5
4E2
330
1F
100
AcDbEntity
  8
0
  6
Continuous
 62
     7
 48
50.0
370
    25
100
AcDbLine
 10
9507.4172933335
 20
7655.3420201218
 30
0.0
 11
9526.6172905201
 21
7655.3420201218
 31
0.0
  0
LINE
  5
4E3
330
1F
100
AcDbEntity
  8
0
  6
Continuous
 62
     7
 48
50.0
370
    25
100
AcDbLine
 10
10666.4172728295
 20
7655.3420201218
 30
0.0
 11
10702.0172794098
 21
7655.3420201218
 31
0.0
  0
LINE
  5
4E4
330
1F
100
AcDbEntity
  8
0
  6
Continuous
 62
     7
 48
50.0
370
    25
100
AcDbLine
 10
8332.0172746415
 20
7655.3420201218
 30
0.0
 11
8332.0172746415
 21
7656.5722599899
 31
0.0
  0
LINE
  5
4E5
330
1F
100
AcDbEntity
  8
0
  6
Continuous
 62
     7
 48
50.0
370
    25
100
AcDbLine
 10
8332.0172746415
 20
7656.5722599899
 30
0.0
 11
8367.6172216172
 21
7656.5722599899
 31
0.0
  0
LINE
  5
4E6
330
1F
100
AcDbEntity
  8
0
  6
Continuous
 62
     7
 48
50.0
370
    25
100
AcDbLine
 10
9507.4172933335
 20
7656.5722599899
 30
0.0
 11
9526.6172905201
 21
7656.5722599899
 31
0.0
  0
LINE
  5
4E7
330
1F
100
AcDbEntity
  8
0
  6
Continuous
 62
     7
 48
50.0
370
    25
100
AcDbLine
 10
10666.4172728295
 20
7656.5722599899
 30
0.0
 11
10702.0172794098
 21
7656.5722599899
 31
0.0
  0
LINE
  5
4E8
330
1F
100
AcDbEntity
  8
0
  6
Continuous
 62
     7
 48
50.0
370
    25
100
AcDbLine
 10
10702.0172794098
 20
7655.3420201218
 30
0.0
 11
10702.0172794098
 21
7656.5722599899
 31
0.0
  0
LINE
  5
4E9
330
1F
100
AcDbEntity
  8
0
  6
Continuous
 62
     7
 48
50.0
370
    25
100
AcDbLine
 10
8332.0172746415
 20
7666.0346165573
 30
0.0
 11
8332.0172746415
 21
7656.5722599899
 31
0.0
  0
LINE
  5
4EA
330
1F
100
AcDbEntity
  8
0
  6
Continuous
 62
     7
 48
50.0
370
    25
100
AcDbLine
 10
10702.0172794098
 20
7666.0346165573
 30
0.0
 11
10702.0172794098
 21
7656.5722599899
 31
0.0
  0
LINE
  5
4EB
330
1F
100
AcDbEntity
  8
0
  6
Continuous
 62
     7
 48
50.0
370
    25
100
AcDbLine
 10
8332.0172746415
 20
7666.0346165573
 30
0.0
 11
8332.0172746415
 21
7666.6678563034
 31
0.0
  0
LINE
  5
4EC
330
1F
100
AcDbEntity
  8
0
  6
Continuous
 62
     7
 48
50.0
370
    25
100
AcDbLine
 10
10702.0172794098
 20
7666.0346165573
 30
0.0
 11
10702.0172794098
 21
7666.6678563034
 31
0.0
  0
LINE
  5
4ED
330
1F
100
AcDbEntity
  8
0
  6
Continuous
 62
     7
 48
50.0
370
    25
100
AcDbLine
 10
8332.0172746415
 20
7629.0911808884
 30
0.0
 11
8332.0172746415
 21
7655.3420201218
 31
0.0
  0
LINE
  5
4EE
330
1F
100
AcDbEntity
  8
0
  6
Continuous
 62
     7
 48
50.0
370
    25
100
AcDbLine
 10
10702.0172794098
 20
7629.0911808884
 30
0.0
 11
10702.0172794098
 21
7655.3420201218
 31
0.0
  0
LINE
  5
4EF
330
1F
100
AcDbEntity
  8
0
  6
Continuous
 62
     7
 48
50.0
370
    25
100
AcDbLine
 10
9526.6172905201
 20
7641.3802281296
 30
0.0
 11
9507.4172933335
 21
7641.3802281296
 31
0.0
  0
LINE
  5
4F0
330
1F
100
AcDbEntity
  8
0
  6
Continuous
 62
     7
 48
50.0
370
    25
100
AcDbLine
 10
9507.4172933335
 20
7652.0289555466
 30
0.0
 11
9526.6172905201
 21
7652.0289555466
 31
0.0
  0
LINE
  5
4F1
330
1F
100
AcDbEntity
  8
0
  6
Continuous
 62
     7
 48
50.0
370
    25
100
AcDbLine
 10
9526.6172905201
 20
7642.240442363
 30
0.0
 11
9507.4172933335
 21
7642.240442363
 31
0.0
  0
LINE
  5
4F2
330
1F
100
AcDbEntity
  8
0
  6
Continuous
 62
     7
 48
50.0
370
    25
100
AcDbLine
 10
8332.0172746415
 20
7629.0911808884
 30
0.0
 11
8332.0172746415
 21
7626.3064518845
 31
0.0
  0
LINE
  5
4F3
330
1F
100
AcDbEntity
  8
0
  6
Continuous
 62
     7
 48
50.0
370
    25
100
AcDbLine
 10
10702.0172794098
 20
7626.3064518845
 30
0.0
 11
10702.0172794098
 21
7629.0911808884
 31
0.0
  0
LINE
  5
4F4
330
1F
100
AcDbEntity
  8
0
  6
Continuous
 62
     8
 48
50.0
370
    25
100
AcDbLine
 10
8332.0172746415
 20
5872.0358982956
 30
0.0
 11
8367.6172216172
 21
5872.0358982956
 31
0.0
  0
LINE
  5
4F5
330
1F
100
AcDbEntity
  8
0
  6
Continuous
 62
     8
 48
50.0
370
    25
100
AcDbLine
 10
9507.4172933335
 20
5872.0358982956
 30
0.0
 11
9526.6172905201
 21
5872.0358982956
 31
0.0
  0
LINE
  5
4F6
330
1F
100
AcDbEntity
  8
0
  6
Continuous
 62
     8
 48
50.0
370
    25
100
AcDbLine
 10
10666.4172728295
 20
5872.0358982956
 30
0.0
 11
10702.0172794098
 21
5872.0358982956
 31
0.0
  0
LINE
  5
4F7
330
1F
100
AcDbEntity
  8
0
  6
Continuous
 62
     8
 48
50.0
370
    25
100
AcDbLine
 10
8332.0172746415
 20
5876.9091740524
 30
0.0
 11
8367.6172216172
 21
5876.9091740524
 31
0.0
  0
LINE
  5
4F8
330
1F
100
AcDbEntity
  8
0
  6
Continuous
 62
     8
 48
50.0
370
    25
100
AcDbLine
 10
9507.4172933335
 20
5876.9091740524
 30
0.0
 11
9526.6172905201
 21
5876.9091740524
 31
0.0
  0
LINE
  5
4F9
330
1F
100
AcDbEntity
  8
0
  6
Continuous
 62
     8
 48
50.0
370
    25
100
AcDbLine
 10
10666.4172728295
 20
5876.9091740524
 30
0.0
 11
10702.0172794098
 21
5876.9091740524
 31
0.0
  0
LINE
  5
4FA
330
1F
100
AcDbEntity
  8
0
  6
Continuous
 62
     8
 48
50.0
370
    25
100
AcDbLine
 10
9507.4172933335
 20
5836.8109837448
 30
0.0
 11
9526.6172905201
 21
5836.8109837448
 31
0.0
  0
LINE
  5
4FB
330
1F
100
AcDbEntity
  8
0
  6
Continuous
 62
     8
 48
50.0
370
    25
100
AcDbLine
 10
8332.0172746415
 20
5836.8109837448
 30
0.0
 11
8367.6172216172
 21
5836.8109837448
 31
0.0
  0
LINE
  5
4FC
330
1F
100
AcDbEntity
  8
0
  6
Continuous
 62
     8
 48
50.0
370
    25
100
AcDbLine
 10
10666.4172728295
 20
5836.8109837448
 30
0.0
 11
10702.0172794098
 21
5836.8109837448
 31
0.0
  0
LINE
  5
4FD
330
1F
100
AcDbEntity
  8
0
  6
Continuous
 62
     8
 48
50.0
370
    25
100
AcDbLine
 10
9507.4172933335
 20
5890.5238285934
 30
0.0
 11
9526.6172905201
 21
5890.5238285934
 31
0.0
  0
LINE
  5
4FE
330
1F
100
AcDbEntity
  8
0
  6
Continuous
 62
     8
 48
50.0
370
    25
100
AcDbLine
 10
10666.4172728295
 20
5890.5238285934
 30
0.0
 11
10702.0172794098
 21
5890.5238285934
 31
0.0
  0
LINE
  5
4FF
330
1F
100
AcDbEntity
  8
0
  6
Continuous
 62
     8
 48
50.0
370
    25
100
AcDbLine
 10
8332.0172746415
 20
5890.5238285934
 30
0.0
 11
8367.6172216172
 21
5890.5238285934
 31
0.0
  0
LINE
  5
500
330
1F
100
AcDbEntity
  8
0
  6
Continuous
 62
     8
 48
50.0
370
    25
100
AcDbLine
 10
8332.0172746415
 20
5930.2519932663
 30
0.0
 11
8367.6172216172
 21
5930.2519932663
 31
0.0
  0
LINE
  5
501
330
1F
100
AcDbEntity
  8
0
  6
Continuous
 62
     8
 48
50.0
370
    25
100
AcDbLine
 10
9507.4172933335
 20
5930.2519932663
 30
0.0
 11
9526.6172905201
 21
5930.2519932663
 31
0.0
  0
LINE
  5
502
330
1F
100
AcDbEntity
  8
0
  6
Continuous
 62
     8
 48
50.0
370
    25
100
AcDbLine
 10
10666.4172728295
 20
5930.2519932663
 30
0.0
 11
10702.0172794098
 21
5930.2519932663
 31
0.0
  0
LINE
  5
503
330
1F
100
AcDbEntity
  8
0
  6
Continuous
 62
     8
 48
50.0
370
    25
100
AcDbLine
 10
8332.0172746415
 20
5893.3085575974
 30
0.0
 11
8367.6172216172
 21
5893.3085575974
 31
0.0
  0
LINE
  5
504
330
1F
100
AcDbEntity
  8
0
  6
Continuous
 62
     8
 48
50.0
370
    25
100
AcDbLine
 10
10666.4172728295
 20
5893.3085575974
 30
0.0
 11
10702.0172794098
 21
5893.3085575974
 31
0.0
  0
LINE
  5
505
330
1F
100
AcDbEntity
  8
0
  6
Continuous
 62
     8
 48
50.0
370
    25
100
AcDbLine
 10
9507.4172933335
 20
5893.3085575974
 30
0.0
 11
9526.6172905201
 21
5893.3085575974
 31
0.0
  0
LINE
  5
506
330
1F
100
AcDbEntity
  8
0
  6
Continuous
 62
     8
 48
50.0
370
    25
100
AcDbLine
 10
8332.0172746415
 20
6492.9522648727
 30
0.0
 11
8367.6172216172
 21
6492.9522648727
 31
0.0
  0
LINE
  5
507
330
1F
100
AcDbEntity
  8
0
  6
Continuous
 62
     8
 48
50.0
370
    25
100
AcDbLine
 10
9507.4172933335
 20
6492.9522648727
 30
0.0
 11
9526.6172905201
 21
6492.9522648727
 31
0.0
  0
LINE
  5
508
330
1F
100
AcDbEntity
  8
0
  6
Continuous
 62
     8
 48
50.0
370
    25
100
AcDbLine
 10
10666.4172728295
 20
6492.9522648727
 30
0.0
 11
10702.0172794098
 21
6492.9522648727
 31
0.0
  0
LINE
  5
509
330
1F
100
AcDbEntity
  8
0
  6
Continuous
 62
     8
 48
50.0
370
    25
100
AcDbLine
 10
8332.0172746415
 20
6497.8274479782
 30
0.0
 11
8367.6172216172
 21
6497.8274479782
 31
0.0
  0
LINE
  5
50A
330
1F
100
AcDbEntity
  8
0
  6
Continuous
 62
     8
 48
50.0
370
    25
100
AcDbLine
 10
9507.4172933335
 20
6497.8274479782
 30
0.0
 11
9526.6172905201
 21
6497.8274479782
 31
0.0
  0
LINE
  5
50B
330
1F
100
AcDbEntity
  8
0
  6
Continuous
 62
     8
 48
50.0
370
    25
100
AcDbLine
 10
10666.4172728295
 20
6497.8274479782
 30
0.0
 11
10702.0172794098
 21
6497.8274479782
 31
0.0
  0
LINE
  5
50C
330
1F
100
AcDbEntity
  8
0
  6
Continuous
 62
     8
 48
50.0
370
    25
100
AcDbLine
 10
9507.4172933335
 20
6457.7292576706
 30
0.0
 11
9526.6172905201
 21
6457.7292576706
 31
0.0
  0
LINE
  5
50D
330
1F
100
AcDbEntity
  8
0
  6
Continuous
 62
     8
 48
50.0
370
    25
100
AcDbLine
 10
8332.0172746415
 20
6457.7292576706
 30
0.0
 11
8367.6172216172
 21
6457.7292576706
 31
0.0
  0
LINE
  5
50E
330
1F
100
AcDbEntity
  8
0
  6
Continuous
 62
     8
 48
50.0
370
    25
100
AcDbLine
 10
10666.4172728295
 20
6457.7292576706
 30
0.0
 11
10702.0172794098
 21
6457.7292576706
 31
0.0
  0
LINE
  5
50F
330
1F
100
AcDbEntity
  8
0
  6
Continuous
 62
     8
 48
50.0
370
    25
100
AcDbLine
 10
9507.4172933335
 20
6511.4401951706
 30
0.0
 11
9526.6172905201
 21
6511.4401951706
 31
0.0
  0
LINE
  5
510
330
1F
100
AcDbEntity
  8
0
  6
Continuous
 62
     8
 48
50.0
370
    25
100
AcDbLine
 10
10666.4172728295
 20
6511.4401951706
 30
0.0
 11
10702.0172794098
 21
6511.4401951706
 31
0.0
  0
LINE
  5
511
330
1F
100
AcDbEntity
  8
0
  6
Continuous
 62
     8
 48
50.0
370
    25
100
AcDbLine
 10
8332.0172746415
 20
6511.4401951706
 30
0.0
 11
8367.6172216172
 21
6511.4401951706
 31
0.0
  0
LINE
  5
512
330
1F
100
AcDbEntity
  8
0
  6
Continuous
 62
     8
 48
50.0
370
    25
100
AcDbLine
 10
8332.0172746415
 20
6551.1702671921
 30
0.0
 11
8367.6172216172
 21
6551.1702671921
 31
0.0
  0
LINE
  5
513
330
1F
100
AcDbEntity
  8
0
  6
Continuous
 62
     8
 48
50.0
370
    25
100
AcDbLine
 10
9507.4172933335
 20
6551.1702671921
 30
0.0
 11
9526.6172905201
 21
6551.1702671921
 31
0.0
  0
LINE
  5
514
330
1F
100
AcDbEntity
  8
0
  6
Continuous
 62
     8
 48
50.0
370
    25
100
AcDbLine
 10
10666.4172728295
 20
6551.1702671921
 30
0.0
 11
10702.0172794098
 21
6551.1702671921
 31
0.0
  0
LINE
  5
515
330
1F
100
AcDbEntity
  8
0
  6
Continuous
 62
     8
 48
50.0
370
    25
100
AcDbLine
 10
8332.0172746415
 20
6514.2268315231
 30
0.0
 11
8367.6172216172
 21
6514.2268315231
 31
0.0
  0
LINE
  5
516
330
1F
100
AcDbEntity
  8
0
  6
Continuous
 62
     8
 48
50.0
370
    25
100
AcDbLine
 10
10666.4172728295
 20
6514.2268315231
 30
0.0
 11
10702.0172794098
 21
6514.2268315231
 31
0.0
  0
LINE
  5
517
330
1F
100
AcDbEntity
  8
0
  6
Continuous
 62
     8
 48
50.0
370
    25
100
AcDbLine
 10
9507.4172933335
 20
6514.2268315231
 30
0.0
 11
9526.6172905201
 21
6514.2268315231
 31
0.0
  0
LINE
  5
518
330
1F
100
AcDbEntity
  8
0
  6
Continuous
 62
     8
 48
50.0
370
    25
100
AcDbLine
 10
8332.0172746415
 20
4757.1696415817
 30
0.0
 11
8367.6172216172
 21
4757.1696415817
 31
0.0
  0
LINE
  5
519
330
1F
100
AcDbEntity
  8
0
  6
Continuous
 62
     8
 48
50.0
370
    25
100
AcDbLine
 10
9507.4172933335
 20
4757.1696415817
 30
0.0
 11
9526.6172905201
 21
4757.1696415817
 31
0.0
  0
LINE
  5
51A
330
1F
100
AcDbEntity
  8
0
  6
Continuous
 62
     8
 48
50.0
370
    25
100
AcDbLine
 10
10666.4172728295
 20
4757.1696415817
 30
0.0
 11
10702.0172794098
 21
4757.1696415817
 31
0.0
  0
LINE
  5
51B
330
1F
100
AcDbEntity
  8
0
  6
Continuous
 62
     8
 48
50.0
370
    25
100
AcDbLine
 10
8332.0172746415
 20
4762.0429173386
 30
0.0
 11
8367.6172216172
 21
4762.0429173386
 31
0.0
  0
LINE
  5
51C
330
1F
100
AcDbEntity
  8
0
  6
Continuous
 62
     8
 48
50.0
370
    25
100
AcDbLine
 10
9507.4172933335
 20
4762.0429173386
 30
0.0
 11
9526.6172905201
 21
4762.0429173386
 31
0.0
  0
LINE
  5
51D
330
1F
100
AcDbEntity
  8
0
  6
Continuous
 62
     8
 48
50.0
370
    25
100
AcDbLine
 10
10666.4172728295
 20
4762.0429173386
 30
0.0
 11
10702.0172794098
 21
4762.0429173386
 31
0.0
  0
LINE
  5
51E
330
1F
100
AcDbEntity
  8
0
  6
Continuous
 62
     8
 48
50.0
370
    25
100
AcDbLine
 10
9507.4172933335
 20
4721.9466343796
 30
0.0
 11
9526.6172905201
 21
4721.9466343796
 31
0.0
  0
LINE
  5
51F
330
1F
100
AcDbEntity
  8
0
  6
Continuous
 62
     8
 48
50.0
370
    25
100
AcDbLine
 10
8332.0172746415
 20
4721.9466343796
 30
0.0
 11
8367.6172216172
 21
4721.9466343796
 31
0.0
  0
LINE
  5
520
330
1F
100
AcDbEntity
  8
0
  6
Continuous
 62
     8
 48
50.0
370
    25
100
AcDbLine
 10
10666.4172728295
 20
4721.9466343796
 30
0.0
 11
10702.0172794098
 21
4721.9466343796
 31
0.0
  0
LINE
  5
521
330
1F
100
AcDbEntity
  8
0
  6
Continuous
 62
     8
 48
50.0
370
    25
100
AcDbLine
 10
9507.5172801251
 20
4775.6575718796
 30
0.0
 11
9526.5172739262
 21
4775.6575718796
 31
0.0
  0
LINE
  5
522
330
1F
100
AcDbEntity
  8
0
  6
Continuous
 62
     8
 48
50.0
370
    25
100
AcDbLine
 10
10666.5172894234
 20
4775.6575718796
 30
0.0
 11
10702.0172794098
 21
4775.6575718796
 31
0.0
  0
LINE
  5
523
330
1F
100
AcDbEntity
  8
0
  6
Continuous
 62
     8
 48
50.0
370
    25
100
AcDbLine
 10
8332.0172746415
 20
4775.6575718796
 30
0.0
 11
8367.5173242325
 21
4775.6575718796
 31
0.0
  0
LINE
  5
524
330
1F
100
AcDbEntity
  8
0
  6
Continuous
 62
     8
 48
50.0
370
    25
100
AcDbLine
 10
8332.0172746415
 20
4815.3857365524
 30
0.0
 11
8367.5173242325
 21
4815.3857365524
 31
0.0
  0
LINE
  5
525
330
1F
100
AcDbEntity
  8
0
  6
Continuous
 62
     8
 48
50.0
370
    25
100
AcDbLine
 10
9507.5172801251
 20
4815.3857365524
 30
0.0
 11
9526.5172739262
 21
4815.3857365524
 31
0.0
  0
LINE
  5
526
330
1F
100
AcDbEntity
  8
0
  6
Continuous
 62
     8
 48
50.0
370
    25
100
AcDbLine
 10
10666.5172894234
 20
4815.3857365524
 30
0.0
 11
10702.0172794098
 21
4815.3857365524
 31
0.0
  0
LINE
  5
527
330
1F
100
AcDbEntity
  8
0
  6
Continuous
 62
     8
 48
50.0
370
    25
100
AcDbLine
 10
8332.0172746415
 20
4778.4423008835
 30
0.0
 11
8367.5173242325
 21
4778.4423008835
 31
0.0
  0
LINE
  5
528
330
1F
100
AcDbEntity
  8
0
  6
Continuous
 62
     8
 48
50.0
370
    25
100
AcDbLine
 10
10666.5172894234
 20
4778.4423008835
 30
0.0
 11
10702.0172794098
 21
4778.4423008835
 31
0.0
  0
LINE
  5
529
330
1F
100
AcDbEntity
  8
0
  6
Continuous
 62
     8
 48
50.0
370
    25
100
AcDbLine
 10
9507.5172801251
 20
4778.4423008835
 30
0.0
 11
9526.5172739262
 21
4778.4423008835
 31
0.0
  0
LINE
  5
52A
330
1F
100
AcDbEntity
  8
0
  6
Continuous
 62
     8
 48
50.0
370
    25
100
AcDbLine
 10
8332.0172746415
 20
7607.8185215866
 30
0.0
 11
8367.5173242325
 21
7607.8185215866
 31
0.0
  0
LINE
  5
52B
330
1F
100
AcDbEntity
  8
0
  6
Continuous
 62
     8
 48
50.0
370
    25
100
AcDbLine
 10
9507.5172801251
 20
7607.8185215866
 30
0.0
 11
9526.5172739262
 21
7607.8185215866
 31
0.0
  0
LINE
  5
52C
330
1F
100
AcDbEntity
  8
0
  6
Continuous
 62
     8
 48
50.0
370
    25
100
AcDbLine
 10
10666.5172894234
 20
7607.8185215866
 30
0.0
 11
10702.0172794098
 21
7607.8185215866
 31
0.0
  0
LINE
  5
52D
330
1F
100
AcDbEntity
  8
0
  6
Continuous
 62
     8
 48
50.0
370
    25
100
AcDbLine
 10
8332.0172746415
 20
7612.6937046921
 30
0.0
 11
8367.6172216172
 21
7612.6937046921
 31
0.0
  0
LINE
  5
52E
330
1F
100
AcDbEntity
  8
0
  6
Continuous
 62
     8
 48
50.0
370
    25
100
AcDbLine
 10
9507.4172933335
 20
7612.6937046921
 30
0.0
 11
9526.6172905201
 21
7612.6937046921
 31
0.0
  0
LINE
  5
52F
330
1F
100
AcDbEntity
  8
0
  6
Continuous
 62
     8
 48
50.0
370
    25
100
AcDbLine
 10
10666.4172728295
 20
7612.6937046921
 30
0.0
 11
10702.0172794098
 21
7612.6937046921
 31
0.0
  0
LINE
  5
530
330
1F
100
AcDbEntity
  8
0
  6
Continuous
 62
     8
 48
50.0
370
    25
100
AcDbLine
 10
9507.5172801251
 20
7572.5955143845
 30
0.0
 11
9526.5172739262
 21
7572.5955143845
 31
0.0
  0
LINE
  5
531
330
1F
100
AcDbEntity
  8
0
  6
Continuous
 62
     8
 48
50.0
370
    25
100
AcDbLine
 10
8332.0172746415
 20
7572.5955143845
 30
0.0
 11
8367.5173242325
 21
7572.5955143845
 31
0.0
  0
LINE
  5
532
330
1F
100
AcDbEntity
  8
0
  6
Continuous
 62
     8
 48
50.0
370
    25
100
AcDbLine
 10
10666.5172894234
 20
7572.5955143845
 30
0.0
 11
10702.0172794098
 21
7572.5955143845
 31
0.0
  0
LINE
  5
533
330
1F
100
AcDbEntity
  8
0
  6
Continuous
 62
     8
 48
50.0
370
    25
100
AcDbLine
 10
9507.4172933335
 20
7626.3064518845
 30
0.0
 11
9526.6172905201
 21
7626.3064518845
 31
0.0
  0
LINE
  5
534
330
1F
100
AcDbEntity
  8
0
  6
Continuous
 62
     8
 48
50.0
370
    25
100
AcDbLine
 10
10666.4172728295
 20
7626.3064518845
 30
0.0
 11
10702.0172794098
 21
7626.3064518845
 31
0.0
  0
LINE
  5
535
330
1F
100
AcDbEntity
  8
0
  6
Continuous
 62
     8
 48
50.0
370
    25
100
AcDbLine
 10
8332.0172746415
 20
7626.3064518845
 30
0.0
 11
8367.6172216172
 21
7626.3064518845
 31
0.0
  0
LINE
  5
536
330
1F
100
AcDbEntity
  8
0
  6
Continuous
 62
     8
 48
50.0
370
    25
100
AcDbLine
 10
8332.0172746415
 20
7666.0346165573
 30
0.0
 11
8367.6172216172
 21
7666.0346165573
 31
0.0
  0
LINE
  5
537
330
1F
100
AcDbEntity
  8
0
  6
Continuous
 62
     8
 48
50.0
370
    25
100
AcDbLine
 10
9507.4172933335
 20
7666.0346165573
 30
0.0
 11
9526.6172905201
 21
7666.0346165573
 31
0.0
  0
LINE
  5
538
330
1F
100
AcDbEntity
  8
0
  6
Continuous
 62
     8
 48
50.0
370
    25
100
AcDbLine
 10
10666.4172728295
 20
7666.0346165573
 30
0.0
 11
10702.0172794098
 21
7666.0346165573
 31
0.0
  0
LINE
  5
539
330
1F
100
AcDbEntity
  8
0
  6
Continuous
 62
     8
 48
50.0
370
    25
100
AcDbLine
 10
8332.0172746415
 20
7629.0911808884
 30
0.0
 11
8367.6172216172
 21
7629.0911808884
 31
0.0
  0
LINE
  5
53A
330
1F
100
AcDbEntity
  8
0
  6
Continuous
 62
     8
 48
50.0
370
    25
100
AcDbLine
 10
10666.4172728295
 20
7629.0911808884
 30
0.0
 11
10702.0172794098
 21
7629.0911808884
 31
0.0
  0
LINE
  5
53B
330
1F
100
AcDbEntity
  8
0
  6
Continuous
 62
     8
 48
50.0
370
    25
100
AcDbLine
 10
9507.4172933335
 20
7629.0911808884
 30
0.0
 11
9526.6172905201
 21
7629.0911808884
 31
0.0
  0
DIMENSION
  5
53C
330
1F
100
AcDbEntity
  8
0
  6
Continuous
 62
     7
 48
50.0
370
    18
100
AcDbDimension
  2
_D_10
 10
10702.0172793984
 20
8670.8207384682
 30
0.0
 11
9472.8123636957
 21
8670.8207384685
 31
0.0
 70
   160
  1
<>
 71
     2
 42
-1.0
  3
SLDDIMSTYLE1
100
AcDbAlignedDimension
 13
8332.0172793981
 23
7664.3156679671
 33
0.0
 14
10702.0172793981
 24
7607.8183889865
 34
0.0
 50
0.0
100
AcDbRotatedDimension
  0
ENDSEC
  0
SECTION
  2
OBJECTS
  0
DICTIONARY
  5
C
330
0
100
AcDbDictionary
281
     1
  3
ACAD_GROUP
350
D
  3
ACAD_LAYOUT
350
1A
  3
ACAD_MLINESTYLE
350
17
  3
ACAD_PLOTSETTINGS
350
19
  3
ACAD_PLOTSTYLENAME
350
E
  3
ACAD_SCALELIST
350
47
  0
DICTIONARY
  5
D
102
{ACAD_REACTORS
330
C
102
}
330
C
100
AcDbDictionary
281
     1
  0
DICTIONARY
  5
1A
102
{ACAD_REACTORS
330
C
102
}
330
C
100
AcDbDictionary
281
     1
  3
Arkusz2
350
1E
  3
Model
350
22
  0
DICTIONARY
  5
17
102
{ACAD_REACTORS
330
C
102
}
330
C
100
AcDbDictionary
281
     1
  3
Standard
350
18
  0
DICTIONARY
  5
19
102
{ACAD_REACTORS
330
C
102
}
330
C
100
AcDbDictionary
281
     1
  0
ACDBDICTIONARYWDFLT
  5
E
102
{ACAD_REACTORS
330
C
102
}
330
C
100
AcDbDictionary
281
     1
  3
Normal
350
F
100
AcDbDictionaryWithDefault
340
F
  0
DICTIONARY
  5
47
102
{ACAD_REACTORS
330
C
102
}
330
C
100
AcDbDictionary
281
     1
  3
A0
350
48
  3
A1
350
49
  3
A2
350
4A
  3
A3
350
4B
  3
A4
350
4C
  3
A5
350
4D
  3
A6
350
4E
  3
A7
350
4F
  3
A8
350
50
  3
A9
350
51
  3
B0
350
52
  3
B1
350
53
  3
B2
350
54
  3
B3
350
55
  3
B4
350
56
  3
B5
350
57
  3
B6
350
58
  3
B7
350
59
  3
B8
350
5A
  3
B9
350
5B
  3
C0
350
5C
  3
C1
350
5D
  3
C2
350
5E
  3
C3
350
5F
  3
C4
350
60
  3
C5
350
61
  3
C6
350
62
  3
C7
350
63
  3
C8
350
64
  3
C9
350
65
  3
D0
350
66
  3
D1
350
67
  3
D2
350
68
  0
LAYOUT
  5
1E
102
{ACAD_REACTORS
330
1A
102
}
330
1A
100
AcDbPlotSettings
  1

  2
none_device
  4
ISO_A2_(594.00_x_420.00_MM)
  6

 40
7.5
 41
20.0
 42
7.5
 43
20.0
 44
594.0
 45
420.0
 46
0.0
 47
0.0
 48
0.0
 49
0.0
140
0.0
141
0.0
142
1.0
143
1.0
 70
  4832
 72
     1
 73
     0
 74
     1
  7

 75
     0
147
1.0
148
0.0
149
0.0
100
AcDbLayout
  1
Arkusz2
 70
     1
 71
     1
 10
0.0
 20
0.0
 11
29700.0
 21
21000.0
 12
0.0
 22
0.0
 32
0.0
 14
0.0
 24
0.0
 34
0.0
 15
29700.0
 25
21000.0
 35
0.0
146
0.0
 13
0.0
 23
0.0
 33
0.0
 16
1.0
 26
0.0
 36
0.0
 17
0.0
 27
1.0
 37
0.0
 76
     0
330
1B
  0
LAYOUT
  5
22
102
{ACAD_REACTORS
330
1A
102
}
330
1A
100
AcDbPlotSettings
  1

  2
none_device
  4
Letter_(8.50_x_11.00_Inches)
  6

 40
6.35
 41
6.35
 42
6.35000508
 43
6.35000508
 44
215.9
 45
279.4
 46
0.0
 47
0.0
 48
0.0
 49
0.0
140
0.0
141
0.0
142
1.0
143
1.0
 70
  1712
 72
     1
 73
     0
 74
     0
  7

 75
     0
147
1.0
148
0.0
149
0.0
100
AcDbLayout
  1
Model
 70
     1
 71
     0
 10
0.0
 20
0.0
 11
29700.0
 21
21000.0
 12
0.0
 22
0.0
 32
0.0
 14
0.0
 24
0.0
 34
0.0
 15
29700.0
 25
21000.0
 35
0.0
146
0.0
 13
0.0
 23
0.0
 33
0.0
 16
1.0
 26
0.0
 36
0.0
 17
0.0
 27
1.0
 37
0.0
 76
     0
330
1F
331
29
  0
MLINESTYLE
  5
18
102
{ACAD_REACTORS
330
17
102
}
330
17
100
AcDbMlineStyle
  2
Standard
 70
     0
  3

 62
   256
 51
90.0
 52
90.0
 71
     2
 49
0.5
 62
   256
  6
BYLAYER
 49
-0.5
 62
   256
  6
BYLAYER
  0
ACDBPLACEHOLDER
  5
F
102
{ACAD_REACTORS
330
E
102
}
330
E
  0
SCALE
  5
48
102
{ACAD_REACTORS
330
47
102
}
330
47
100
AcDbScale
 70
     0
300
1:1
140
1.0
141
1.0
290
     1
  0
SCALE
  5
49
102
{ACAD_REACTORS
330
47
102
}
330
47
100
AcDbScale
 70
     0
300
1:2
140
1.0
141
2.0
290
     0
  0
SCALE
  5
4A
102
{ACAD_REACTORS
330
47
102
}
330
47
100
AcDbScale
 70
     0
300
1:4
140
1.0
141
4.0
290
     0
  0
SCALE
  5
4B
102
{ACAD_REACTORS
330
47
102
}
330
47
100
AcDbScale
 70
     0
300
1:5
140
1.0
141
5.0
290
     0
  0
SCALE
  5
4C
102
{ACAD_REACTORS
330
47
102
}
330
47
100
AcDbScale
 70
     0
300
1:8
140
1.0
141
8.0
290
     0
  0
SCALE
  5
4D
102
{ACAD_REACTORS
330
47
102
}
330
47
100
AcDbScale
 70
     0
300
1:10
140
1.0
141
10.0
290
     0
  0
SCALE
  5
4E
102
{ACAD_REACTORS
330
47
102
}
330
47
100
AcDbScale
 70
     0
300
1:16
140
1.0
141
16.0
290
     0
  0
SCALE
  5
4F
102
{ACAD_REACTORS
330
47
102
}
330
47
100
AcDbScale
 70
     0
300
1:20
140
1.0
141
20.0
290
     0
  0
SCALE
  5
50
102
{ACAD_REACTORS
330
47
102
}
330
47
100
AcDbScale
 70
     0
300
1:30
140
1.0
141
30.0
290
     0
  0
SCALE
  5
51
102
{ACAD_REACTORS
330
47
102
}
330
47
100
AcDbScale
 70
     0
300
1:40
140
1.0
141
40.0
290
     0
  0
SCALE
  5
52
102
{ACAD_REACTORS
330
47
102
}
330
47
100
AcDbScale
 70
     0
300
1:50
140
1.0
141
50.0
290
     0
  0
SCALE
  5
53
102
{ACAD_REACTORS
330
47
102
}
330
47
100
AcDbScale
 70
     0
300
1:100
140
1.0
141
100.0
290
     0
  0
SCALE
  5
54
102
{ACAD_REACTORS
330
47
102
}
330
47
100
AcDbScale
 70
     0
300
2:1
140
2.0
141
1.0
290
     0
  0
SCALE
  5
55
102
{ACAD_REACTORS
330
47
102
}
330
47
100
AcDbScale
 70
     0
300
4:1
140
4.0
141
1.0
290
     0
  0
SCALE
  5
56
102
{ACAD_REACTORS
330
47
102
}
330
47
100
AcDbScale
 70
     0
300
8:1
140
8.0
141
1.0
290
     0
  0
SCALE
  5
57
102
{ACAD_REACTORS
330
47
102
}
330
47
100
AcDbScale
 70
     0
300
10:1
140
10.0
141
1.0
290
     0
  0
SCALE
  5
58
102
{ACAD_REACTORS
330
47
102
}
330
47
100
AcDbScale
 70
     0
300
100:1
140
100.0
141
1.0
290
     0
  0
SCALE
  5
59
102
{ACAD_REACTORS
330
47
102
}
330
47
100
AcDbScale
 70
     0
300
1/128" = 1'-0"
140
0.0078125
141
12.0
290
     0
  0
SCALE
  5
5A
102
{ACAD_REACTORS
330
47
102
}
330
47
100
AcDbScale
 70
     0
300
1/64" = 1'-0"
140
0.015625
141
12.0
290
     0
  0
SCALE
  5
5B
102
{ACAD_REACTORS
330
47
102
}
330
47
100
AcDbScale
 70
     0
300
1/32" = 1'-0"
140
0.03125
141
12.0
290
     0
  0
SCALE
  5
5C
102
{ACAD_REACTORS
330
47
102
}
330
47
100
AcDbScale
 70
     0
300
1/16" = 1'-0"
140
0.0625
141
12.0
290
     0
  0
SCALE
  5
5D
102
{ACAD_REACTORS
330
47
102
}
330
47
100
AcDbScale
 70
     0
300
3/32" = 1'-0"
140
0.09375
141
12.0
290
     0
  0
SCALE
  5
5E
102
{ACAD_REACTORS
330
47
102
}
330
47
100
AcDbScale
 70
     0
300
1/8" = 1'-0"
140
0.125
141
12.0
290
     0
  0
SCALE
  5
5F
102
{ACAD_REACTORS
330
47
102
}
330
47
100
AcDbScale
 70
     0
300
3/16" = 1'-0"
140
0.1875
141
12.0
290
     0
  0
SCALE
  5
60
102
{ACAD_REACTORS
330
47
102
}
330
47
100
AcDbScale
 70
     0
300
1/4" = 1'-0"
140
0.25
141
12.0
290
     0
  0
SCALE
  5
61
102
{ACAD_REACTORS
330
47
102
}
330
47
100
AcDbScale
 70
     0
300
3/8" = 1'-0"
140
0.375
141
12.0
290
     0
  0
SCALE
  5
62
102
{ACAD_REACTORS
330
47
102
}
330
47
100
AcDbScale
 70
     0
300
1/2" = 1'-0"
140
0.5
141
12.0
290
     0
  0
SCALE
  5
63
102
{ACAD_REACTORS
330
47
102
}
330
47
100
AcDbScale
 70
     0
300
3/4" = 1'-0"
140
0.75
141
12.0
290
     0
  0
SCALE
  5
64
102
{ACAD_REACTORS
330
47
102
}
330
47
100
AcDbScale
 70
     0
300
1" = 1'-0"
140
1.0
141
12.0
290
     0
  0
SCALE
  5
65
102
{ACAD_REACTORS
330
47
102
}
330
47
100
AcDbScale
 70
     0
300
1-1/2" = 1'-0"
140
1.5
141
12.0
290
     0
  0
SCALE
  5
66
102
{ACAD_REACTORS
330
47
102
}
330
47
100
AcDbScale
 70
     0
300
3" = 1'-0"
140
3.0
141
12.0
290
     0
  0
SCALE
  5
67
102
{ACAD_REACTORS
330
47
102
}
330
47
100
AcDbScale
 70
     0
300
6" = 1'-0"
140
6.0
141
12.0
290
     0
  0
SCALE
  5
68
102
{ACAD_REACTORS
330
47
102
}
330
47
100
AcDbScale
 70
     0
300
1'-0" = 1'-0"
140
12.0
141
12.0
290
     0
  0
ENDSEC
  0
EOF
